osu file format v12

[General]
AudioFilename: Isshuukan Friends - Openin.mp3
AudioLeadIn: 1500
PreviewTime: 51181
Countdown: 0
SampleSet: Soft
StackLeniency: 0.7
Mode: 0
LetterboxInBreaks: 0
WidescreenStoryboard: 0

[Editor]
DistanceSpacing: 1.1
BeatDivisor: 4
GridSize: 4
TimelineZoom: 0.9999999

[Metadata]
Title:Niji no Kakera (TV Size)
TitleUnicode:虹のかけら (TV Size)
Artist:Kon Natsumi
ArtistUnicode:昆夏美
Creator:AliomLoung
Version:Easy
Source:Isshuukan Friends.
Tags:一週間フレンズ。 one week friends Opening IamKwaN yf_bmp
BeatmapID:401277
BeatmapSetID:164893

[Difficulty]
HPDrainRate:2
CircleSize:3
OverallDifficulty:2
ApproachRate:3
SliderMultiplier:0.9
SliderTickRate:1

[Events]
//Background and Video events
Video,0,"TV.avi"
0,0,"10172919_509405959169430_600880266_o.jpg",0,0
//Break Periods
//Storyboard Layer 0 (Background)
//Storyboard Layer 1 (Fail)
//Storyboard Layer 2 (Pass)
//Storyboard Layer 3 (Foreground)
//Storyboard Sound Samples
//Background Colour Transformations
3,100,163,162,255

[TimingPoints]
500,454.545454545455,4,2,1,40,1,0
954,-100,4,2,1,30,0,0
1068,-100,4,2,1,40,0,0
4136,-100,4,2,1,50,0,0
7545,-100,4,2,2,50,0,0
8227,-100,4,2,2,60,0,0
10500,-100,4,2,1,40,0,0
10613,-100,4,2,2,60,0,0
13681,-100,4,2,2,40,0,0
13795,-100,4,2,2,60,0,0
15500,-100,4,2,2,40,0,0
15613,-100,4,2,2,60,0,0
17318,-100,4,2,2,40,0,0
17431,-100,4,2,2,60,0,0
20954,-100,4,2,2,40,0,0
21181,-100,4,2,2,60,0,0
21636,-100,4,2,1,60,0,0
22772,-100,4,2,2,60,0,0
26409,-100,4,2,3,60,0,0
26522,-100,4,2,2,60,0,0
28227,-100,4,2,3,60,0,0
28340,-100,4,2,2,60,0,0
29590,-100,4,2,1,60,0,0
30045,-100,4,2,2,60,0,0
32090,-100,4,2,1,60,0,0
36863,-100,4,2,1,50,0,0
40045,-100,4,2,2,50,0,0
41636,-100,4,2,1,50,0,0
42090,-100,4,2,1,60,0,0
42772,-100,4,2,2,50,0,0
43000,-100,4,2,1,50,0,0
43681,-100,4,2,2,65,0,0
44136,-100,4,2,1,65,0,0
51409,-100,4,2,1,70,0,1
51863,-100,4,2,2,50,0,1
51977,-100,4,2,2,70,0,1
58681,-100,4,2,1,70,0,1
59136,-100,4,2,2,70,0,1
60954,-100,4,2,2,50,0,1
61068,-100,4,2,2,80,0,1
64136,-100,4,2,1,70,0,1
64250,-100,4,2,2,70,0,1
65954,-100,4,2,1,70,0,1
66409,-100,4,2,2,70,0,1
70500,-100,4,2,1,70,0,1
70613,-100,4,2,2,70,0,1
71409,-100,4,2,1,50,0,1
71522,-100,4,2,2,70,0,1
73227,-100,4,2,1,70,0,1
73681,-100,4,2,2,70,0,1
75727,-100,4,2,1,55,0,1
76409,-100,4,2,2,70,0,1
76863,-100,4,2,1,70,0,1
80500,-100,4,2,1,40,0,0
86409,-100,4,2,1,35,0,0
86863,-100,4,2,1,30,0,0
87318,-100,4,2,1,25,0,0
87772,-100,4,2,1,20,0,0
88227,-100,4,2,1,15,0,0
88681,-100,4,2,1,10,0,0
89136,-100,4,2,1,5,0,0

[Colours]
Combo1 : 240,240,240
Combo2 : 169,255,83
Combo3 : 242,145,188
Combo4 : 186,116,116

[HitObjects]
149,145,500,6,0,P|205:197|266:217,1,135,4|4,0:3|0:3,0:0:0:0:
358,218,1636,2,0,P|410:214|466:226,1,90,0|4,0:0|0:3,0:0:0:0:
450,122,2545,2,0,P|405:123|354:118,1,90,0|4,0:0|0:3,0:0:0:0:
269,159,3454,2,0,L|220:122,1,45
133,133,4136,6,0,P|143:87|218:34,2,135,4|4|0,0:0|0:0|0:0,0:0:0:0:
133,182,5727,2,0,P|120:229|154:317,1,135,4|2,0:0|0:0,2:0:0:0:
245,313,6863,1,2,0:0:0:0:
341,289,7318,2,0,L|405:289,2,45,0|0|4,0:0|0:0|0:3,0:0:0:0:
269,221,8227,5,2,0:0:0:0:
173,249,8681,2,0,P|129:261|73:241,1,90,0|2,0:0|0:0,0:0:0:0:
31,168,9590,1,0,0:0:0:0:
129,161,10045,2,0,B|197:149|229:113|229:113|297:105,1,180,2|2,0:0|0:0,0:0:0:0:
381,57,11409,5,0,0:0:0:0:
369,157,11863,2,0,P|329:189|285:197,1,90,2|0,0:0|0:0,0:0:0:0:
289,97,12772,1,2,0:0:0:0:
193,81,13227,2,0,P|129:101|61:193,1,180
45,285,14590,1,2,0:0:0:0:
141,257,15045,6,0,P|225:241|325:269,1,180
401,309,16409,1,2,0:0:0:0:
457,229,16863,2,0,P|433:125|373:81,1,180
285,113,18227,1,2,0:0:0:0:
192,148,18681,6,0,P|229:196|346:192,1,180
390,111,20045,1,2,0:0:0:0:
445,193,20500,2,0,P|463:267|439:322,1,135,0|4,0:0|0:0,0:0:0:0:
391,323,21409,2,0,L|297:323,1,90,2|8,0:0|0:0,0:0:0:0:
265,230,22318,5,4,0:0:0:0:
356,193,22772,2,0,P|329:157|289:136,1,90,8|8,0:0|0:0,0:0:0:0:
238,51,23681,1,10,0:0:0:0:
138,51,24136,1,8,0:0:0:0:
114,147,24590,2,0,P|78:163|14:171,2,90,8|8|8,0:0|0:0|0:0,0:0:0:0:
143,241,25954,6,0,P|189:295|300:282,1,180,8|8,0:0|0:0,0:0:0:0:
236,207,27318,1,10,0:0:0:0:
333,189,27772,2,0,B|377:137|424:146|424:146|476:199,1,180,8|8,0:0|0:0,0:0:0:0:
489,296,29136,2,0,P|444:292|406:270,1,90,8|4,0:0|0:0,0:0:0:0:
312,303,30045,5,8,0:0:0:0:
218,270,30500,2,0,P|179:291|135:293,1,90,8|10,0:0|0:0,0:0:0:0:
64,224,31409,2,0,P|112:198|161:200,1,90,8|2,0:0|0:0,0:0:0:0:
178,159,32090,2,0,P|244:143|325:149,1,135,4|8,0:0|0:0,0:0:0:0:
310,50,33227,6,0,P|243:53|178:38,2,135,4|4|0,0:0|0:0|0:0,0:0:0:0:
360,48,34818,2,0,P|424:56|488:104,1,135,4|8,0:0|0:0,0:0:0:0:
472,200,35954,1,0,0:0:0:0:
380,236,36409,1,8,0:0:0:0:
320,156,36863,6,0,L|255:156,1,45,4|0,0:0|0:0,0:0:0:0:
196,96,37545,2,0,P|176:164|200:220,1,135,0|8,0:0|0:0,0:0:0:0:
296,248,38681,2,0,L|344:247,1,45
380,156,39363,2,0,P|431:204|437:265,1,135,0|4,0:0|0:0,0:0:0:0:
364,332,40500,6,0,L|316:332,1,45
220,328,41181,2,0,P|129:327|94:250,1,180,0|4,0:0|0:0,0:0:0:0:
52,164,42545,2,0,L|-5:165,2,45,0|4|4,0:0|0:0|0:0,0:0:0:0:
160,60,43681,1,4,0:0:0:0:
243,113,44136,6,0,P|271:148|357:164,2,135,8|8|8,0:0|0:0|0:0,0:0:0:0:
331,68,45954,2,0,P|412:84|452:141,1,135,8|8,0:0|0:0,0:0:0:0:
459,269,47318,1,8,0:0:0:0:
377,325,47772,6,0,B|309:368|256:315|256:315|204:367|126:323,1,270,4|0,0:0|0:0,0:0:0:0:
82,312,49363,2,0,L|29:129,1,180,4|8,0:0|0:0,0:0:0:0:
256,34,51409,6,0,L|256:220,1,180,4|0,0:0|0:0,0:0:0:0:
347,251,52772,1,2,0:0:0:0:
435,206,53227,2,0,P|445:164|431:120,1,90,0|2,0:0|0:0,0:0:0:0:
346,80,54136,2,0,P|335:124|348:167,1,90,0|2,0:0|0:0,0:0:0:0:
253,197,55045,6,0,L|149:197,2,90,0|2|0,0:0|0:0|0:0,0:0:0:0:
320,124,56409,1,2,0:0:0:0:
406,172,56863,2,0,P|409:258|323:306,1,180
262,240,58227,1,2,0:0:0:0:
170,278,58681,6,0,L|62:271,1,90,4|2,0:0|0:0,0:0:0:0:
96,174,59590,2,0,L|196:181,1,90,0|2,0:0|0:0,0:0:0:0:
221,87,60500,2,0,P|274:135|279:211,1,135
135,211,61863,1,2,0:0:0:0:
66,282,62318,6,0,P|35:209|40:186,1,90,0|2,0:0|0:0,0:0:0:0:
78,111,63227,1,0,0:0:0:0:
148,41,63681,2,0,L|242:41,2,90,2|4|2,0:0|0:0|0:0,0:0:0:0:
169,137,65045,1,0,0:0:0:0:
261,172,65500,1,2,0:0:0:0:
348,126,65954,6,0,P|360:178|344:222,1,90,4|2,0:0|0:0,0:0:0:0:
265,264,66863,1,0,0:0:0:0:
174,304,67318,2,0,L|66:304,2,90,2|0|2,0:0|0:0|0:0,0:0:0:0:
203,209,68681,2,0,L|101:208,1,90,0|2,0:0|0:0,0:0:0:0:
54,128,69590,6,0,B|51:75|51:75|118:21,2,135,0|0|2,0:0|0:0|0:0,0:0:0:0:
96,217,71409,2,0,P|168:237|270:214,1,180
367,225,72772,1,2,0:0:0:0:
393,129,73227,6,0,P|434:151|462:195,1,90,4|2,0:0|0:0,0:0:0:0:
434,282,74136,2,0,P|394:260|368:224,1,90,0|2,0:0|0:0,0:0:0:0:
300,152,75045,2,0,L|156:152,1,135,0|4,0:0|0:0,0:0:0:0:
35,224,76409,2,0,P|23:288|35:316,1,90,2|4,0:0|0:0,0:0:0:0:
129,322,77318,5,8,0:0:0:0:
219,281,77772,1,8,0:0:0:0:
219,181,78227,1,8,0:0:0:0:
182,89,78681,2,0,L|302:25,2,135,4|2|0,0:0|0:0|0:0,0:0:0:0:
219,181,80500,6,0,L|360:160,1,135,4|4,0:3|0:3,0:0:0:0:
447,189,81636,2,0,P|455:236|437:288,1,90,0|4,0:0|0:3,0:0:0:0:
362,332,82545,2,0,L|227:324,1,135,0|2,0:0|0:0,0:0:0:0:
155,255,83681,1,2,0:0:0:0:
179,158,84136,5,2,0:0:0:0:
270,120,84590,2,0,P|354:132|422:116,1,135,0|2,0:0|0:0,0:0:0:0:
438,158,85500,2,0,L|438:218,1,45,0|2,0:0|0:0,0:0:0:0:
256,192,85954,12,0,89136,0:0:0:0:
