osu file format v13

[General]
AudioFilename: OP & ED tv.size720POP[P1][av1048938]fd.mp3
AudioLeadIn: 2000
PreviewTime: 51353
Countdown: 0
SampleSet: None
StackLeniency: 0.5
Mode: 1
LetterboxInBreaks: 0
WidescreenStoryboard: 1

[Editor]
Bookmarks: 681,7953,22499,37044,51590,66135,80681
DistanceSpacing: 2
BeatDivisor: 4
GridSize: 4
TimelineZoom: 1.133599

[Metadata]
Title:Niji no Kakera-TV size ver.-
TitleUnicode:虹のかけら-TV size ver.-
Artist:Kon Natsumi
ArtistUnicode:昆夏美
Creator:OblivioN
Version:Taiko Muzukashii
Source:一週間フレンズ。
Tags:tv size Isshuukan friends. Melt kanpakyin climbb65588 opening
BeatmapID:418712
BeatmapSetID:166240

[Difficulty]
HPDrainRate:5
CircleSize:4
OverallDifficulty:5
ApproachRate:5
SliderMultiplier:1.4
SliderTickRate:1

[Events]
//Background and Video events
0,0,"one+week.jpg",0,0
//Break Periods
//Storyboard Layer 0 (Background)
//Storyboard Layer 1 (Fail)
//Storyboard Layer 2 (Pass)
//Storyboard Layer 3 (Foreground)
//Storyboard Sound Samples
//Background Colour Transformations
3,100,163,162,255

[TimingPoints]
672,454.545454545455,4,1,0,90,1,0
51581,-100,4,1,0,90,0,1
80672,-100,4,1,0,90,0,0

[Colours]
Combo1 : 243,167,167
Combo2 : 255,196,255
Combo3 : 255,255,193
Combo4 : 187,243,153

[HitObjects]
176,180,672,5,8,0:0:0:0:
124,204,1353,1,8,0:0:0:0:
124,204,2262,1,8,0:0:0:0:
124,204,3172,1,8,0:0:0:0:
224,108,3626,1,8,0:0:0:0:
124,204,3853,1,0,0:0:0:0:
160,84,4081,1,0,0:0:0:0:
120,212,4308,1,12,0:0:0:0:
296,156,4990,1,12,0:0:0:0:
160,84,5217,1,0,0:0:0:0:
160,84,5331,1,0,0:0:0:0:
160,84,5444,1,0,0:0:0:0:
160,84,5672,1,0,0:0:0:0:
12,36,5899,1,12,0:0:0:0:
356,240,6581,1,8,0:0:0:0:
268,160,7035,5,8,0:0:0:0:
268,160,7149,1,8,0:0:0:0:
268,160,7262,1,8,0:0:0:0:
420,184,7490,1,8,0:0:0:0:
276,148,7717,1,0,0:0:0:0:
408,80,7944,5,0,0:0:0:0:
408,80,8399,1,8,0:0:0:0:
408,80,8853,1,0,0:0:0:0:
408,80,9308,1,8,0:0:0:0:
408,80,9762,1,0,0:0:0:0:
408,80,9990,1,0,0:0:0:0:
408,80,10217,1,8,0:0:0:0:
408,80,10672,1,0,0:0:0:0:
408,80,11126,1,8,0:0:0:0:
408,80,11353,1,0,0:0:0:0:
408,80,11581,1,0,0:0:0:0:
408,80,12035,1,8,0:0:0:0:
408,80,12490,1,0,0:0:0:0:
408,80,12717,1,0,0:0:0:0:
408,80,12944,1,8,0:0:0:0:
408,80,13172,1,0,0:0:0:0:
408,80,13399,1,0,0:0:0:0:
408,80,13853,1,8,0:0:0:0:
408,80,14081,1,0,0:0:0:0:
408,80,14308,1,0,0:0:0:0:
408,80,14762,1,8,0:0:0:0:
408,80,15217,1,0,0:0:0:0:
408,80,15672,1,8,0:0:0:0:
408,80,16126,1,0,0:0:0:0:
408,80,16581,1,8,0:0:0:0:
408,80,16808,1,8,0:0:0:0:
408,80,17035,1,0,0:0:0:0:
408,80,17490,1,8,0:0:0:0:
408,80,17717,1,0,0:0:0:0:
408,80,17944,1,0,0:0:0:0:
408,80,18399,1,8,0:0:0:0:
408,80,18853,1,0,0:0:0:0:
408,80,19081,1,0,0:0:0:0:
408,80,19308,1,8,0:0:0:0:
408,80,19535,1,0,0:0:0:0:
408,80,19762,1,0,0:0:0:0:
408,80,20217,1,8,0:0:0:0:
408,80,20672,1,0,0:0:0:0:
408,80,21353,1,0,0:0:0:0:
408,80,21581,1,8,0:0:0:0:
408,80,21694,1,8,0:0:0:0:
408,80,21808,1,8,0:0:0:0:
408,80,22035,1,8,0:0:0:0:
408,80,22262,1,0,0:0:0:0:
292,124,22490,1,12,0:0:0:0:
336,52,23172,1,8,0:0:0:0:
296,188,23399,1,0,0:0:0:0:
328,76,23626,1,8,0:0:0:0:
296,188,24081,1,8,0:0:0:0:
152,152,24308,1,0,0:0:0:0:
184,156,24990,1,8,0:0:0:0:
84,160,25217,1,0,0:0:0:0:
204,140,25444,1,8,0:0:0:0:
204,140,25558,1,8,0:0:0:0:
204,140,25672,1,8,0:0:0:0:
204,140,25899,1,0,0:0:0:0:
204,140,26126,1,0,0:0:0:0:
204,140,26581,1,0,0:0:0:0:
204,140,27035,1,0,0:0:0:0:
344,108,27262,1,8,0:0:0:0:
204,140,27490,1,0,0:0:0:0:
340,112,27717,1,8,0:0:0:0:
172,144,27944,1,0,0:0:0:0:
424,256,28399,1,0,0:0:0:0:
296,200,28626,1,8,0:0:0:0:
164,140,28853,1,0,0:0:0:0:
172,144,29081,1,8,0:0:0:0:
172,144,29308,1,8,0:0:0:0:
308,120,29535,1,0,0:0:0:0:
284,96,29762,1,4,0:0:0:0:
156,156,30444,1,8,0:0:0:0:
280,100,30672,1,0,0:0:0:0:
156,156,30899,1,8,0:0:0:0:
300,128,31353,1,8,0:0:0:0:
164,152,31581,1,4,0:0:0:0:
36,144,32035,1,8,0:0:0:0:
180,160,32262,1,4,0:0:0:0:
132,136,32717,1,0,0:0:0:0:
172,108,32831,1,0,0:0:0:0:
132,136,32944,1,0,0:0:0:0:
252,52,33172,1,8,0:0:0:0:
196,92,33399,1,4,0:0:0:0:
224,208,34081,1,4,0:0:0:0:
144,108,34535,1,0,0:0:0:0:
228,80,34990,1,4,0:0:0:0:
120,116,35444,1,0,0:0:0:0:
120,116,35672,1,8,0:0:0:0:
120,116,35899,1,8,0:0:0:0:
120,116,36126,1,0,0:0:0:0:
192,200,36353,1,0,0:0:0:0:
120,116,36581,1,8,0:0:0:0:
148,72,36808,1,8,0:0:0:0:
466,133,37035,5,4,0:0:0:0:
466,133,37262,1,4,0:0:0:0:
466,133,37944,1,8,0:0:0:0:
466,133,38172,1,0,0:0:0:0:
466,133,38399,1,8,0:0:0:0:
466,133,38853,1,8,0:0:0:0:
466,133,39081,1,0,0:0:0:0:
466,133,39535,1,0,0:0:0:0:
466,133,39762,1,8,0:0:0:0:
466,133,40217,1,8,0:0:0:0:
466,133,40444,1,8,0:0:0:0:
466,133,40672,1,4,0:0:0:0:
466,133,40899,1,4,0:0:0:0:
466,133,41353,1,0,0:0:0:0:
466,133,41581,1,8,0:0:0:0:
466,133,41808,1,8,0:0:0:0:
466,133,42262,1,4,0:0:0:0:
466,133,42717,1,0,0:0:0:0:
466,133,42831,1,0,0:0:0:0:
466,133,42944,1,0,0:0:0:0:
466,133,43172,1,12,0:0:0:0:
466,133,43626,1,0,0:0:0:0:
466,133,43853,1,8,0:0:0:0:
466,133,44081,1,8,0:0:0:0:
466,133,44308,1,4,0:0:0:0:
466,133,44762,1,0,0:0:0:0:
466,133,44990,1,0,0:0:0:0:
466,133,45217,1,0,0:0:0:0:
466,133,45444,1,0,0:0:0:0:
466,133,45672,1,0,0:0:0:0:
466,133,45899,1,0,0:0:0:0:
466,133,46126,1,0,0:0:0:0:
466,133,46581,1,0,0:0:0:0:
466,133,46808,1,0,0:0:0:0:
466,133,47035,1,0,0:0:0:0:
466,133,47262,1,0,0:0:0:0:
466,133,47490,1,0,0:0:0:0:
466,133,47717,1,0,0:0:0:0:
466,133,47944,1,4,0:0:0:0:
466,133,48399,1,8,0:0:0:0:
466,133,48853,1,0,0:0:0:0:
466,133,49081,1,8,0:0:0:0:
466,133,49308,1,8,0:0:0:0:
466,133,49535,1,4,0:0:0:0:
466,133,49990,1,4,0:0:0:0:
466,133,50217,1,4,0:0:0:0:
466,133,50444,1,12,0:0:0:0:
466,133,51353,1,8,0:0:0:0:
466,133,51467,1,8,0:0:0:0:
392,140,51581,1,0,0:0:0:0:
156,156,52035,1,8,0:0:0:0:
156,156,52262,1,8,0:0:0:0:
156,156,52717,1,0,0:0:0:0:
156,156,52944,1,8,0:0:0:0:
236,52,53172,1,8,0:0:0:0:
192,160,53399,1,0,0:0:0:0:
196,164,53853,1,8,0:0:0:0:
480,156,54308,1,0,0:0:0:0:
356,160,54535,1,0,0:0:0:0:
228,164,54762,1,8,0:0:0:0:
236,40,54990,1,8,0:0:0:0:
500,196,55217,1,0,0:0:0:0:
212,160,55672,1,8,0:0:0:0:
356,180,55899,1,0,0:0:0:0:
80,136,56353,1,0,0:0:0:0:
204,180,56581,1,8,0:0:0:0:
204,180,57035,1,0,0:0:0:0:
96,72,57717,1,8,0:0:0:0:
216,112,57944,1,0,0:0:0:0:
396,316,58399,1,8,0:0:0:0:
340,276,58853,1,4,0:0:0:0:
224,84,59308,1,0,0:0:0:0:
256,196,59535,1,8,0:0:0:0:
252,172,59990,1,8,0:0:0:0:
252,172,60217,1,8,0:0:0:0:
224,164,60444,1,0,0:0:0:0:
224,164,60558,1,0,0:0:0:0:
252,172,60672,1,0,0:0:0:0:
84,172,61126,1,0,0:0:0:0:
224,164,61353,1,8,0:0:0:0:
188,24,61808,1,0,0:0:0:0:
256,292,62035,1,8,0:0:0:0:
80,64,62490,1,8,0:0:0:0:
200,116,62717,1,0,0:0:0:0:
324,176,62944,1,0,0:0:0:0:
204,148,63172,1,8,0:0:0:0:
68,136,63626,1,0,0:0:0:0:
88,116,64081,1,12,0:0:0:0:
200,132,64308,1,8,0:0:0:0:
240,364,64535,1,0,0:0:0:0:
220,296,64649,1,0,0:0:0:0:
168,248,64762,1,0,0:0:0:0:
220,156,64990,1,0,0:0:0:0:
288,28,65217,1,0,0:0:0:0:
300,8,65672,1,0,0:0:0:0:
444,127,66126,5,4,0:0:0:0:
444,127,66581,1,8,0:0:0:0:
444,127,66808,1,0,0:0:0:0:
444,127,67262,1,8,0:0:0:0:
444,127,67490,1,8,0:0:0:0:
444,127,67717,1,0,0:0:0:0:
444,127,67944,1,8,0:0:0:0:
444,127,68626,1,8,0:0:0:0:
444,127,68853,1,0,0:0:0:0:
444,127,69535,1,8,0:0:0:0:
444,127,69762,1,0,0:0:0:0:
444,127,69990,1,0,0:0:0:0:
444,127,70217,1,8,0:0:0:0:
444,127,70444,1,0,0:0:0:0:
444,127,70899,1,0,0:0:0:0:
444,127,71126,1,8,0:0:0:0:
444,127,71353,1,8,0:0:0:0:
444,127,71581,1,0,0:0:0:0:
444,127,72035,1,8,0:0:0:0:
444,127,72262,1,8,0:0:0:0:
444,127,72490,1,0,0:0:0:0:
444,127,72944,1,8,0:0:0:0:
444,127,73399,1,4,0:0:0:0:
444,127,73853,1,8,0:0:0:0:
444,127,74081,1,8,0:0:0:0:
444,127,74308,1,0,0:0:0:0:
444,127,74762,1,8,0:0:0:0:
444,127,74990,1,8,0:0:0:0:
444,127,75217,1,4,0:0:0:0:
444,127,75899,1,4,0:0:0:0:
444,127,76581,1,8,0:0:0:0:
444,127,76808,1,0,0:0:0:0:
444,127,77035,1,12,0:0:0:0:
444,127,77262,1,0,0:0:0:0:
444,127,77490,1,0,0:0:0:0:
444,127,77717,1,0,0:0:0:0:
444,127,77944,1,0,0:0:0:0:
444,127,78172,1,0,0:0:0:0:
444,127,78399,1,0,0:0:0:0:
444,127,78626,1,0,0:0:0:0:
444,127,78853,1,12,0:0:0:0:
444,127,79535,1,0,0:0:0:0:
444,127,79990,1,8,0:0:0:0:
444,127,80217,1,8,0:0:0:0:
444,127,80444,1,0,0:0:0:0:
444,127,80672,1,8,0:0:0:0:
444,127,80899,1,8,0:0:0:0:
444,127,81126,1,0,0:0:0:0:
444,127,81353,1,8,0:0:0:0:
444,127,81808,1,0,0:0:0:0:
444,127,82035,1,8,0:0:0:0:
444,127,82262,1,8,0:0:0:0:
444,127,82717,1,0,0:0:0:0:
444,127,82944,1,8,0:0:0:0:
444,127,83172,1,8,0:0:0:0:
444,127,83399,1,0,0:0:0:0:
444,127,83853,1,0,0:0:0:0:
444,127,84308,1,8,0:0:0:0:
444,127,84535,1,0,0:0:0:0:
444,127,84762,1,8,0:0:0:0:
444,127,84990,1,0,0:0:0:0:
444,127,85444,1,0,0:0:0:0:
444,127,85672,1,8,0:0:0:0:
444,127,85899,1,8,0:0:0:0:
