osu file format v9

[General]
AudioFilename: broken moom ~ life ~.mp3
AudioLeadIn: 0
PreviewTime: 82803
Countdown: 1
SampleSet: Soft
StackLeniency: 0.4
Mode: 0
LetterboxInBreaks: 1

[Editor]
Bookmarks: 157654,193298,201614,209931,214684
DistanceSpacing: 1
BeatDivisor: 4
GridSize: 8

[Metadata]
Title:Broken Moon ~Inochi~
Artist:Komori Kiri
Creator:dksslqj
Version:Hard
Source:Touhou
Tags:ibuki suika haru 0989596108

[Difficulty]
HPDrainRate:6
CircleSize:5
OverallDifficulty:7
ApproachRate:7
SliderMultiplier:1.9
SliderTickRate:0.5

[Events]
//Background and Video events
0,0,"BBBBBBB.jpg"
//Break Periods
2,33696,43289
2,102606,109823
//Storyboard Layer 0 (Background)
//Storyboard Layer 1 (Fail)
//Storyboard Layer 2 (Pass)
//Storyboard Layer 3 (Foreground)
//Storyboard Sound Samples
//Background Colour Transformations
3,100,163,162,255

[TimingPoints]
2605,594.059405940594,4,2,0,60,1,0
24882,-100,4,2,0,40,0,0
25327,-100,4,2,0,20,0,0
25921,-100,4,2,0,10,0,0
26218,-100,4,2,0,60,0,0
43892,-100,4,2,1,60,0,0
61862,-200,4,2,1,60,0,0
62753,-100,4,2,1,60,0,0
235327,-200,4,2,1,60,0,0
235550,-200,4,2,1,0,0,0

[Colours]
Combo1 : 251,72,72
Combo2 : 209,34,223
Combo3 : 210,159,83

[HitObjects]
456,336,16862,1,0
416,248,17159,1,0
464,168,17456,1,2
416,88,17753,1,0
56,48,18050,5,0
96,136,18347,1,0
48,216,18644,1,2
96,296,18941,1,0
304,232,19238,5,0
208,232,19535,1,0
176,144,19832,1,2
336,144,20129,1,0
256,88,20426,5,2
40,344,21020,1,2
472,344,21614,1,2
256,192,21763,12,0,23991
256,192,24288,5,2
208,272,24585,2,0,B|104:272,1,95,0|2
64,192,25179,1,0
112,112,25476,2,0,B|216:112,1,95,2|0
256,192,26070,1,2
312,112,26367,6,0,B|448:112,1,95
456,192,26961,2,0,B|336:192,1,95,2|0
312,272,27555,1,0
256,192,27852,1,0
200,272,28149,1,2
256,352,28446,1,0
152,192,28743,6,0,B|32:192,1,95
360,192,29337,2,0,B|480:192,1,95,2|0
256,192,29931,5,0
256,144,30228,1,0
256,96,30525,1,2
256,48,30822,1,0
176,96,31119,5,0
88,56,31416,1,0
0,96,31713,1,2
88,128,32010,1,0
336,288,32307,5,0
424,328,32604,1,0
512,288,32901,1,2
424,256,33198,1,0
256,192,33496,5,2
256,344,44189,5,0
256,312,44486,1,2
256,280,44783,1,0
256,248,45080,1,2
256,216,45377,6,0,B|264:152|240:72|128:104,1,190,0|8
72,96,46268,1,2
72,96,46416,1,0
96,176,46713,1,8
96,176,46862,1,2
72,256,47159,2,0,B|184:256,1,95,8|2
208,328,47753,6,0,B|312:328,1,95,0|2
384,328,48347,1,8
464,328,48644,1,2
472,304,48793,1,0
480,280,48941,1,0
488,256,49090,1,8
496,232,49238,1,2
496,152,49535,1,8
416,152,49832,1,2
336,152,50129,5,0
280,96,50426,2,0,B|216:96,2,47.5,2|0|8
176,152,51020,1,2
232,208,51317,2,0,B|288:208,2,47.5,0|8|2
336,152,51911,1,8
336,152,52208,1,2
384,216,52505,6,0,B|440:328,1,95,0|2
128,168,53100,2,0,B|72:56,1,95,8|2
256,192,53694,1,0
256,208,53842,1,8
256,224,53991,1,2
256,304,54288,1,8
256,112,54585,1,2
176,136,54882,6,0,B|176:256,1,95,0|2
336,232,55476,2,0,B|336:112,1,95,8|2
256,160,56070,1,0
256,160,56218,1,8
256,160,56367,1,2
256,240,56664,1,8
256,80,56961,1,2
176,80,57258,6,0,B|128:32|80:96,1,95,0|2
336,304,57852,2,0,B|384:352|432:288,1,95,8|2
144,272,58446,2,0,B|144:344,2,47.5,0|8|2
368,112,59040,2,0,B|416:64|352:16,1,95,8|2
296,72,59634,6,0,B|264:160|344:224|416:184,1,190,0|8
400,272,60525,1,2
376,352,60822,2,0,B|336:304,2,47.5,0|8|2
136,352,61416,2,0,B|176:304,2,47.5,8|0|2
256,216,62010,2,0,B|256:320,1,95,0|8
256,311,62902,1,2
192,264,63199,5,0
192,248,63347,1,8
192,232,63496,1,2
320,192,63793,1,8
320,176,63941,1,0
320,160,64090,1,2
320,144,64238,1,0
320,128,64387,1,4
256,80,64684,5,2
96,80,65278,1,2
176,224,65872,1,2
256,360,66466,1,2
176,344,66763,5,0
96,360,67060,1,2
120,280,67357,1,8
176,224,67654,1,2
232,280,67951,1,0
232,280,68100,1,8
232,280,68248,1,2
288,224,68545,6,0,B|408:224,1,95,8|2
464,224,69139,1,0
464,144,69436,1,2
384,144,69733,1,8
304,144,70030,2,0,B|184:144,1,95,2|0
209,144,70476,1,8
209,144,70624,1,2
160,208,70921,2,0,B|160:312,1,95,8|2
112,368,71515,6,0,B|40:384|48:288,1,95,0|2
48,304,71961,1,0
48,288,72109,2,0,B|48:176,1,95,8|2
48,112,72704,2,0,B|104:112,1,47.5,0|8
112,112,73001,2,0,B|136:152,1,47.5,2|0
152,152,73298,2,0,B|264:152,1,95,8|2
480,344,73892,6,0,B|368:344,1,95,0|2
328,200,74486,2,0,B|288:248|344:312,1,95,8|2
326,287,74931,1,0
272,344,75228,1,8
272,344,75377,1,2
216,288,75674,2,0,B|96:288,1,95,8|2
216,40,76268,6,0,B|176:144,1,95,0|2
296,40,76862,2,0,B|336:144,1,95,8|2
256,152,77456,1,0
256,168,77605,2,0,B|256:240,1,47.5,8|2
256,296,78050,1,8
256,296,78347,1,2
208,360,78644,6,0,B|168:328|176:272,1,95,0|2
304,232,79238,2,0,B|344:264|336:320,1,95,8|2
256,152,79832,1,0
256,152,79981,1,8
256,152,80129,1,2
256,296,80426,1,8
256,152,80723,1,2
136,304,81020,6,0,B|232:376,1,95,0|2
376,304,81614,2,0,B|280:376,1,95,8|2
256,296,82208,1,8
256,280,82357,1,0
256,264,82505,1,2
256,184,82803,1,8
232,136,83001,2,0,B|232:80,1,31.6666666666667,8|2
280,88,83298,2,0,B|280:56,1,31.6666666666667,0|4
200,32,83694,5,2
120,32,83991,1,8
56,80,84288,1,2
56,80,84436,1,0
56,160,84733,1,8
56,160,84882,1,2
56,240,85179,2,0,B|168:240,1,95,8|2
232,352,85773,5,0
312,352,86070,1,2
392,352,86367,1,8
456,304,86664,1,2
456,304,86812,1,0
456,224,87109,1,8
456,224,87258,1,2
456,144,87555,2,0,B|344:144,1,95,8|2
40,112,88149,6,0,B|72:152|144:144,1,95,0|2
120,224,88743,2,0,B|192:224|208:176,1,95,8|2
272,232,89337,2,0,B|312:184,2,47.5,0|8|2
352,232,89931,2,0,B|472:232,1,95,8|2
448,312,90525,6,0,B|272:312,1,142.5
264,312,91119,2,0,B|208:304|200:240,1,95,8|2
200,168,91713,2,0,B|144:168,1,47.5,0|8
280,168,92159,2,0,B|344:168,1,47.5,0|8
240,96,92605,1,2
200,24,92902,6,0,B|96:24,1,95,0|2
56,88,93496,2,0,B|56:208,1,95,8|2
80,256,94090,2,0,B|136:256,1,47.5,0|8
168,256,94387,1,2
208,256,94535,2,0,B|240:320,1,47.5,0|8
312,296,94981,1,2
392,296,95278,6,0,B|424:360,1,47.5,0|0
424,296,95575,2,0,B|472:400,2,95,2|8|2
424,296,96317,1,0
424,216,96614,1,8
424,216,96763,1,2
344,216,97060,2,0,B|344:152|400:136,1,95,8|2
472,144,97654,6,0,B|512:184|512:240|488:296|416:296,1,190,0|8
352,296,98545,1,2
272,296,98842,2,0,B|200:296,1,47.5
192,272,99139,2,0,B|152:240|128:312|96:264,2,95,2|8|2
192,112,100030,5,0
192,272,100327,1,2
328,192,100624,2,0,B|232:192,1,95,8|2
233,192,101070,1,0
80,192,101367,1,8
80,192,101515,1,2
80,32,101812,1,8
240,32,102109,1,2
160,112,102406,1,4
256,56,110723,6,0,B|256:144,1,63.3333333333333,2|0
256,144,111020,2,0,B|256:224,1,63.3333333333333,2|0
256,232,111317,1,8
256,288,111515,1,8
256,288,111614,1,0
176,288,111911,5,0
96,288,112208,2,0,B|32:264|64:176,2,95,2|8|2
136,216,113100,2,0,B|136:144,1,47.5,0|8
136,152,113397,1,2
88,88,113694,2,0,B|192:88,1,95,8|2
264,88,114288,6,0,B|312:104|320:160,1,95,0|2
288,232,114882,2,0,B|240:216|232:160,2,95,8|2|0
288,232,115624,1,8
288,232,115773,1,2
368,232,116070,1,8
448,232,116367,1,2
408,304,116664,5,0
328,304,116961,1,2
368,376,117258,1,8
368,232,117555,1,2
368,152,117852,1,0
368,136,118001,1,8
368,120,118149,1,2
296,80,118446,2,0,B|296:184,1,95,8|0
216,152,119040,5,0
216,136,119189,1,0
216,120,119337,1,2
216,232,119634,1,0
216,248,119783,1,0
216,264,119931,1,2
144,192,120228,6,0,B|40:192,1,95,0|2
288,192,120822,2,0,B|392:192,1,95,0|2
216,192,121416,1,2
480,328,122605,6,0,B|480:232,1,95
480,56,123199,2,0,B|480:152,1,95
408,192,123793,2,0,B|208:192,1,190,4|2
136,192,124684,1,0
80,136,124981,2,0,B|16:136|-8:192|16:248|80:248,1,190,0|2
136,192,125872,1,0
192,136,126169,2,0,B|256:136|280:192|256:248|192:248,1,190,0|2
136,192,127060,1,0
136,192,127357,1,0
48,328,127951,6,0,B|48:232,1,95,2|0
48,56,128545,2,0,B|48:152,1,95
120,192,129139,2,0,B|320:192,1,190,2|0
392,192,130030,1,0
448,136,130327,2,0,B|512:136|536:192|512:248|448:248,1,190,2|0
392,192,131218,1,0
336,136,131515,2,0,B|272:136|248:192|272:248|336:248,1,190,2|0
184,192,132704,5,2
104,192,133001,1,0
24,192,133298,1,0
328,192,133892,1,2
408,192,134189,1,0
488,192,134486,1,0
256,32,135080,5,2
216,104,135377,1,0
296,128,135674,2,0,B|296:240,1,95
216,248,136268,2,0,B|216:312,2,47.5,2|0|0
176,176,136862,1,0
32,248,137456,5,2
64,176,137753,1,0
120,120,138050,2,0,B|120:336,1,190,0|2
200,288,138941,1,0
176,368,139238,2,0,B|264:384|296:320|272:232,1,190,0|2
200,288,140129,1,0
200,208,140426,1,4
256,192,140575,12,0,142208
256,192,142505,5,0
208,128,142803,2,0,B|96:128,1,95,4|2
64,192,143397,2,0,B|160:192,1,95,8|2
208,256,143991,1,0
224,256,144139,1,8
240,256,144288,1,2
320,256,144585,2,0,B|432:256,1,95,8|2
456,184,145179,6,0,B|360:184,1,95,0|2
280,184,145773,2,0,B|224:152|256:72,1,95,8|2
328,120,146367,1,0
328,120,146515,1,8
328,120,146664,1,2
328,40,146961,2,0,B|224:40,1,95,8|2
120,192,147555,6,0,B|88:80,1,95,0|2
200,192,148149,2,0,B|176:304,1,95,8|2
280,192,148743,2,0,B|360:192,1,47.5,0|8
368,192,149040,1,2
408,192,149189,1,0
448,192,149337,1,8
448,112,149634,1,2
448,280,149931,6,0,B|424:328|360:328,1,95,0|2
288,328,150525,2,0,B|240:280|176:288,1,95,8|2
128,304,151119,1,0
128,304,151268,1,8
128,304,151416,1,2
48,328,151713,1,8
24,248,152010,1,2
104,224,152307,6,0,B|216:224,1,95,0|2
232,152,152902,2,0,B|336:152,1,95,8|2
400,192,153496,1,0
416,192,153644,1,8
432,192,153793,1,2
472,256,154090,1,8
472,128,154387,1,2
392,128,154684,6,0,B|336:104|336:48,1,95,0|2
120,256,155278,2,0,B|176:280|176:336,1,95,8|2
256,192,155872,2,0,B|256:248,2,47.5,0|8|2
256,192,156466,1,8
256,112,156763,1,2
184,152,157060,6,0,B|144:248,1,95,0|2
328,232,157654,2,0,B|368:136,1,95,8|2
256,192,158248,1,0
256,232,158397,1,8
256,272,158545,1,2
192,320,158842,2,0,B|192:376|256:400|320:376|320:320,1,190,8|0
320,168,159733,5,2
256,24,160030,1,8
192,168,160327,1,2
192,168,160476,1,0
192,320,160773,1,8
192,320,160921,1,2
256,240,161218,2,0,B|256:136,2,95,8|2|0
256,320,162109,5,2
336,320,162406,1,8
296,248,162704,1,2
336,320,163001,1,0
376,320,163149,1,8
416,320,163298,1,2
376,248,163595,1,8
336,176,163892,1,2
256,176,164189,6,0,B|200:128|280:80,1,95,0|2
336,96,164783,2,0,B|392:144|312:192,1,95,8|2
296,248,165377,1,0
296,248,165525,1,8
296,248,165674,1,2
216,248,165971,2,0,B|160:232|168:152,1,95,8|2
168,96,166565,5,0
104,144,166862,1,2
40,96,167159,1,8
168,200,167456,1,2
40,200,167753,1,0
56,200,167902,1,8
72,200,168050,1,2
120,264,168347,1,8
168,328,168644,1,2
216,264,168941,6,0,B|312:264,1,95,0|2
392,264,169535,2,0,B|440:264,2,47.5,8|0|2
352,248,169981,2,0,B|352:192,1,47.5
352,160,170278,2,0,B|352:88,1,47.5,8|2
288,64,170723,2,0,B|288:176,1,95,8|2
224,208,171317,6,0,B|224:88,1,95,0|2
208,104,171763,1,0
192,96,171911,2,0,B|192:208,1,95,8|2
128,256,172505,2,0,B|48:256,2,47.5,0|8|2
192,304,173100,2,0,B|296:304,1,95,8|2
344,248,173694,6,0,B|472:248,1,95,0|2
496,192,174288,2,0,B|528:192,3,31.6666666666667,8|0|0|2
496,120,174882,1,0
480,120,175030,1,8
464,120,175179,1,2
384,96,175476,1,8
304,120,175773,1,2
224,96,176070,6,0,B|112:96,1,95,0|2
288,288,176664,2,0,B|400:288,1,95,8|2
288,96,177258,2,0,B|336:96,2,47.5,0|8|2
224,288,177852,2,0,B|112:288,1,95,8|2
32,192,178446,6,0,B|128:192,1,95,0|2
144,192,178892,1,0
160,192,179040,2,0,B|208:192,1,47.5,8|0
224,192,179337,1,2
240,192,179486,1,0
256,192,179634,5,0
416,192,179931,1,2
336,328,180228,1,8
336,56,180525,1,2
240,56,180822,6,0,B|120:56,1,95,4|2
144,152,181416,1,8
48,152,181713,1,2
96,232,182010,1,0
96,232,182159,1,8
96,232,182307,2,0,B|208:232,2,95,2|8|2
48,312,183199,6,0,B|104:216,1,95,0|2
144,312,183793,2,0,B|88:216,1,95,8|2
48,152,184387,1,0
48,152,184535,1,8
48,152,184684,1,2
144,152,184981,2,0,B|151:91|95:51|39:91|47:155,1,190,8|0
96,232,185872,5,2
192,232,186169,2,0,B|256:216|248:144,1,95,8|2
248,72,186763,1,0
248,72,186911,1,8
248,72,187060,2,0,B|352:72,1,95,2|8
440,72,187654,1,2
440,168,187951,6,0,B|472:288,1,95,0|2
72,168,188545,2,0,B|40:288,1,95,8|2
256,192,189139,2,0,B|256:264,2,47.5,0|8|2
208,112,189733,1,8
304,112,190030,1,2
352,192,190327,6,0,B|144:192,1,190,0|8
64,192,191218,1,2
64,208,191367,1,0
64,224,191515,2,0,B|40:288,1,47.5,0|8
40,280,191812,2,0,B|40:336|96:352,2,95,2|8|2
136,272,192704,6,0,B|240:224,1,95,0|2
376,272,193298,2,0,B|272:224,1,95,8|2
256,320,193892,2,0,B|256:368,3,47.5,0|8|2|0
256,320,194486,2,0,B|256:184,1,95,8|2
256,128,195080,6,0,B|144:96,1,95,0|2
136,192,195674,2,0,B|168:88,1,95,8|2
72,80,196268,1,0
72,80,196416,1,8
72,80,196565,1,2
48,168,196862,2,0,B|48:272,1,95,8|2
128,312,197456,6,0,B|184:312,1,47.5
272,312,197902,2,0,B|312:264,1,47.5,0|8
312,264,198199,1,0
320,256,198347,1,2
328,248,198496,1,0
336,240,198644,2,0,B|336:152,1,63.3333333333333,0|8
336,176,198941,1,2
408,112,199238,2,0,B|408:240,1,95,8|2
504,208,199832,6,0,B|392:208,1,95,4|2
408,304,200426,1,8
312,304,200723,1,2
216,304,201020,2,0,B|144:304,2,47.5,0|8|2
200,80,201614,2,0,B|312:80,1,95,8|2
256,168,202208,6,2,B|360:168,1,95
368,168,202654,1,0
384,168,202803,1,8
424,256,203100,2,0,B|312:256,1,95,2|0
312,256,203545,2,0,B|248:256,1,47.5,8|2
168,256,203991,2,0,B|104:256|112:184,1,95,8|2
112,104,204585,6,0,B|112:224,1,95,0|2
184,136,205179,2,0,B|184:16,1,95,8|2
256,104,205773,1,0
272,104,205921,1,8
288,104,206070,1,2
384,104,206367,2,0,B|392:168|336:184,1,95,8|2
312,272,206961,6,0,B|464:272,1,142.5
454,272,207555,1,8
400,352,207852,1,2
304,352,208149,1,0
288,352,208298,1,8
272,352,208446,1,2
208,280,208743,2,0,B|152:256|160:184,1,95,8|2
256,200,209337,6,0,B|256:104,1,95,0|2
304,280,209931,2,0,B|360:256|352:184,1,95,8|2
256,200,210525,1,0
256,216,210674,1,8
256,232,210822,2,0,B|256:336,2,95,2|8|2
192,168,211713,6,0,B|152:272,1,95,0|2
320,168,212307,2,0,B|360:272,1,95,8|2
256,64,212902,2,0,B|256:128,1,47.5,0|8
256,128,213199,1,2
256,224,213496,2,0,B|256:336,1,95,8|2
184,264,214090,6,0,B|176:184|208:168,1,95,0|2
328,264,214684,2,0,B|336:184|304:168,1,95,8|2
256,96,215278,2,0,B|256:160,2,47.5,0|8|2
160,96,215872,1,8
352,96,216169,1,2
256,200,216466,6,0,B|256:320,1,95,0|2
184,176,217060,1,8
328,176,217357,1,2
256,56,217654,1,0
256,72,217803,1,8
256,88,217951,2,0,B|256:208,2,95,2|8|2
160,88,218842,5,0
112,168,219139,2,0,B|16:168,2,95,0|2|0
352,296,220030,5,0
400,216,220327,2,0,B|496:216,2,95,0|2|0
160,296,221218,5,0
112,216,221515,2,0,B|16:216,2,95,0|2|0
352,88,222406,5,0
400,168,222703,2,0,B|496:168,2,95,0|2|0
208,328,223595,6,0,B|168:208,1,95
304,56,224189,2,0,B|344:176,1,95,2|0
208,56,224783,2,0,B|168:176,1,95
304,328,225377,2,0,B|344:208,1,95,2|0
432,240,225971,5,0
352,192,226268,1,0
432,144,226565,1,2
352,96,226862,1,0
80,144,227159,5,0
160,192,227456,1,0
80,240,227753,1,2
160,288,228050,1,0
256,128,228347,6,0,B|256:232,1,95
184,96,228941,2,0,B|152:216,1,95,2|0
328,96,229535,2,0,B|360:216,1,95
256,128,230129,2,0,B|256:240,1,95,2|0
216,312,230723,6,0,B|104:312,1,95
296,312,231317,2,0,B|408:312,1,95,2|0
424,224,231911,2,0,B|320:224,1,95
88,224,232505,2,0,B|192:224,1,95,2|0
368,120,233100,6,0,B|304:32,1,95
256,120,233694,1,2
199,43,233991,2,0,B|144:120,1,95
208,192,234585,1,0
304,192,234882,1,2
256,272,235179,1,0
208,192,235476,6,0,B|128:240|160:376,1,190
