osu file format v14

[General]
AudioFilename: Komissar - Chipstream.mp3
AudioLeadIn: 0
PreviewTime: 506
Countdown: 1
SampleSet: Normal
StackLeniency: 0.7
Mode: 1
LetterboxInBreaks: 1
WidescreenStoryboard: 1

[Editor]
Bookmarks: 63516,86292,107274,125664
DistanceSpacing: 1.4
BeatDivisor: 4
GridSize: 32
TimelineZoom: 3.299999

[Metadata]
Title:Chipstream
TitleUnicode:Chipstream
Artist:Kommisar
ArtistUnicode:Kommisar
Creator:BBB
Version:Proud
Source:
Tags:
BeatmapID:807049
BeatmapSetID:288544

[Difficulty]
HPDrainRate:6
CircleSize:2
OverallDifficulty:6
ApproachRate:10
SliderMultiplier:1.4
SliderTickRate:1

[Events]
//Background and Video events
0,0,"you.jpg",0,-132
//Break Periods
2,142214,154245
//Storyboard Layer 0 (Background)
//Storyboard Layer 1 (Fail)
//Storyboard Layer 2 (Pass)
//Storyboard Layer 3 (Foreground)
//Storyboard Sound Samples

[TimingPoints]
13188,396.288101449754,4,1,1,100,1,0
63516,-98.0392156862745,4,1,1,100,0,0
63615,-96.1538461538461,4,1,1,100,0,0
63714,-94.3396226415094,4,1,1,100,0,0
63813,-92.5925925925926,4,1,1,100,0,0
63912,349.701296808976,4,1,1,100,1,0
107449,-98.0392156862745,4,1,1,100,0,0
107537,-97.0873786407767,4,1,1,100,0,0
107624,-96.1538461538461,4,1,1,100,0,0
107799,-94.3396226415094,4,1,1,100,0,0
107974,-93.4579439252336,4,1,1,100,0,0
108061,-92.5925925925926,4,1,1,100,0,0
108149,-91.743119266055,4,1,1,100,0,0
108236,-90.9090909090909,4,1,1,100,0,0
108324,-90.0900900900901,4,1,1,100,0,0
108498,-88.4955752212389,4,1,1,100,0,0
108673,283.192523717374,4,1,1,100,1,0
125735,-99.009900990099,4,1,1,100,0,0
125806,-98.0392156862745,4,1,1,100,0,0
125876,-97.0873786407767,4,1,1,100,0,0
125947,-96.1538461538461,4,1,1,100,0,0
126018,-95.2380952380952,4,1,1,100,0,0
126089,-94.3396226415094,4,1,1,100,0,0
126160,-93.4579439252336,4,1,1,100,0,0
126230,-92.5925925925926,4,1,1,100,0,0
126301,-91.743119266055,4,1,1,100,0,0
126372,-90.9090909090909,4,1,1,100,0,0
126443,-90.0900900900901,4,1,1,100,0,0
126514,-89.2857142857143,4,1,1,100,0,0
126584,-88.4955752212389,4,1,1,100,0,0
126655,-87.719298245614,4,1,1,100,0,0
126726,-86.9565217391304,4,1,1,100,0,0
126797,237.78102745182,4,1,1,100,1,0
142014,396.288101449754,4,1,1,100,1,0
142014,-666.666666666667,4,1,1,100,0,0

[HitObjects]
256,192,13187,5,0,0:0:0:0:
256,192,13386,1,0,0:0:0:0:
256,192,13584,1,8,0:0:0:0:
256,192,13782,1,0,0:0:0:0:
256,192,13881,1,0,0:0:0:0:
256,192,13980,1,0,0:0:0:0:
256,192,14079,1,0,0:0:0:0:
256,192,14178,1,0,0:0:0:0:
256,192,14376,1,8,0:0:0:0:
256,192,14575,1,0,0:0:0:0:
256,192,14674,1,0,0:0:0:0:
256,192,14773,1,0,0:0:0:0:
256,192,14971,1,0,0:0:0:0:
256,192,15169,1,8,0:0:0:0:
256,192,15367,1,0,0:0:0:0:
256,192,15565,1,0,0:0:0:0:
256,192,15664,1,0,0:0:0:0:
256,192,15763,1,0,0:0:0:0:
256,192,15962,1,8,0:0:0:0:
256,192,16160,1,0,0:0:0:0:
256,192,16259,1,8,0:0:0:0:
256,192,16358,1,0,0:0:0:0:
256,192,16556,1,0,0:0:0:0:
256,192,16754,1,8,0:0:0:0:
224,192,16952,1,0,0:0:0:0:
224,192,17051,1,8,0:0:0:0:
224,192,17150,1,0,0:0:0:0:
224,192,17249,1,0,0:0:0:0:
224,192,17349,1,0,0:0:0:0:
256,192,17547,1,8,0:0:0:0:
256,224,17745,1,0,0:0:0:0:
256,224,17844,1,0,0:0:0:0:
256,192,17943,1,0,0:0:0:0:
256,224,18141,1,0,0:0:0:0:
256,224,18339,1,8,0:0:0:0:
256,224,18537,1,0,0:0:0:0:
256,224,18636,1,8,0:0:0:0:
256,224,18736,1,0,0:0:0:0:
256,224,18835,1,0,0:0:0:0:
256,224,18934,1,0,0:0:0:0:
256,224,19132,1,8,0:0:0:0:
256,192,19330,1,8,0:0:0:0:
256,192,19429,1,8,0:0:0:0:
256,192,19528,1,8,0:0:0:0:
256,192,19627,1,0,0:0:0:0:
256,192,19726,1,0,0:0:0:0:
256,192,19924,1,8,0:0:0:0:
256,192,20023,1,0,0:0:0:0:
256,192,20123,1,0,0:0:0:0:
256,192,20321,1,8,0:0:0:0:
256,192,20420,1,0,0:0:0:0:
256,192,20519,1,0,0:0:0:0:
256,192,20717,1,8,0:0:0:0:
256,192,20816,1,0,0:0:0:0:
256,192,20915,1,0,0:0:0:0:
256,192,21113,1,8,0:0:0:0:
256,192,21212,1,8,0:0:0:0:
256,192,21311,1,8,0:0:0:0:
256,192,21510,1,0,0:0:0:0:
256,192,21609,1,0,0:0:0:0:
256,192,21708,1,0,0:0:0:0:
256,192,21906,1,8,0:0:0:0:
256,192,22005,1,8,0:0:0:0:
256,192,22104,1,8,0:0:0:0:
256,192,22302,1,0,0:0:0:0:
256,192,22401,1,0,0:0:0:0:
256,192,22500,1,0,0:0:0:0:
256,192,22698,1,8,0:0:0:0:
256,192,22797,1,0,0:0:0:0:
256,192,22897,1,0,0:0:0:0:
256,192,22996,1,0,0:0:0:0:
256,192,23095,1,8,0:0:0:0:
256,192,23194,1,0,0:0:0:0:
256,192,23293,1,0,0:0:0:0:
256,192,23491,1,8,0:0:0:0:
256,192,23590,1,8,0:0:0:0:
256,192,23689,1,0,0:0:0:0:
256,192,23788,1,0,0:0:0:0:
256,192,23887,1,8,0:0:0:0:
256,192,23986,1,8,0:0:0:0:
256,192,24085,1,0,0:0:0:0:
256,192,24284,1,8,0:0:0:0:
256,192,24383,1,0,0:0:0:0:
256,192,24482,1,0,0:0:0:0:
256,192,24581,1,0,0:0:0:0:
256,192,24680,1,8,0:0:0:0:
256,192,24779,1,0,0:0:0:0:
256,192,24878,1,0,0:0:0:0:
256,192,25076,1,8,0:0:0:0:
256,192,25175,1,8,0:0:0:0:
256,192,25274,1,0,0:0:0:0:
256,192,25373,1,0,0:0:0:0:
256,192,25472,1,8,0:0:0:0:
256,192,25572,1,0,0:0:0:0:
256,192,25671,1,0,0:0:0:0:
256,192,25869,1,0,0:0:0:0:
256,192,25968,1,0,0:0:0:0:
256,192,26067,1,0,0:0:0:0:
256,192,26265,1,8,0:0:0:0:
256,192,26463,1,0,0:0:0:0:
256,192,26562,1,0,0:0:0:0:
256,192,26661,1,0,0:0:0:0:
256,192,26760,1,0,0:0:0:0:
256,192,26859,1,0,0:0:0:0:
256,192,27058,1,8,0:0:0:0:
256,192,27256,1,0,0:0:0:0:
256,192,27355,1,8,0:0:0:0:
256,192,27454,1,0,0:0:0:0:
256,192,27553,1,0,0:0:0:0:
256,192,27652,1,0,0:0:0:0:
256,192,27850,1,8,0:0:0:0:
256,192,28048,1,0,0:0:0:0:
256,192,28147,1,8,0:0:0:0:
256,192,28246,1,0,0:0:0:0:
256,192,28346,1,0,0:0:0:0:
256,192,28445,1,8,0:0:0:0:
256,192,28544,1,0,0:0:0:0:
256,192,28643,1,8,0:0:0:0:
256,192,28841,1,0,0:0:0:0:
256,192,28940,1,8,0:0:0:0:
256,192,29039,1,0,0:0:0:0:
256,192,29237,1,8,0:0:0:0:
256,192,29336,1,0,0:0:0:0:
256,192,29435,1,8,0:0:0:0:
256,192,29633,1,0,0:0:0:0:
256,192,29733,1,8,0:0:0:0:
256,192,29832,1,0,0:0:0:0:
256,192,29931,1,0,0:0:0:0:
256,192,30030,1,8,0:0:0:0:
256,192,30228,1,0,0:0:0:0:
256,192,30327,1,0,0:0:0:0:
256,192,30426,1,8,0:0:0:0:
256,192,30624,1,0,0:0:0:0:
256,192,30723,1,0,0:0:0:0:
256,192,30822,1,8,0:0:0:0:
256,192,30921,1,0,0:0:0:0:
256,192,31020,1,8,0:0:0:0:
256,192,31219,1,0,0:0:0:0:
256,192,31318,1,8,0:0:0:0:
256,192,31417,1,0,0:0:0:0:
256,192,31516,1,0,0:0:0:0:
256,192,31615,1,8,0:0:0:0:
256,192,31813,1,0,0:0:0:0:
256,192,31912,1,0,0:0:0:0:
256,192,32011,1,8,0:0:0:0:
256,192,32209,1,8,0:0:0:0:
256,192,32308,1,8,0:0:0:0:
256,192,32407,1,0,0:0:0:0:
256,192,32606,1,8,0:0:0:0:
256,192,32705,1,0,0:0:0:0:
256,192,32804,1,0,0:0:0:0:
256,192,33002,1,8,0:0:0:0:
256,192,33101,1,8,0:0:0:0:
256,192,33200,1,0,0:0:0:0:
256,192,33398,1,8,0:0:0:0:
288,192,33497,1,0,0:0:0:0:
256,192,33596,1,0,0:0:0:0:
256,192,33794,1,8,0:0:0:0:
256,192,33894,1,8,0:0:0:0:
256,192,33993,1,8,0:0:0:0:
256,192,34191,1,0,0:0:0:0:
256,192,34290,1,0,0:0:0:0:
256,192,34389,1,0,0:0:0:0:
256,192,34587,1,8,0:0:0:0:
256,192,34686,1,8,0:0:0:0:
256,192,34785,1,8,0:0:0:0:
256,192,34983,1,0,0:0:0:0:
256,192,35082,1,0,0:0:0:0:
256,192,35181,1,0,0:0:0:0:
256,192,35380,1,8,0:0:0:0:
256,192,35479,1,0,0:0:0:0:
256,192,35578,1,0,0:0:0:0:
256,192,35677,1,0,0:0:0:0:
256,192,35776,1,8,0:0:0:0:
256,192,35875,1,0,0:0:0:0:
256,192,35974,1,0,0:0:0:0:
256,192,36073,1,0,0:0:0:0:
256,192,36172,1,8,0:0:0:0:
256,192,36271,1,8,0:0:0:0:
256,192,36370,1,0,0:0:0:0:
256,192,36469,1,0,0:0:0:0:
256,192,36568,1,8,0:0:0:0:
256,192,36668,1,8,0:0:0:0:
256,192,36767,1,0,0:0:0:0:
256,192,36965,1,8,0:0:0:0:
256,192,37064,1,0,0:0:0:0:
256,192,37163,1,0,0:0:0:0:
256,192,37262,1,0,0:0:0:0:
256,192,37361,1,8,0:0:0:0:
256,192,37460,1,0,0:0:0:0:
256,192,37559,1,0,0:0:0:0:
256,192,37658,1,0,0:0:0:0:
256,192,37757,1,8,0:0:0:0:
256,192,37856,1,8,0:0:0:0:
256,192,37956,1,0,0:0:0:0:
256,192,38055,1,0,0:0:0:0:
256,192,38154,1,8,0:0:0:0:
256,192,38253,1,8,0:0:0:0:
256,192,38352,1,0,0:0:0:0:
256,192,38550,1,12,0:0:0:0:
256,192,39144,1,8,0:0:0:0:
256,192,39343,1,8,0:0:0:0:
256,192,39442,1,8,0:0:0:0:
256,192,39541,1,8,0:0:0:0:
256,192,39739,1,0,0:0:0:0:
256,192,39937,1,8,0:0:0:0:
256,192,40135,1,8,0:0:0:0:
256,192,40234,1,8,0:0:0:0:
256,192,40333,1,8,0:0:0:0:
256,192,40531,1,8,0:0:0:0:
256,192,40630,1,8,0:0:0:0:
256,192,40730,1,8,0:0:0:0:
256,192,40928,1,8,0:0:0:0:
256,192,41027,1,8,0:0:0:0:
256,192,41126,1,8,0:0:0:0:
256,192,41324,1,0,0:0:0:0:
256,192,41522,1,8,0:0:0:0:
256,192,41720,1,0,0:0:0:0:
256,192,41819,1,0,0:0:0:0:
256,192,41918,1,8,0:0:0:0:
256,192,42017,1,0,0:0:0:0:
256,192,42117,1,8,0:0:0:0:
256,192,42315,1,0,0:0:0:0:
256,192,42414,1,8,0:0:0:0:
256,192,42612,1,8,0:0:0:0:
256,192,42810,1,8,0:0:0:0:
256,192,42909,1,0,0:0:0:0:
256,192,43107,1,12,0:0:0:0:
256,192,43305,1,0,0:0:0:0:
256,192,43404,1,0,0:0:0:0:
256,192,43504,1,8,0:0:0:0:
256,192,43603,1,0,0:0:0:0:
256,192,43702,1,8,0:0:0:0:
256,192,43900,1,0,0:0:0:0:
256,192,43999,1,8,0:0:0:0:
256,192,44197,1,8,0:0:0:0:
256,192,44395,1,8,0:0:0:0:
256,192,44494,1,0,0:0:0:0:
256,192,44692,1,12,0:0:0:0:
256,192,44891,1,0,0:0:0:0:
256,192,44990,1,8,0:0:0:0:
256,192,45188,1,0,0:0:0:0:
256,192,45287,1,8,0:0:0:0:
256,192,45485,1,8,0:0:0:0:
256,192,45683,1,8,0:0:0:0:
256,192,45881,1,8,0:0:0:0:
256,192,46079,1,0,0:0:0:0:
256,192,46178,1,0,0:0:0:0:
256,192,46278,1,8,0:0:0:0:
256,192,46476,1,0,0:0:0:0:
256,192,46575,1,8,0:0:0:0:
256,192,46773,1,0,0:0:0:0:
256,192,46872,1,8,0:0:0:0:
256,192,47070,1,8,0:0:0:0:
256,192,47268,1,8,0:0:0:0:
256,192,47466,1,8,0:0:0:0:
256,192,47665,1,0,0:0:0:0:
256,192,47764,1,0,0:0:0:0:
256,192,47863,1,8,0:0:0:0:
256,192,48061,1,0,0:0:0:0:
256,192,48259,1,8,0:0:0:0:
256,192,48358,1,0,0:0:0:0:
256,192,48457,1,8,0:0:0:0:
256,192,48754,1,8,0:0:0:0:
256,192,49052,1,0,0:0:0:0:
256,192,49151,1,0,0:0:0:0:
256,192,49250,1,8,0:0:0:0:
256,192,49448,1,8,0:0:0:0:
256,192,49646,1,0,0:0:0:0:
256,192,49844,1,8,0:0:0:0:
256,192,49943,1,0,0:0:0:0:
256,192,50042,1,8,0:0:0:0:
256,192,50340,1,8,0:0:0:0:
256,192,50637,1,8,0:0:0:0:
256,192,50736,1,0,0:0:0:0:
256,192,50835,1,8,0:0:0:0:
256,192,50934,1,0,0:0:0:0:
256,192,51033,1,8,0:0:0:0:
256,192,51231,1,0,0:0:0:0:
256,192,51330,1,0,0:0:0:0:
256,192,51429,1,8,0:0:0:0:
256,192,51528,1,0,0:0:0:0:
256,192,51627,1,8,0:0:0:0:
256,192,51826,1,0,0:0:0:0:
256,192,51925,1,0,0:0:0:0:
256,192,52024,1,8,0:0:0:0:
256,192,52123,1,8,0:0:0:0:
256,192,52222,1,0,0:0:0:0:
256,192,52420,1,8,0:0:0:0:
256,192,52519,1,0,0:0:0:0:
256,192,52618,1,8,0:0:0:0:
256,192,52717,1,8,0:0:0:0:
256,192,52816,1,0,0:0:0:0:
256,192,52915,1,0,0:0:0:0:
256,192,53014,1,8,0:0:0:0:
256,192,53114,1,0,0:0:0:0:
256,192,53213,1,8,0:0:0:0:
256,192,53411,1,0,0:0:0:0:
256,192,53510,1,0,0:0:0:0:
256,192,53609,1,8,0:0:0:0:
256,192,53708,1,8,0:0:0:0:
256,192,53807,1,0,0:0:0:0:
256,192,54005,1,8,0:0:0:0:
256,192,54104,1,0,0:0:0:0:
256,192,54203,1,8,0:0:0:0:
256,192,54401,1,0,0:0:0:0:
256,192,54501,1,0,0:0:0:0:
256,192,54600,1,8,0:0:0:0:
256,192,54699,1,8,0:0:0:0:
256,192,54798,1,0,0:0:0:0:
256,192,54996,1,0,0:0:0:0:
256,192,55095,1,0,0:0:0:0:
256,192,55194,1,8,0:0:0:0:
256,192,55293,1,8,0:0:0:0:
256,192,55392,1,0,0:0:0:0:
256,192,55590,1,8,0:0:0:0:
256,192,55689,1,8,0:0:0:0:
256,192,55788,1,0,0:0:0:0:
256,192,55888,1,8,0:0:0:0:
256,192,55987,1,8,0:0:0:0:
256,192,56086,1,0,0:0:0:0:
256,192,56185,1,8,0:0:0:0:
256,192,56284,1,8,0:0:0:0:
256,192,56383,1,0,0:0:0:0:
256,192,56581,1,0,0:0:0:0:
256,192,56680,1,0,0:0:0:0:
256,192,56779,1,8,0:0:0:0:
256,192,56878,1,8,0:0:0:0:
256,192,56977,1,0,0:0:0:0:
256,192,57175,1,8,0:0:0:0:
256,192,57275,1,8,0:0:0:0:
256,192,57374,1,0,0:0:0:0:
256,192,57473,1,8,0:0:0:0:
256,192,57572,1,8,0:0:0:0:
256,192,57671,1,8,0:0:0:0:
256,192,57770,1,0,0:0:0:0:
256,192,57968,1,8,0:0:0:0:
256,192,58067,1,8,0:0:0:0:
256,192,58166,1,0,0:0:0:0:
256,192,58364,1,8,0:0:0:0:
256,192,58463,1,8,0:0:0:0:
256,192,58562,1,0,0:0:0:0:
256,192,58761,1,8,0:0:0:0:
256,192,58860,1,8,0:0:0:0:
256,192,58959,1,0,0:0:0:0:
256,192,59157,1,8,0:0:0:0:
256,192,59256,1,0,0:0:0:0:
256,192,59355,1,0,0:0:0:0:
256,192,59553,1,8,0:0:0:0:
256,192,59652,1,0,0:0:0:0:
256,192,59751,1,0,0:0:0:0:
256,192,59949,1,8,0:0:0:0:
256,192,60049,1,0,0:0:0:0:
256,192,60148,1,0,0:0:0:0:
256,192,60346,1,8,0:0:0:0:
256,192,60445,1,0,0:0:0:0:
256,192,60544,1,0,0:0:0:0:
256,192,60742,1,8,0:0:0:0:
256,192,60841,1,0,0:0:0:0:
256,192,60940,1,0,0:0:0:0:
256,192,61039,1,0,0:0:0:0:
256,192,61138,1,8,0:0:0:0:
256,192,61237,1,8,0:0:0:0:
256,192,61337,1,0,0:0:0:0:
256,192,61436,1,0,0:0:0:0:
256,192,61535,1,8,0:0:0:0:
256,192,61634,1,0,0:0:0:0:
256,192,61733,1,8,0:0:0:0:
256,192,61832,1,0,0:0:0:0:
256,192,61931,1,8,0:0:0:0:
256,192,62030,1,8,0:0:0:0:
256,192,62129,1,0,0:0:0:0:
256,192,62327,1,8,0:0:0:0:
256,192,62426,1,0,0:0:0:0:
256,192,62525,1,0,0:0:0:0:
256,192,62624,1,0,0:0:0:0:
256,192,62724,1,8,0:0:0:0:
256,192,62823,1,8,0:0:0:0:
256,192,62922,1,0,0:0:0:0:
256,192,63021,1,0,0:0:0:0:
256,192,63120,1,8,0:0:0:0:
256,192,63219,1,0,0:0:0:0:
256,192,63318,1,8,0:0:0:0:
256,192,63417,1,0,0:0:0:0:
256,192,63516,1,8,0:0:0:0:
256,192,63615,1,8,0:0:0:0:
256,192,63714,1,8,0:0:0:0:
256,192,63813,1,0,0:0:0:0:
256,192,63912,5,0,0:0:0:0:
256,192,64086,1,0,0:0:0:0:
256,192,64261,1,8,0:0:0:0:
256,192,64436,1,8,0:0:0:0:
256,192,64523,1,8,0:0:0:0:
256,192,64611,1,0,0:0:0:0:
256,192,64698,1,0,0:0:0:0:
256,192,64786,1,0,0:0:0:0:
256,192,64961,1,8,0:0:0:0:
256,192,65048,1,8,0:0:0:0:
256,192,65135,1,8,0:0:0:0:
256,192,65310,1,0,0:0:0:0:
256,192,65398,1,0,0:0:0:0:
256,192,65485,1,0,0:0:0:0:
256,192,65660,1,8,0:0:0:0:
256,192,65835,1,0,0:0:0:0:
256,192,65922,1,8,0:0:0:0:
256,192,66010,1,0,0:0:0:0:
256,192,66185,1,0,0:0:0:0:
256,192,66359,1,8,0:0:0:0:
256,192,66447,1,8,0:0:0:0:
256,192,66534,1,8,0:0:0:0:
256,192,66709,1,0,0:0:0:0:
256,192,66797,1,0,0:0:0:0:
256,192,66884,1,0,0:0:0:0:
256,192,66971,1,0,0:0:0:0:
256,192,67059,1,8,0:0:0:0:
288,192,67234,1,0,0:0:0:0:
256,192,67321,1,0,0:0:0:0:
256,192,67409,1,8,0:0:0:0:
256,192,67496,1,0,0:0:0:0:
256,192,67583,1,0,0:0:0:0:
256,192,67758,1,8,0:0:0:0:
256,192,67846,1,0,0:0:0:0:
256,192,67933,1,8,0:0:0:0:
256,192,68108,1,0,0:0:0:0:
256,192,68195,1,0,0:0:0:0:
256,192,68283,1,0,0:0:0:0:
256,192,68370,1,0,0:0:0:0:
256,192,68458,1,8,0:0:0:0:
256,192,68632,1,0,0:0:0:0:
256,192,68720,1,0,0:0:0:0:
256,192,68807,1,8,0:0:0:0:
256,192,68895,1,0,0:0:0:0:
256,192,68982,1,0,0:0:0:0:
256,192,69157,1,8,0:0:0:0:
256,192,69244,1,0,0:0:0:0:
256,192,69332,1,8,0:0:0:0:
256,192,69419,1,8,0:0:0:0:
256,192,69507,1,8,0:0:0:0:
256,192,69594,1,8,0:0:0:0:
256,192,69682,1,0,0:0:0:0:
256,192,69856,1,8,0:0:0:0:
256,192,69944,1,0,0:0:0:0:
256,192,70031,1,0,0:0:0:0:
256,192,70206,1,8,0:0:0:0:
256,192,70294,1,8,0:0:0:0:
256,192,70381,1,0,0:0:0:0:
256,192,70556,1,8,0:0:0:0:
256,192,70643,1,0,0:0:0:0:
256,192,70731,1,0,0:0:0:0:
256,192,70906,1,8,0:0:0:0:
256,192,70993,1,0,0:0:0:0:
256,192,71080,1,8,0:0:0:0:
256,192,71255,1,0,0:0:0:0:
256,192,71343,1,8,0:0:0:0:
256,192,71430,1,0,0:0:0:0:
256,192,71605,1,8,0:0:0:0:
256,192,71692,1,0,0:0:0:0:
256,192,71780,1,8,0:0:0:0:
256,192,71955,1,0,0:0:0:0:
256,192,72042,1,8,0:0:0:0:
256,192,72129,1,0,0:0:0:0:
256,192,72304,1,8,0:0:0:0:
256,192,72392,1,0,0:0:0:0:
256,192,72479,1,0,0:0:0:0:
256,192,72567,1,0,0:0:0:0:
256,192,72654,1,8,0:0:0:0:
256,192,72829,1,0,0:0:0:0:
256,192,72916,1,0,0:0:0:0:
256,192,73004,1,8,0:0:0:0:
256,192,73091,1,8,0:0:0:0:
256,192,73179,1,0,0:0:0:0:
256,192,73353,1,8,0:0:0:0:
256,192,73441,1,8,0:0:0:0:
256,192,73528,1,0,0:0:0:0:
256,192,73703,1,8,0:0:0:0:
256,192,73791,1,0,0:0:0:0:
256,192,73878,1,0,0:0:0:0:
256,192,73965,1,0,0:0:0:0:
256,192,74053,1,8,0:0:0:0:
256,192,74228,1,0,0:0:0:0:
256,192,74315,1,0,0:0:0:0:
256,192,74403,1,8,0:0:0:0:
256,192,74490,1,0,0:0:0:0:
256,192,74577,1,0,0:0:0:0:
256,192,74665,1,0,0:0:0:0:
256,192,74752,1,8,0:0:0:0:
256,192,74840,1,8,0:0:0:0:
256,192,74927,1,0,0:0:0:0:
256,192,75015,1,0,0:0:0:0:
256,192,75102,1,0,0:0:0:0:
256,192,75277,1,0,0:0:0:0:
256,192,75452,1,8,0:0:0:0:
256,192,75626,1,0,0:0:0:0:
256,192,75714,1,0,0:0:0:0:
256,192,75801,1,0,0:0:0:0:
256,192,75889,1,0,0:0:0:0:
256,192,75976,1,0,0:0:0:0:
256,192,76151,1,8,0:0:0:0:
256,192,76326,1,0,0:0:0:0:
256,192,76413,1,8,0:0:0:0:
256,192,76501,1,0,0:0:0:0:
256,192,76676,1,0,0:0:0:0:
256,192,76850,1,8,0:0:0:0:
256,192,77025,1,0,0:0:0:0:
256,192,77113,1,0,0:0:0:0:
256,192,77200,1,0,0:0:0:0:
256,192,77288,1,0,0:0:0:0:
256,192,77375,1,0,0:0:0:0:
256,192,77550,1,8,0:0:0:0:
256,192,77725,1,8,0:0:0:0:
256,192,77812,1,8,0:0:0:0:
256,192,77900,1,0,0:0:0:0:
256,192,78074,1,0,0:0:0:0:
256,192,78162,1,0,0:0:0:0:
256,192,78249,1,8,0:0:0:0:
256,192,78424,1,8,0:0:0:0:
256,192,78512,1,8,0:0:0:0:
256,192,78599,1,0,0:0:0:0:
256,192,78686,1,0,0:0:0:0:
256,192,78774,1,8,0:0:0:0:
256,192,78861,1,0,0:0:0:0:
256,192,78949,1,8,0:0:0:0:
256,192,79124,1,8,0:0:0:0:
256,192,79211,1,8,0:0:0:0:
256,192,79298,1,0,0:0:0:0:
256,192,79473,1,0,0:0:0:0:
256,192,79561,1,0,0:0:0:0:
256,192,79648,1,8,0:0:0:0:
256,192,79823,1,0,0:0:0:0:
256,192,79910,1,0,0:0:0:0:
256,192,79998,1,8,0:0:0:0:
256,192,80085,1,0,0:0:0:0:
256,192,80173,1,8,0:0:0:0:
256,192,80260,1,0,0:0:0:0:
256,192,80347,1,8,0:0:0:0:
256,192,80522,1,0,0:0:0:0:
256,192,80610,1,8,0:0:0:0:
256,192,80697,1,8,0:0:0:0:
256,192,80785,1,8,0:0:0:0:
256,192,80872,1,8,0:0:0:0:
256,192,81047,1,0,0:0:0:0:
256,192,81134,1,0,0:0:0:0:
256,192,81222,1,0,0:0:0:0:
256,192,81397,1,8,0:0:0:0:
256,192,81484,1,8,0:0:0:0:
256,192,81571,1,8,0:0:0:0:
256,192,81746,1,0,0:0:0:0:
256,192,81834,1,0,0:0:0:0:
256,192,81921,1,0,0:0:0:0:
256,192,82096,1,8,0:0:0:0:
256,192,82183,1,8,0:0:0:0:
256,192,82271,1,0,0:0:0:0:
256,192,82446,1,8,0:0:0:0:
256,192,82533,1,8,0:0:0:0:
256,192,82621,1,0,0:0:0:0:
256,192,82795,1,8,0:0:0:0:
256,192,82883,1,0,0:0:0:0:
256,192,82970,1,0,0:0:0:0:
256,192,83145,1,8,0:0:0:0:
256,192,83232,1,0,0:0:0:0:
256,192,83320,1,0,0:0:0:0:
256,192,83495,1,8,0:0:0:0:
256,192,83582,1,0,0:0:0:0:
256,192,83670,1,0,0:0:0:0:
256,192,83757,1,0,0:0:0:0:
256,192,83844,1,8,0:0:0:0:
256,192,83932,1,8,0:0:0:0:
256,192,84019,1,0,0:0:0:0:
256,192,84107,1,0,0:0:0:0:
256,192,84194,1,8,0:0:0:0:
256,192,84282,1,0,0:0:0:0:
256,192,84369,1,0,0:0:0:0:
256,192,84456,1,0,0:0:0:0:
256,192,84544,1,8,0:0:0:0:
256,192,84631,1,8,0:0:0:0:
256,192,84719,1,0,0:0:0:0:
256,192,84894,1,8,0:0:0:0:
256,192,84981,1,8,0:0:0:0:
256,192,85068,1,8,0:0:0:0:
256,192,85156,1,8,0:0:0:0:
256,192,85243,1,0,0:0:0:0:
256,192,85331,1,0,0:0:0:0:
256,192,85418,1,0,0:0:0:0:
256,192,85506,1,0,0:0:0:0:
256,192,85593,1,8,0:0:0:0:
256,192,85680,1,8,0:0:0:0:
256,192,85768,1,0,0:0:0:0:
256,192,85855,1,0,0:0:0:0:
256,192,85943,1,8,0:0:0:0:
256,192,86030,1,8,0:0:0:0:
256,192,86118,1,0,0:0:0:0:
256,224,86205,1,0,0:0:0:0:
256,224,86292,5,12,0:0:0:0:
256,224,87341,1,8,0:0:0:0:
256,224,88391,1,0,0:0:0:0:
256,224,88740,1,8,0:0:0:0:
256,224,89090,1,0,0:0:0:0:
256,224,89440,1,0,0:0:0:0:
256,224,89615,1,0,0:0:0:0:
256,224,90139,1,0,0:0:0:0:
128,192,90489,2,0,L|352:192,1,210
256,224,91363,1,0,0:0:0:0:
256,224,91538,1,8,0:0:0:0:
256,224,91888,1,0,0:0:0:0:
256,224,92237,1,0,0:0:0:0:
256,224,92412,1,0,0:0:0:0:
256,224,92762,1,8,0:0:0:0:
256,192,93286,1,0,0:0:0:0:
256,192,93811,1,8,0:0:0:0:
256,192,94336,1,0,0:0:0:0:
96,192,94685,2,0,L|448:192,1,350
256,192,95734,1,8,0:0:0:0:
256,192,96084,1,8,0:0:0:0:
256,192,96259,1,8,0:0:0:0:
256,192,96346,1,8,0:0:0:0:
256,192,96434,1,0,0:0:0:0:
256,192,96609,1,8,0:0:0:0:
256,192,96783,1,8,0:0:0:0:
256,192,96958,1,8,0:0:0:0:
256,192,97046,1,0,0:0:0:0:
256,192,97133,1,8,0:0:0:0:
256,192,97308,1,8,0:0:0:0:
256,192,97483,1,4,0:0:0:0:
256,192,98532,1,8,0:0:0:0:
256,192,99581,1,0,0:0:0:0:
256,192,99931,1,8,0:0:0:0:
256,192,100280,1,0,0:0:0:0:
256,192,100630,1,0,0:0:0:0:
256,192,100805,1,0,0:0:0:0:
256,192,101330,1,0,0:0:0:0:
96,192,101679,2,8,L|320:192,1,210
288,192,102553,1,0,0:0:0:0:
256,192,102728,1,8,0:0:0:0:
256,192,103078,1,0,0:0:0:0:
256,192,103428,1,0,0:0:0:0:
256,192,103603,1,0,0:0:0:0:
256,192,103952,1,8,0:0:0:0:
224,192,104477,1,0,0:0:0:0:
224,192,105001,1,8,0:0:0:0:
256,192,105526,1,0,0:0:0:0:
64,192,105876,2,8,L|416:192,1,350
256,192,106925,1,8,0:0:0:0:
256,192,107274,1,8,0:0:0:0:
256,192,107449,1,0,0:0:0:0:
256,192,107537,1,0,0:0:0:0:
256,192,107624,1,8,0:0:0:0:
256,192,107799,1,8,0:0:0:0:
256,192,107974,1,8,0:0:0:0:
256,192,108149,1,0,0:0:0:0:
256,192,108236,1,0,0:0:0:0:
256,192,108324,1,8,0:0:0:0:
256,192,108498,1,8,0:0:0:0:
256,192,108673,1,0,0:0:0:0:
256,192,108743,1,0,0:0:0:0:
256,192,108814,1,8,0:0:0:0:
256,192,108885,1,0,0:0:0:0:
256,192,108956,1,0,0:0:0:0:
256,192,109097,1,0,0:0:0:0:
256,192,109168,1,0,0:0:0:0:
256,192,109238,1,8,0:0:0:0:
256,192,109309,1,8,0:0:0:0:
256,192,109380,1,0,0:0:0:0:
256,192,109522,1,8,0:0:0:0:
256,192,109593,1,8,0:0:0:0:
256,192,109664,1,8,0:0:0:0:
256,192,109734,1,8,0:0:0:0:
256,192,109805,1,0,0:0:0:0:
256,192,109876,1,0,0:0:0:0:
256,192,109947,1,8,0:0:0:0:
256,192,110018,1,0,0:0:0:0:
256,192,110088,1,0,0:0:0:0:
256,192,110230,1,0,0:0:0:0:
256,192,110301,1,0,0:0:0:0:
256,192,110372,1,8,0:0:0:0:
256,192,110442,1,8,0:0:0:0:
256,192,110513,1,0,0:0:0:0:
256,192,110655,1,8,0:0:0:0:
256,192,110726,1,0,0:0:0:0:
256,192,110796,1,8,0:0:0:0:
256,192,110867,1,8,0:0:0:0:
256,192,110938,1,0,0:0:0:0:
256,192,111009,1,0,0:0:0:0:
256,192,111080,1,8,0:0:0:0:
256,192,111150,1,0,0:0:0:0:
256,192,111221,1,8,0:0:0:0:
256,192,111363,1,0,0:0:0:0:
256,192,111434,1,0,0:0:0:0:
256,192,111504,1,8,0:0:0:0:
256,192,111575,1,0,0:0:0:0:
256,192,111646,1,8,0:0:0:0:
256,192,111788,1,0,0:0:0:0:
256,192,111858,1,0,0:0:0:0:
256,192,111929,1,8,0:0:0:0:
256,192,112000,1,8,0:0:0:0:
256,192,112071,1,0,0:0:0:0:
256,192,112142,1,0,0:0:0:0:
256,192,112212,1,8,0:0:0:0:
256,192,112283,1,0,0:0:0:0:
256,192,112354,1,8,0:0:0:0:
256,192,112496,1,0,0:0:0:0:
256,192,112566,1,0,0:0:0:0:
256,192,112637,1,8,0:0:0:0:
256,192,112708,1,0,0:0:0:0:
256,192,112779,1,8,0:0:0:0:
256,192,112920,1,8,0:0:0:0:
256,192,112991,1,0,0:0:0:0:
256,192,113062,1,8,0:0:0:0:
256,192,113133,1,8,0:0:0:0:
256,192,113204,1,8,0:0:0:0:
256,192,113274,1,8,0:0:0:0:
256,192,113345,1,0,0:0:0:0:
256,192,113487,1,8,0:0:0:0:
256,192,113558,1,8,0:0:0:0:
256,192,113628,1,0,0:0:0:0:
256,192,113770,1,8,0:0:0:0:
256,192,113841,1,8,0:0:0:0:
256,192,113912,1,0,0:0:0:0:
256,192,114053,1,8,0:0:0:0:
256,192,114124,1,8,0:0:0:0:
256,192,114195,1,0,0:0:0:0:
256,192,114336,1,8,0:0:0:0:
256,192,114407,1,0,0:0:0:0:
256,192,114478,1,8,0:0:0:0:
256,192,114620,1,0,0:0:0:0:
256,192,114690,1,8,0:0:0:0:
256,192,114761,1,0,0:0:0:0:
256,192,114903,1,8,0:0:0:0:
256,192,114974,1,0,0:0:0:0:
256,192,115044,1,8,0:0:0:0:
256,192,115186,1,0,0:0:0:0:
256,192,115257,1,8,0:0:0:0:
256,192,115328,1,0,0:0:0:0:
256,192,115469,1,8,0:0:0:0:
256,192,115540,1,0,0:0:0:0:
256,192,115611,1,0,0:0:0:0:
256,192,115682,1,0,0:0:0:0:
256,192,115752,1,8,0:0:0:0:
256,192,115823,1,0,0:0:0:0:
256,192,115894,1,0,0:0:0:0:
256,192,116036,1,8,0:0:0:0:
256,192,116106,1,0,0:0:0:0:
256,192,116177,1,0,0:0:0:0:
256,192,116248,1,0,0:0:0:0:
256,192,116319,1,8,0:0:0:0:
256,192,116389,1,8,0:0:0:0:
256,192,116460,1,0,0:0:0:0:
256,192,116602,1,8,0:0:0:0:
256,192,116673,1,0,0:0:0:0:
256,192,116743,1,0,0:0:0:0:
256,192,116814,1,0,0:0:0:0:
256,192,116885,1,8,0:0:0:0:
256,192,116956,1,0,0:0:0:0:
256,192,117027,1,0,0:0:0:0:
256,192,117168,1,8,0:0:0:0:
256,192,117239,1,8,0:0:0:0:
256,192,117310,1,0,0:0:0:0:
256,192,117381,1,0,0:0:0:0:
256,192,117451,1,8,0:0:0:0:
256,192,117522,1,8,0:0:0:0:
256,192,117593,1,0,0:0:0:0:
256,192,117664,1,8,0:0:0:0:
256,192,117735,1,0,0:0:0:0:
256,192,117805,1,0,0:0:0:0:
256,192,117876,1,8,0:0:0:0:
256,192,117947,1,0,0:0:0:0:
256,192,118018,1,8,0:0:0:0:
256,192,118159,1,0,0:0:0:0:
256,192,118230,1,0,0:0:0:0:
256,192,118301,1,8,0:0:0:0:
256,192,118372,1,8,0:0:0:0:
256,192,118443,1,0,0:0:0:0:
256,192,118584,1,8,0:0:0:0:
256,192,118655,1,0,0:0:0:0:
256,192,118726,1,8,0:0:0:0:
256,192,118797,1,8,0:0:0:0:
256,192,118867,1,0,0:0:0:0:
256,192,118938,1,0,0:0:0:0:
256,192,119009,1,8,0:0:0:0:
256,192,119080,1,8,0:0:0:0:
256,192,119151,1,0,0:0:0:0:
256,192,119292,1,0,0:0:0:0:
256,192,119363,1,0,0:0:0:0:
256,192,119434,1,8,0:0:0:0:
256,192,119505,1,8,0:0:0:0:
256,192,119575,1,0,0:0:0:0:
256,192,119717,1,8,0:0:0:0:
256,192,119788,1,0,0:0:0:0:
256,192,119859,1,8,0:0:0:0:
256,192,119929,1,8,0:0:0:0:
256,192,120000,1,0,0:0:0:0:
256,192,120071,1,0,0:0:0:0:
256,192,120142,1,8,0:0:0:0:
256,192,120213,1,0,0:0:0:0:
256,192,120283,1,8,0:0:0:0:
256,192,120425,1,0,0:0:0:0:
256,192,120496,1,0,0:0:0:0:
256,192,120567,1,8,0:0:0:0:
256,192,120637,1,0,0:0:0:0:
256,192,120708,1,8,0:0:0:0:
256,192,120850,1,0,0:0:0:0:
256,192,120921,1,8,0:0:0:0:
256,192,120991,1,8,0:0:0:0:
256,192,121062,1,8,0:0:0:0:
256,192,121133,1,0,0:0:0:0:
256,192,121204,1,0,0:0:0:0:
256,192,121275,1,8,0:0:0:0:
256,192,121345,1,0,0:0:0:0:
256,192,121416,1,8,0:0:0:0:
256,192,121558,1,0,0:0:0:0:
256,192,121629,1,0,0:0:0:0:
256,192,121699,1,8,0:0:0:0:
256,192,121770,1,0,0:0:0:0:
256,192,121841,1,8,0:0:0:0:
256,192,121983,1,0,0:0:0:0:
256,192,122053,1,8,0:0:0:0:
256,192,122124,1,8,0:0:0:0:
256,192,122195,1,8,0:0:0:0:
256,192,122266,1,8,0:0:0:0:
256,192,122337,1,8,0:0:0:0:
256,192,122407,1,0,0:0:0:0:
256,192,122549,1,8,0:0:0:0:
256,192,122620,1,8,0:0:0:0:
256,192,122691,1,0,0:0:0:0:
256,192,122832,1,8,0:0:0:0:
256,192,122903,1,0,0:0:0:0:
256,192,122974,1,0,0:0:0:0:
256,192,123115,1,8,0:0:0:0:
256,192,123186,1,0,0:0:0:0:
256,192,123257,1,0,0:0:0:0:
256,192,123399,1,8,0:0:0:0:
256,192,123469,1,8,0:0:0:0:
256,192,123540,1,8,0:0:0:0:
256,192,123682,1,0,0:0:0:0:
256,192,123753,1,0,0:0:0:0:
256,192,123823,1,0,0:0:0:0:
256,192,123965,1,8,0:0:0:0:
256,192,124036,1,8,0:0:0:0:
256,192,124106,1,8,0:0:0:0:
256,192,124248,1,0,0:0:0:0:
256,192,124319,1,0,0:0:0:0:
256,192,124390,1,0,0:0:0:0:
256,192,124531,1,8,0:0:0:0:
256,192,124602,1,8,0:0:0:0:
256,192,124673,1,8,0:0:0:0:
256,192,124744,1,8,0:0:0:0:
256,192,124814,1,0,0:0:0:0:
256,192,124885,1,0,0:0:0:0:
256,192,124956,1,0,0:0:0:0:
256,192,125027,1,0,0:0:0:0:
256,192,125098,1,8,0:0:0:0:
256,192,125168,1,8,0:0:0:0:
256,192,125239,1,8,0:0:0:0:
256,192,125310,1,8,0:0:0:0:
256,192,125381,1,0,0:0:0:0:
256,192,125452,1,0,0:0:0:0:
256,192,125522,1,0,0:0:0:0:
256,192,125664,1,8,0:0:0:0:
256,192,125735,1,8,0:0:0:0:
256,192,125806,1,8,0:0:0:0:
256,192,125876,1,8,0:0:0:0:
256,192,125947,1,0,0:0:0:0:
256,192,126018,1,0,0:0:0:0:
256,192,126089,1,0,0:0:0:0:
256,192,126160,1,0,0:0:0:0:
256,192,126230,1,8,0:0:0:0:
256,192,126301,1,8,0:0:0:0:
256,192,126372,1,8,0:0:0:0:
256,192,126443,1,8,0:0:0:0:
256,192,126514,1,0,0:0:0:0:
256,192,126584,1,0,0:0:0:0:
256,192,126655,1,0,0:0:0:0:
256,192,126726,1,0,0:0:0:0:
256,192,126797,1,0,0:0:0:0:
256,192,126915,1,0,0:0:0:0:
256,192,126975,1,0,0:0:0:0:
256,192,127034,1,8,0:0:0:0:
256,192,127153,1,0,0:0:0:0:
256,192,127213,1,0,0:0:0:0:
256,192,127272,1,8,0:0:0:0:
256,192,127332,1,8,0:0:0:0:
256,192,127391,1,0,0:0:0:0:
256,192,127450,1,0,0:0:0:0:
256,192,127510,1,8,0:0:0:0:
256,192,127569,1,0,0:0:0:0:
256,192,127629,1,8,0:0:0:0:
256,192,127748,1,0,0:0:0:0:
256,192,127867,1,0,0:0:0:0:
256,192,127926,1,0,0:0:0:0:
256,192,127985,1,8,0:0:0:0:
256,192,128104,1,0,0:0:0:0:
256,192,128164,1,0,0:0:0:0:
256,192,128223,1,8,0:0:0:0:
256,192,128283,1,8,0:0:0:0:
256,192,128342,1,0,0:0:0:0:
256,192,128402,1,0,0:0:0:0:
256,192,128461,1,8,0:0:0:0:
256,192,128520,1,0,0:0:0:0:
256,192,128580,1,8,0:0:0:0:
256,192,128639,1,0,0:0:0:0:
256,192,128699,1,0,0:0:0:0:
256,192,128758,1,0,0:0:0:0:
256,192,128818,1,0,0:0:0:0:
256,192,128937,1,8,0:0:0:0:
256,160,129055,1,0,0:0:0:0:
256,192,129115,1,0,0:0:0:0:
256,192,129174,1,8,0:0:0:0:
256,192,129234,1,8,0:0:0:0:
256,192,129293,1,0,0:0:0:0:
256,192,129412,1,8,0:0:0:0:
256,192,129472,1,8,0:0:0:0:
256,192,129531,1,0,0:0:0:0:
256,192,129590,1,8,0:0:0:0:
256,192,129650,1,0,0:0:0:0:
256,192,129709,1,0,0:0:0:0:
256,192,129769,1,0,0:0:0:0:
256,192,129888,1,8,0:0:0:0:
256,192,130007,1,0,0:0:0:0:
256,192,130066,1,0,0:0:0:0:
256,192,130125,1,8,0:0:0:0:
256,192,130185,1,8,0:0:0:0:
256,192,130244,1,0,0:0:0:0:
256,192,130363,1,8,0:0:0:0:
256,192,130423,1,0,0:0:0:0:
256,192,130482,1,8,0:0:0:0:
256,192,130542,1,8,0:0:0:0:
256,192,130601,1,8,0:0:0:0:
256,192,130660,1,0,0:0:0:0:
256,192,130720,1,0,0:0:0:0:
256,192,130839,1,8,0:0:0:0:
256,192,130898,1,0,0:0:0:0:
256,192,130958,1,0,0:0:0:0:
256,192,131077,1,8,0:0:0:0:
256,192,131136,1,0,0:0:0:0:
256,192,131195,1,0,0:0:0:0:
256,192,131314,1,8,0:0:0:0:
256,192,131374,1,0,0:0:0:0:
256,192,131433,1,0,0:0:0:0:
256,192,131552,1,8,0:0:0:0:
256,192,131612,1,8,0:0:0:0:
256,192,131671,1,8,0:0:0:0:
256,192,131790,1,0,0:0:0:0:
256,192,131849,1,0,0:0:0:0:
256,192,131909,1,0,0:0:0:0:
256,192,132028,1,8,0:0:0:0:
256,192,132087,1,8,0:0:0:0:
256,192,132147,1,8,0:0:0:0:
256,192,132265,1,0,0:0:0:0:
256,192,132325,1,0,0:0:0:0:
256,192,132384,1,0,0:0:0:0:
256,192,132503,1,8,0:0:0:0:
256,192,132563,1,8,0:0:0:0:
256,192,132622,1,8,0:0:0:0:
256,192,132682,1,8,0:0:0:0:
256,192,132741,1,0,0:0:0:0:
256,192,132800,1,0,0:0:0:0:
256,192,132860,1,0,0:0:0:0:
256,192,132919,1,0,0:0:0:0:
256,192,132979,1,8,0:0:0:0:
256,192,133098,1,0,0:0:0:0:
256,192,133157,1,0,0:0:0:0:
256,192,133217,1,8,0:0:0:0:
256,192,133276,1,8,0:0:0:0:
256,192,133335,1,0,0:0:0:0:
256,192,133454,1,8,0:0:0:0:
256,192,133514,1,8,0:0:0:0:
256,192,133573,1,8,0:0:0:0:
256,192,133633,1,8,0:0:0:0:
256,192,133692,1,0,0:0:0:0:
256,192,133751,1,0,0:0:0:0:
256,192,133811,1,0,0:0:0:0:
256,192,133870,1,0,0:0:0:0:
256,192,133930,1,8,0:0:0:0:
256,192,133989,1,8,0:0:0:0:
256,192,134049,1,0,0:0:0:0:
256,192,134108,1,0,0:0:0:0:
256,192,134168,1,8,0:0:0:0:
256,192,134227,1,8,0:0:0:0:
256,192,134286,1,0,0:0:0:0:
256,192,134405,1,0,0:0:0:0:
256,192,134524,1,8,0:0:0:0:
256,192,134584,1,8,0:0:0:0:
256,192,134643,1,0,0:0:0:0:
256,192,134762,1,0,0:0:0:0:
256,192,134822,1,0,0:0:0:0:
256,192,134881,1,8,0:0:0:0:
256,192,134941,1,0,0:0:0:0:
256,192,135000,1,0,0:0:0:0:
256,192,135059,1,0,0:0:0:0:
256,192,135119,1,8,0:0:0:0:
256,192,135178,1,0,0:0:0:0:
256,192,135238,1,8,0:0:0:0:
256,192,135357,1,0,0:0:0:0:
256,192,135476,1,8,0:0:0:0:
256,192,135535,1,8,0:0:0:0:
256,192,135594,1,0,0:0:0:0:
256,192,135713,1,0,0:0:0:0:
256,192,135773,1,0,0:0:0:0:
256,192,135832,1,8,0:0:0:0:
256,192,135892,1,0,0:0:0:0:
256,192,135951,1,0,0:0:0:0:
256,192,136010,1,0,0:0:0:0:
256,192,136070,1,8,0:0:0:0:
256,192,136129,1,0,0:0:0:0:
256,192,136189,1,8,0:0:0:0:
256,192,136248,1,8,0:0:0:0:
256,192,136308,1,0,0:0:0:0:
256,192,136367,1,0,0:0:0:0:
256,192,136427,1,8,0:0:0:0:
288,192,136486,1,8,0:0:0:0:
256,192,136546,1,0,0:0:0:0:
256,192,136664,1,0,0:0:0:0:
256,192,136724,1,8,0:0:0:0:
256,192,136783,1,8,0:0:0:0:
256,192,136843,1,8,0:0:0:0:
256,192,136902,1,0,0:0:0:0:
256,192,137021,1,8,0:0:0:0:
256,192,137081,1,0,0:0:0:0:
256,192,137140,1,8,0:0:0:0:
256,192,137199,1,8,0:0:0:0:
256,192,137259,1,0,0:0:0:0:
256,192,137318,1,0,0:0:0:0:
256,192,137378,1,8,0:0:0:0:
256,192,137437,1,0,0:0:0:0:
256,192,137497,1,0,0:0:0:0:
256,192,137616,1,0,0:0:0:0:
256,192,137675,1,8,0:0:0:0:
256,192,137734,1,8,0:0:0:0:
256,192,137794,1,8,0:0:0:0:
256,192,137853,1,0,0:0:0:0:
256,192,137972,1,8,0:0:0:0:
256,192,138032,1,0,0:0:0:0:
256,192,138091,1,8,0:0:0:0:
256,192,138151,1,8,0:0:0:0:
256,192,138210,1,8,0:0:0:0:
256,192,138269,1,8,0:0:0:0:
256,192,138329,1,8,0:0:0:0:
256,192,138448,1,0,0:0:0:0:
256,192,138507,1,0,0:0:0:0:
256,192,138567,1,0,0:0:0:0:
256,192,138686,1,8,0:0:0:0:
256,192,138745,1,8,0:0:0:0:
256,192,138804,1,8,0:0:0:0:
256,192,138923,1,0,0:0:0:0:
256,192,138983,1,0,0:0:0:0:
256,192,139042,1,0,0:0:0:0:
256,192,139161,1,8,0:0:0:0:
256,192,139221,1,0,0:0:0:0:
256,192,139280,1,8,0:0:0:0:
256,192,139399,1,0,0:0:0:0:
256,192,139458,1,8,0:0:0:0:
256,192,139518,1,0,0:0:0:0:
256,192,139637,1,8,0:0:0:0:
256,192,139696,1,0,0:0:0:0:
256,192,139756,1,8,0:0:0:0:
256,192,139874,1,0,0:0:0:0:
256,192,139934,1,8,0:0:0:0:
256,192,139993,1,0,0:0:0:0:
256,192,140112,1,8,0:0:0:0:
256,192,140172,1,8,0:0:0:0:
256,192,140231,1,8,0:0:0:0:
256,192,140291,1,8,0:0:0:0:
256,192,140350,1,0,0:0:0:0:
256,192,140409,1,0,0:0:0:0:
256,192,140469,1,0,0:0:0:0:
256,192,140588,1,8,0:0:0:0:
256,192,140647,1,8,0:0:0:0:
256,192,140707,1,0,0:0:0:0:
256,192,140766,1,0,0:0:0:0:
256,192,140826,1,8,0:0:0:0:
256,192,140885,1,8,0:0:0:0:
256,192,140944,1,0,0:0:0:0:
256,192,141063,1,8,0:0:0:0:
256,192,141123,1,8,0:0:0:0:
256,192,141182,1,8,0:0:0:0:
256,192,141242,1,8,0:0:0:0:
256,192,141301,1,0,0:0:0:0:
256,192,141361,1,0,0:0:0:0:
256,192,141420,1,0,0:0:0:0:
256,192,141479,1,0,0:0:0:0:
256,192,141539,1,8,0:0:0:0:
256,192,141598,1,8,0:0:0:0:
256,192,141658,1,0,0:0:0:0:
256,192,141717,1,0,0:0:0:0:
256,192,141777,1,8,0:0:0:0:
256,192,141836,1,8,0:0:0:0:
256,192,141896,1,8,0:0:0:0:
256,192,142014,1,12,0:0:0:0:
256,192,154695,5,12,0:0:0:0:
