osu file format v14

[General]
AudioFilename: Komissar - Chipstream.mp3
AudioLeadIn: 0
PreviewTime: 506
Countdown: 1
SampleSet: Normal
StackLeniency: 0.7
Mode: 1
LetterboxInBreaks: 1
WidescreenStoryboard: 1

[Editor]
Bookmarks: 63516,86292,107274,125664
DistanceSpacing: 1.4
BeatDivisor: 4
GridSize: 32
TimelineZoom: 3.799999

[Metadata]
Title:Chipstream
TitleUnicode:Chipstream
Artist:Kommisar
ArtistUnicode:Kommisar
Creator:BBB
Version:Loyal
Source:
Tags:
BeatmapID:650760
BeatmapSetID:288544

[Difficulty]
HPDrainRate:5
CircleSize:2
OverallDifficulty:5
ApproachRate:10
SliderMultiplier:1.4
SliderTickRate:1

[Events]
//Background and Video events
0,0,"you.jpg",0,-132
//Break Periods
2,86492,108223
//Storyboard Layer 0 (Background)
//Storyboard Layer 1 (Fail)
//Storyboard Layer 2 (Pass)
//Storyboard Layer 3 (Foreground)
//Storyboard Sound Samples

[TimingPoints]
13188,396.288101449754,4,1,1,100,1,0
63516,-98.0392156862745,4,1,1,100,0,0
63615,-96.1538461538461,4,1,1,100,0,0
63714,-94.3396226415094,4,1,1,100,0,0
63813,-92.5925925925926,4,1,1,100,0,0
63912,349.701296808976,4,1,1,100,1,0
107449,-98.0392156862745,4,1,1,100,0,0
107537,-97.0873786407767,4,1,1,100,0,0
107624,-96.1538461538461,4,1,1,100,0,0
107799,-94.3396226415094,4,1,1,100,0,0
107974,-93.4579439252336,4,1,1,100,0,0
108061,-92.5925925925926,4,1,1,100,0,0
108149,-91.743119266055,4,1,1,100,0,0
108236,-90.9090909090909,4,1,1,100,0,0
108324,-90.0900900900901,4,1,1,100,0,0
108498,-88.4955752212389,4,1,1,100,0,0
108673,283.192523717374,4,1,1,100,1,0
125735,-99.009900990099,4,1,1,100,0,0
125806,-98.0392156862745,4,1,1,100,0,0
125876,-97.0873786407767,4,1,1,100,0,0
125947,-96.1538461538461,4,1,1,100,0,0
126018,-95.2380952380952,4,1,1,100,0,0
126089,-94.3396226415094,4,1,1,100,0,0
126160,-93.4579439252336,4,1,1,100,0,0
126230,-92.5925925925926,4,1,1,100,0,0
126301,-91.743119266055,4,1,1,100,0,0
126372,-90.9090909090909,4,1,1,100,0,0
126443,-90.0900900900901,4,1,1,100,0,0
126514,-89.2857142857143,4,1,1,100,0,0
126584,-88.4955752212389,4,1,1,100,0,0
126655,-87.719298245614,4,1,1,100,0,0
126726,-86.9565217391304,4,1,1,100,0,0
126797,237.78102745182,4,1,1,100,1,0
142014,396.288101449754,4,1,1,100,1,0
142014,-666.666666666667,4,1,1,100,0,0

[HitObjects]
256,192,13187,5,0,0:0:0:0:
256,192,13386,1,0,0:0:0:0:
256,192,13584,1,8,0:0:0:0:
256,192,13782,1,0,0:0:0:0:
256,192,13980,1,0,0:0:0:0:
256,192,14079,1,0,0:0:0:0:
256,192,14178,1,0,0:0:0:0:
256,192,14376,1,8,0:0:0:0:
256,192,14575,1,0,0:0:0:0:
256,192,14674,1,0,0:0:0:0:
256,192,14773,1,0,0:0:0:0:
256,192,14971,1,0,0:0:0:0:
256,192,15169,1,8,0:0:0:0:
256,192,15367,1,0,0:0:0:0:
256,192,15565,1,0,0:0:0:0:
256,192,15664,1,0,0:0:0:0:
256,192,15763,1,0,0:0:0:0:
256,192,15962,1,8,0:0:0:0:
256,192,16160,1,0,0:0:0:0:
256,192,16259,1,0,0:0:0:0:
256,192,16358,1,0,0:0:0:0:
256,192,16556,1,0,0:0:0:0:
256,192,16754,1,8,0:0:0:0:
256,192,16952,1,0,0:0:0:0:
256,192,17150,1,0,0:0:0:0:
256,192,17249,1,0,0:0:0:0:
256,192,17349,1,0,0:0:0:0:
256,192,17547,1,8,0:0:0:0:
256,192,17745,1,0,0:0:0:0:
256,192,17844,1,0,0:0:0:0:
256,192,17943,1,0,0:0:0:0:
256,192,18141,1,0,0:0:0:0:
256,192,18339,1,8,0:0:0:0:
256,192,18537,1,0,0:0:0:0:
256,192,18736,1,0,0:0:0:0:
256,192,18835,1,0,0:0:0:0:
256,192,18934,1,0,0:0:0:0:
256,192,19132,1,8,0:0:0:0:
256,192,19330,1,0,0:0:0:0:
256,192,19429,1,0,0:0:0:0:
256,192,19528,1,0,0:0:0:0:
256,192,19726,1,0,0:0:0:0:
256,192,19924,1,8,0:0:0:0:
256,192,20123,1,0,0:0:0:0:
256,192,20321,1,0,0:0:0:0:
256,192,20420,1,0,0:0:0:0:
256,192,20519,1,0,0:0:0:0:
224,192,20717,1,8,0:0:0:0:
224,192,20915,1,0,0:0:0:0:
224,192,21014,1,0,0:0:0:0:
224,192,21113,1,0,0:0:0:0:
224,192,21311,1,0,0:0:0:0:
224,192,21510,1,8,0:0:0:0:
224,192,21708,1,0,0:0:0:0:
224,192,21906,1,0,0:0:0:0:
224,192,22005,1,0,0:0:0:0:
224,192,22104,1,0,0:0:0:0:
224,192,22302,1,8,0:0:0:0:
224,192,22500,1,0,0:0:0:0:
224,192,22599,1,0,0:0:0:0:
224,192,22698,1,0,0:0:0:0:
224,192,22897,1,0,0:0:0:0:
224,192,23095,1,8,0:0:0:0:
224,192,23293,1,0,0:0:0:0:
224,192,23491,1,0,0:0:0:0:
224,192,23590,1,0,0:0:0:0:
224,192,23689,1,0,0:0:0:0:
224,192,23887,1,8,0:0:0:0:
224,192,24085,1,0,0:0:0:0:
224,192,24184,1,0,0:0:0:0:
224,192,24284,1,0,0:0:0:0:
256,192,24482,5,0,0:0:0:0:
256,192,24680,1,8,0:0:0:0:
256,192,24878,1,0,0:0:0:0:
256,192,25076,1,0,0:0:0:0:
256,192,25175,1,0,0:0:0:0:
256,192,25274,1,0,0:0:0:0:
256,192,25472,1,8,0:0:0:0:
256,192,25671,1,0,0:0:0:0:
256,192,25770,1,0,0:0:0:0:
256,192,25869,1,0,0:0:0:0:
256,192,26068,1,0,0:0:0:0:
256,192,26266,1,8,0:0:0:0:
256,192,26464,1,0,0:0:0:0:
256,192,26662,1,0,0:0:0:0:
256,192,26761,1,0,0:0:0:0:
256,192,26860,1,0,0:0:0:0:
256,192,27058,1,8,0:0:0:0:
256,192,27257,1,0,0:0:0:0:
256,192,27356,1,0,0:0:0:0:
256,192,27455,1,0,0:0:0:0:
256,192,27653,1,0,0:0:0:0:
256,192,27851,1,8,0:0:0:0:
256,192,28049,1,0,0:0:0:0:
256,192,28247,1,0,0:0:0:0:
256,192,28346,1,0,0:0:0:0:
256,192,28445,1,0,0:0:0:0:
256,192,28644,1,8,0:0:0:0:
256,192,28842,1,0,0:0:0:0:
256,192,28941,1,0,0:0:0:0:
256,192,29040,1,0,0:0:0:0:
256,192,29238,1,0,0:0:0:0:
256,192,29436,1,8,0:0:0:0:
256,192,29634,1,0,0:0:0:0:
256,192,29832,1,0,0:0:0:0:
256,192,29931,1,0,0:0:0:0:
256,192,30031,1,0,0:0:0:0:
256,192,30229,1,8,0:0:0:0:
256,192,30427,1,0,0:0:0:0:
256,192,30526,1,0,0:0:0:0:
256,192,30625,1,0,0:0:0:0:
256,192,30823,1,0,0:0:0:0:
256,192,31021,1,8,0:0:0:0:
256,192,31219,1,0,0:0:0:0:
256,192,31418,1,0,0:0:0:0:
256,192,31517,1,0,0:0:0:0:
256,192,31616,1,0,0:0:0:0:
256,192,31814,1,8,0:0:0:0:
256,192,32012,1,0,0:0:0:0:
256,192,32111,1,0,0:0:0:0:
256,192,32210,1,0,0:0:0:0:
256,192,32408,1,0,0:0:0:0:
256,192,32606,1,8,0:0:0:0:
256,192,32805,1,0,0:0:0:0:
256,192,33003,1,0,0:0:0:0:
256,192,33102,1,0,0:0:0:0:
256,192,33201,1,0,0:0:0:0:
224,192,33399,1,8,0:0:0:0:
224,192,33597,1,0,0:0:0:0:
224,192,33696,1,0,0:0:0:0:
224,192,33795,1,0,0:0:0:0:
224,192,33993,1,0,0:0:0:0:
224,192,34192,1,8,0:0:0:0:
224,192,34390,1,0,0:0:0:0:
224,192,34588,1,0,0:0:0:0:
224,192,34687,1,0,0:0:0:0:
224,192,34786,1,0,0:0:0:0:
224,192,34984,1,8,0:0:0:0:
224,192,35182,1,0,0:0:0:0:
224,192,35281,1,0,0:0:0:0:
224,192,35380,1,0,0:0:0:0:
224,192,35579,1,0,0:0:0:0:
224,192,35777,1,8,0:0:0:0:
224,192,35975,1,0,0:0:0:0:
224,192,36173,1,0,0:0:0:0:
224,192,36272,1,0,0:0:0:0:
224,192,36371,1,0,0:0:0:0:
224,192,36569,1,8,0:0:0:0:
224,192,36767,1,0,0:0:0:0:
224,192,36866,1,0,0:0:0:0:
224,192,36966,1,0,0:0:0:0:
256,192,37164,5,0,0:0:0:0:
256,192,37362,1,8,0:0:0:0:
256,192,37560,1,0,0:0:0:0:
256,192,37758,1,0,0:0:0:0:
256,192,37857,1,0,0:0:0:0:
256,192,37956,1,0,0:0:0:0:
256,192,38154,1,8,0:0:0:0:
256,192,38353,1,0,0:0:0:0:
256,192,38452,1,0,0:0:0:0:
256,192,38550,1,12,0:0:0:0:
256,192,39144,1,0,0:0:0:0:
256,192,39343,1,0,0:0:0:0:
256,192,39442,1,0,0:0:0:0:
256,192,39541,1,0,0:0:0:0:
256,192,39739,1,8,0:0:0:0:
256,192,39937,1,0,0:0:0:0:
256,192,40036,1,0,0:0:0:0:
256,192,40135,1,0,0:0:0:0:
256,192,40333,1,0,0:0:0:0:
256,192,40531,1,8,0:0:0:0:
256,192,40730,1,0,0:0:0:0:
256,192,40928,1,0,0:0:0:0:
256,192,41027,1,0,0:0:0:0:
256,192,41126,1,0,0:0:0:0:
256,192,41324,1,8,0:0:0:0:
256,192,41522,1,0,0:0:0:0:
256,192,41621,1,0,0:0:0:0:
256,192,41720,1,0,0:0:0:0:
256,192,41918,1,0,0:0:0:0:
256,192,42117,1,8,0:0:0:0:
256,192,42315,1,0,0:0:0:0:
256,192,42414,1,8,0:0:0:0:
256,192,42612,1,8,0:0:0:0:
256,192,42810,1,0,0:0:0:0:
256,192,42909,1,8,0:0:0:0:
256,192,43107,1,12,0:0:0:0:
256,192,43305,1,0,0:0:0:0:
256,192,43504,1,0,0:0:0:0:
256,192,43702,1,8,0:0:0:0:
256,192,43900,1,0,0:0:0:0:
256,192,43999,1,8,0:0:0:0:
256,192,44197,1,8,0:0:0:0:
256,192,44395,1,0,0:0:0:0:
256,192,44494,1,8,0:0:0:0:
256,192,44692,1,12,0:0:0:0:
256,192,44891,1,8,0:0:0:0:
256,192,44990,1,8,0:0:0:0:
256,192,45188,1,8,0:0:0:0:
256,192,45287,1,0,0:0:0:0:
256,192,45485,1,0,0:0:0:0:
256,192,45683,1,8,0:0:0:0:
256,192,45881,1,0,0:0:0:0:
256,192,46079,1,8,0:0:0:0:
256,192,46178,1,0,0:0:0:0:
256,192,46278,1,0,0:0:0:0:
256,192,46476,1,8,0:0:0:0:
256,192,46575,1,8,0:0:0:0:
256,192,46773,1,8,0:0:0:0:
256,192,46872,1,0,0:0:0:0:
256,192,47070,1,0,0:0:0:0:
256,192,47268,1,8,0:0:0:0:
256,192,47466,1,0,0:0:0:0:
256,192,47664,1,8,0:0:0:0:
256,192,47763,1,0,0:0:0:0:
256,192,47863,1,0,0:0:0:0:
256,192,48061,1,8,0:0:0:0:
256,192,48160,1,8,0:0:0:0:
256,192,48259,1,8,0:0:0:0:
256,192,48358,1,8,0:0:0:0:
256,192,48457,1,0,0:0:0:0:
256,192,48754,1,0,0:0:0:0:
256,192,49052,1,0,0:0:0:0:
256,192,49151,1,0,0:0:0:0:
256,192,49250,1,8,0:0:0:0:
256,192,49448,1,8,0:0:0:0:
256,192,49646,1,8,0:0:0:0:
256,192,49745,1,8,0:0:0:0:
256,192,49844,1,8,0:0:0:0:
256,192,49943,1,8,0:0:0:0:
256,192,50042,1,0,0:0:0:0:
256,192,50339,1,0,0:0:0:0:
256,192,50637,1,0,0:0:0:0:
256,192,50736,1,0,0:0:0:0:
256,192,50835,1,8,0:0:0:0:
256,192,51033,1,8,0:0:0:0:
256,192,51231,1,8,0:0:0:0:
256,192,51429,1,8,0:0:0:0:
256,192,51627,1,0,0:0:0:0:
256,192,51826,1,8,0:0:0:0:
256,192,52024,1,8,0:0:0:0:
256,192,52123,1,8,0:0:0:0:
256,192,52222,1,8,0:0:0:0:
256,192,52420,1,0,0:0:0:0:
256,192,52618,1,8,0:0:0:0:
256,192,52717,1,8,0:0:0:0:
256,192,52816,1,8,0:0:0:0:
256,192,53014,1,8,0:0:0:0:
256,192,53213,1,0,0:0:0:0:
256,192,53411,1,8,0:0:0:0:
256,192,53609,1,8,0:0:0:0:
256,192,53708,1,8,0:0:0:0:
256,192,53807,1,8,0:0:0:0:
256,192,54005,1,0,0:0:0:0:
256,192,54203,1,8,0:0:0:0:
256,192,54302,1,8,0:0:0:0:
256,192,54401,1,8,0:0:0:0:
256,192,54600,1,8,0:0:0:0:
256,192,54798,1,0,0:0:0:0:
256,192,54996,1,8,0:0:0:0:
256,192,55095,1,0,0:0:0:0:
256,192,55293,1,0,0:0:0:0:
256,192,55491,1,8,0:0:0:0:
256,192,55590,1,0,0:0:0:0:
256,192,55788,1,12,0:0:0:0:
256,192,55987,1,8,0:0:0:0:
256,192,56185,1,8,0:0:0:0:
256,192,56383,1,0,0:0:0:0:
256,192,56581,1,8,0:0:0:0:
256,192,56680,1,0,0:0:0:0:
256,192,56878,1,0,0:0:0:0:
256,192,57076,1,8,0:0:0:0:
256,192,57175,1,0,0:0:0:0:
256,192,57374,1,12,0:0:0:0:
256,192,57572,1,0,0:0:0:0:
256,192,57671,1,8,0:0:0:0:
256,192,57869,1,0,0:0:0:0:
256,192,57968,1,8,0:0:0:0:
256,192,58166,1,8,0:0:0:0:
256,192,58364,1,8,0:0:0:0:
256,192,58562,1,8,0:0:0:0:
256,192,58761,1,8,0:0:0:0:
256,192,58860,1,8,0:0:0:0:
256,192,58959,1,0,0:0:0:0:
256,192,59157,1,0,0:0:0:0:
256,192,59256,1,8,0:0:0:0:
256,192,59454,1,0,0:0:0:0:
256,192,59553,1,8,0:0:0:0:
256,192,59751,1,8,0:0:0:0:
256,192,59949,1,8,0:0:0:0:
256,192,60147,1,8,0:0:0:0:
256,192,60346,1,8,0:0:0:0:
256,192,60445,1,8,0:0:0:0:
256,192,60544,1,0,0:0:0:0:
256,192,60742,1,8,0:0:0:0:
256,192,60841,1,8,0:0:0:0:
256,192,60940,1,8,0:0:0:0:
256,192,61039,1,8,0:0:0:0:
256,192,61138,1,0,0:0:0:0:
256,192,61435,1,0,0:0:0:0:
256,192,61733,1,0,0:0:0:0:
256,192,61832,1,0,0:0:0:0:
256,192,61931,1,8,0:0:0:0:
256,192,62129,1,8,0:0:0:0:
256,192,62327,1,8,0:0:0:0:
256,192,62426,1,8,0:0:0:0:
256,192,62525,1,8,0:0:0:0:
256,192,62624,1,8,0:0:0:0:
256,192,62723,1,0,0:0:0:0:
256,192,63020,1,0,0:0:0:0:
256,192,63318,1,0,0:0:0:0:
256,192,63417,1,0,0:0:0:0:
256,192,63516,1,8,0:0:0:0:
256,192,63714,1,8,0:0:0:0:
256,192,63912,1,0,0:0:0:0:
256,192,64086,1,0,0:0:0:0:
256,192,64261,1,8,0:0:0:0:
256,192,64436,1,0,0:0:0:0:
256,192,64611,1,0,0:0:0:0:
256,192,64698,1,0,0:0:0:0:
256,192,64786,1,0,0:0:0:0:
256,192,64961,1,8,0:0:0:0:
256,192,65135,1,0,0:0:0:0:
256,192,65223,1,0,0:0:0:0:
256,192,65310,1,0,0:0:0:0:
256,192,65485,1,0,0:0:0:0:
256,192,65660,1,8,0:0:0:0:
256,192,65835,1,0,0:0:0:0:
256,192,66010,1,0,0:0:0:0:
256,192,66097,1,0,0:0:0:0:
256,192,66185,1,0,0:0:0:0:
256,192,66359,1,8,0:0:0:0:
256,192,66534,1,0,0:0:0:0:
256,192,66622,1,0,0:0:0:0:
256,192,66709,1,0,0:0:0:0:
256,192,66883,1,0,0:0:0:0:
256,192,67058,1,8,0:0:0:0:
256,192,67233,1,0,0:0:0:0:
256,192,67408,1,0,0:0:0:0:
256,192,67495,1,0,0:0:0:0:
256,192,67583,1,0,0:0:0:0:
256,192,67758,1,8,0:0:0:0:
256,192,67932,1,0,0:0:0:0:
256,192,68020,1,0,0:0:0:0:
256,192,68107,1,0,0:0:0:0:
256,192,68282,1,0,0:0:0:0:
256,192,68457,1,8,0:0:0:0:
256,192,68632,1,0,0:0:0:0:
256,192,68807,1,0,0:0:0:0:
256,192,68894,1,0,0:0:0:0:
256,192,68982,1,0,0:0:0:0:
256,192,69156,1,8,0:0:0:0:
256,192,69331,1,0,0:0:0:0:
256,192,69419,1,0,0:0:0:0:
256,192,69507,1,0,0:0:0:0:
256,192,69681,1,0,0:0:0:0:
256,192,69856,1,8,0:0:0:0:
256,192,70031,1,0,0:0:0:0:
256,192,70206,1,0,0:0:0:0:
256,192,70293,1,0,0:0:0:0:
256,192,70381,1,0,0:0:0:0:
256,192,70556,1,8,0:0:0:0:
256,192,70730,1,0,0:0:0:0:
256,192,70818,1,0,0:0:0:0:
256,192,70905,1,0,0:0:0:0:
256,192,71080,1,0,0:0:0:0:
256,192,71255,1,8,0:0:0:0:
256,192,71430,1,0,0:0:0:0:
256,192,71605,1,0,0:0:0:0:
256,192,71692,1,0,0:0:0:0:
256,192,71780,1,0,0:0:0:0:
256,192,71954,1,8,0:0:0:0:
256,192,72129,1,0,0:0:0:0:
256,192,72217,1,0,0:0:0:0:
256,192,72304,1,0,0:0:0:0:
256,192,72478,1,0,0:0:0:0:
256,192,72653,1,8,0:0:0:0:
256,192,72828,1,0,0:0:0:0:
256,192,73003,1,0,0:0:0:0:
256,192,73090,1,0,0:0:0:0:
256,192,73178,1,0,0:0:0:0:
256,192,73353,1,8,0:0:0:0:
256,192,73527,1,0,0:0:0:0:
256,192,73615,1,0,0:0:0:0:
256,192,73702,1,0,0:0:0:0:
256,192,73877,1,0,0:0:0:0:
256,192,74052,1,8,0:0:0:0:
256,192,74227,1,0,0:0:0:0:
256,192,74402,1,0,0:0:0:0:
256,192,74489,1,0,0:0:0:0:
256,192,74577,1,0,0:0:0:0:
256,192,74751,1,8,0:0:0:0:
256,192,74926,1,0,0:0:0:0:
256,192,75014,1,0,0:0:0:0:
256,192,75102,1,0,0:0:0:0:
256,192,75276,1,0,0:0:0:0:
256,192,75451,1,8,0:0:0:0:
256,192,75626,1,0,0:0:0:0:
256,192,75801,1,0,0:0:0:0:
256,192,75888,1,0,0:0:0:0:
256,192,75976,1,0,0:0:0:0:
256,192,76151,1,8,0:0:0:0:
256,192,76325,1,0,0:0:0:0:
256,192,76413,1,0,0:0:0:0:
256,192,76500,1,0,0:0:0:0:
256,192,76675,1,0,0:0:0:0:
256,192,76850,1,8,0:0:0:0:
256,192,77025,1,0,0:0:0:0:
256,192,77200,1,0,0:0:0:0:
256,192,77287,1,0,0:0:0:0:
256,192,77375,1,0,0:0:0:0:
256,192,77549,1,8,0:0:0:0:
256,192,77724,1,0,0:0:0:0:
256,192,77812,1,0,0:0:0:0:
256,192,77900,1,0,0:0:0:0:
256,192,78074,1,0,0:0:0:0:
256,192,78249,1,8,0:0:0:0:
256,192,78424,1,0,0:0:0:0:
256,192,78599,1,0,0:0:0:0:
256,192,78686,1,0,0:0:0:0:
256,192,78774,1,0,0:0:0:0:
256,192,78949,1,8,0:0:0:0:
256,192,79123,1,0,0:0:0:0:
256,192,79211,1,0,0:0:0:0:
256,192,79298,1,0,0:0:0:0:
256,192,79473,1,0,0:0:0:0:
256,192,79648,1,8,0:0:0:0:
256,192,79823,1,0,0:0:0:0:
256,192,79998,1,0,0:0:0:0:
256,192,80085,1,0,0:0:0:0:
256,192,80173,1,0,0:0:0:0:
256,192,80347,1,8,0:0:0:0:
256,192,80522,1,0,0:0:0:0:
256,192,80610,1,0,0:0:0:0:
256,192,80697,1,0,0:0:0:0:
256,192,80871,1,0,0:0:0:0:
256,192,81046,1,8,0:0:0:0:
256,192,81221,1,0,0:0:0:0:
256,192,81396,1,0,0:0:0:0:
256,192,81483,1,0,0:0:0:0:
256,192,81571,1,0,0:0:0:0:
256,192,81746,1,8,0:0:0:0:
256,192,81920,1,0,0:0:0:0:
256,192,82008,1,0,0:0:0:0:
256,192,82095,1,0,0:0:0:0:
256,192,82270,1,0,0:0:0:0:
256,192,82445,1,8,0:0:0:0:
256,192,82620,1,0,0:0:0:0:
256,192,82795,1,0,0:0:0:0:
256,192,82882,1,0,0:0:0:0:
256,192,82970,1,0,0:0:0:0:
256,192,83144,1,8,0:0:0:0:
256,192,83319,1,0,0:0:0:0:
256,192,83407,1,0,0:0:0:0:
256,192,83495,1,0,0:0:0:0:
256,192,83669,1,0,0:0:0:0:
256,192,83844,1,8,0:0:0:0:
256,192,84019,1,0,0:0:0:0:
256,192,84194,1,0,0:0:0:0:
256,192,84281,1,0,0:0:0:0:
256,192,84369,1,0,0:0:0:0:
256,192,84544,1,8,0:0:0:0:
256,192,84718,1,0,0:0:0:0:
256,192,84806,1,0,0:0:0:0:
256,192,84893,1,0,0:0:0:0:
256,192,85068,1,0,0:0:0:0:
256,192,85243,1,8,0:0:0:0:
256,192,85418,1,0,0:0:0:0:
256,192,85593,1,0,0:0:0:0:
256,192,85680,1,0,0:0:0:0:
256,192,85768,1,0,0:0:0:0:
256,192,85942,1,8,0:0:0:0:
256,192,86117,1,0,0:0:0:0:
256,192,86205,1,0,0:0:0:0:
256,192,86292,1,12,0:0:0:0:
256,192,108673,5,0,0:0:0:0:
256,192,108814,1,0,0:0:0:0:
256,192,108956,1,8,0:0:0:0:
256,192,109097,1,0,0:0:0:0:
256,192,109239,1,0,0:0:0:0:
256,192,109310,1,0,0:0:0:0:
256,192,109381,1,0,0:0:0:0:
256,192,109522,1,8,0:0:0:0:
256,192,109664,1,0,0:0:0:0:
256,192,109735,1,0,0:0:0:0:
256,192,109805,1,0,0:0:0:0:
256,192,109947,1,0,0:0:0:0:
256,192,110089,1,8,0:0:0:0:
256,192,110230,1,0,0:0:0:0:
256,192,110372,1,0,0:0:0:0:
256,192,110443,1,0,0:0:0:0:
256,192,110513,1,0,0:0:0:0:
256,192,110655,1,8,0:0:0:0:
256,192,110797,1,0,0:0:0:0:
256,192,110867,1,0,0:0:0:0:
256,192,110938,5,0,0:0:0:0:
256,192,111079,1,0,0:0:0:0:
256,192,111221,1,8,0:0:0:0:
256,192,111362,1,0,0:0:0:0:
256,192,111504,1,0,0:0:0:0:
256,192,111575,1,0,0:0:0:0:
256,192,111646,1,0,0:0:0:0:
256,192,111787,1,8,0:0:0:0:
256,192,111929,1,0,0:0:0:0:
256,192,112000,1,0,0:0:0:0:
256,192,112070,1,0,0:0:0:0:
256,192,112212,1,0,0:0:0:0:
256,192,112354,1,8,0:0:0:0:
256,192,112495,1,0,0:0:0:0:
256,192,112637,1,0,0:0:0:0:
256,192,112708,1,0,0:0:0:0:
256,192,112778,1,0,0:0:0:0:
256,192,112920,1,8,0:0:0:0:
256,192,113062,1,0,0:0:0:0:
256,192,113132,1,0,0:0:0:0:
256,192,113204,5,0,0:0:0:0:
256,192,113345,1,0,0:0:0:0:
256,192,113487,1,8,0:0:0:0:
256,192,113628,1,0,0:0:0:0:
256,192,113770,1,0,0:0:0:0:
256,192,113841,1,0,0:0:0:0:
256,192,113912,1,0,0:0:0:0:
256,192,114053,1,8,0:0:0:0:
256,192,114195,1,0,0:0:0:0:
256,192,114266,1,0,0:0:0:0:
256,192,114336,1,0,0:0:0:0:
256,192,114478,1,0,0:0:0:0:
256,192,114620,1,8,0:0:0:0:
256,192,114761,1,0,0:0:0:0:
256,192,114903,1,0,0:0:0:0:
256,192,114974,1,0,0:0:0:0:
256,192,115044,1,0,0:0:0:0:
256,192,115186,1,8,0:0:0:0:
256,192,115328,1,0,0:0:0:0:
256,192,115398,1,0,0:0:0:0:
256,192,115469,5,0,0:0:0:0:
256,192,115610,1,0,0:0:0:0:
256,192,115752,1,8,0:0:0:0:
256,192,115893,1,0,0:0:0:0:
256,192,116035,1,0,0:0:0:0:
256,192,116106,1,0,0:0:0:0:
256,192,116177,1,0,0:0:0:0:
256,192,116318,1,8,0:0:0:0:
256,192,116460,1,0,0:0:0:0:
256,192,116531,1,0,0:0:0:0:
256,192,116601,1,0,0:0:0:0:
256,192,116743,1,0,0:0:0:0:
256,192,116885,1,8,0:0:0:0:
256,192,117026,1,0,0:0:0:0:
256,192,117168,1,0,0:0:0:0:
256,192,117239,1,0,0:0:0:0:
256,192,117309,1,0,0:0:0:0:
256,192,117451,1,8,0:0:0:0:
256,192,117593,1,0,0:0:0:0:
256,192,117663,1,0,0:0:0:0:
256,192,117735,5,0,0:0:0:0:
256,192,117876,1,0,0:0:0:0:
256,192,118018,1,8,0:0:0:0:
256,192,118159,1,0,0:0:0:0:
256,192,118301,1,0,0:0:0:0:
256,192,118372,1,0,0:0:0:0:
256,192,118443,1,0,0:0:0:0:
256,192,118584,1,8,0:0:0:0:
256,192,118726,1,0,0:0:0:0:
256,192,118797,1,0,0:0:0:0:
256,192,118867,1,0,0:0:0:0:
256,192,119009,1,0,0:0:0:0:
256,192,119151,1,8,0:0:0:0:
256,192,119292,1,0,0:0:0:0:
256,192,119434,1,0,0:0:0:0:
256,192,119505,1,0,0:0:0:0:
256,192,119575,1,0,0:0:0:0:
256,192,119717,1,8,0:0:0:0:
256,192,119859,1,0,0:0:0:0:
256,192,119929,1,0,0:0:0:0:
256,192,120000,5,0,0:0:0:0:
256,192,120141,1,0,0:0:0:0:
256,192,120283,1,8,0:0:0:0:
256,192,120424,1,0,0:0:0:0:
256,192,120566,1,0,0:0:0:0:
256,192,120637,1,0,0:0:0:0:
256,192,120708,1,0,0:0:0:0:
256,192,120849,1,8,0:0:0:0:
256,192,120991,1,0,0:0:0:0:
256,192,121062,1,0,0:0:0:0:
256,192,121132,1,0,0:0:0:0:
256,192,121274,1,0,0:0:0:0:
256,192,121416,1,8,0:0:0:0:
256,192,121557,1,0,0:0:0:0:
256,192,121699,1,0,0:0:0:0:
256,192,121770,1,0,0:0:0:0:
256,192,121840,1,0,0:0:0:0:
256,192,121982,1,8,0:0:0:0:
256,192,122124,1,0,0:0:0:0:
256,192,122194,1,0,0:0:0:0:
256,192,122266,5,0,0:0:0:0:
256,192,122407,1,0,0:0:0:0:
256,192,122549,1,8,0:0:0:0:
256,192,122690,1,0,0:0:0:0:
256,192,122832,1,0,0:0:0:0:
256,192,122903,1,0,0:0:0:0:
256,192,122974,1,0,0:0:0:0:
256,192,123115,1,8,0:0:0:0:
256,192,123257,1,0,0:0:0:0:
256,192,123328,1,0,0:0:0:0:
256,192,123398,1,0,0:0:0:0:
256,192,123540,1,0,0:0:0:0:
256,192,123682,1,8,0:0:0:0:
256,192,123823,1,0,0:0:0:0:
256,192,123965,1,0,0:0:0:0:
256,192,124036,1,0,0:0:0:0:
256,192,124106,1,0,0:0:0:0:
256,192,124248,1,8,0:0:0:0:
256,192,124390,1,0,0:0:0:0:
256,192,124460,1,0,0:0:0:0:
256,192,124531,5,0,0:0:0:0:
256,192,124672,1,0,0:0:0:0:
256,192,124814,1,8,0:0:0:0:
256,192,124955,1,0,0:0:0:0:
256,192,125097,1,0,0:0:0:0:
256,192,125168,1,0,0:0:0:0:
256,192,125239,1,0,0:0:0:0:
256,192,125380,1,8,0:0:0:0:
256,192,125522,1,0,0:0:0:0:
256,192,125593,1,0,0:0:0:0:
256,192,125663,1,0,0:0:0:0:
256,192,125805,1,0,0:0:0:0:
256,192,125947,1,8,0:0:0:0:
256,192,126088,1,0,0:0:0:0:
256,192,126230,1,0,0:0:0:0:
256,192,126301,1,0,0:0:0:0:
256,192,126371,1,0,0:0:0:0:
256,192,126513,1,8,0:0:0:0:
256,192,126655,1,0,0:0:0:0:
256,192,126725,1,0,0:0:0:0:
256,192,126797,1,0,0:0:0:0:
256,192,126915,1,0,0:0:0:0:
256,192,127034,1,8,0:0:0:0:
256,192,127153,1,0,0:0:0:0:
256,192,127272,1,0,0:0:0:0:
256,192,127332,1,0,0:0:0:0:
256,192,127391,1,0,0:0:0:0:
256,192,127510,1,8,0:0:0:0:
256,192,127629,1,0,0:0:0:0:
256,192,127688,1,0,0:0:0:0:
256,192,127748,1,0,0:0:0:0:
256,192,127866,1,0,0:0:0:0:
256,192,127985,1,8,0:0:0:0:
256,192,128104,1,0,0:0:0:0:
256,192,128223,1,0,0:0:0:0:
256,192,128283,1,0,0:0:0:0:
256,192,128342,1,0,0:0:0:0:
256,192,128461,1,8,0:0:0:0:
256,192,128580,1,0,0:0:0:0:
256,192,128639,1,0,0:0:0:0:
256,192,128699,1,0,0:0:0:0:
256,192,128817,1,0,0:0:0:0:
256,192,128936,1,8,0:0:0:0:
256,192,129055,1,0,0:0:0:0:
256,192,129174,1,0,0:0:0:0:
256,192,129234,1,0,0:0:0:0:
256,192,129293,1,0,0:0:0:0:
256,192,129412,1,8,0:0:0:0:
256,192,129531,1,0,0:0:0:0:
256,192,129590,1,0,0:0:0:0:
256,192,129650,1,0,0:0:0:0:
256,192,129768,1,0,0:0:0:0:
256,192,129887,1,8,0:0:0:0:
256,192,130006,1,0,0:0:0:0:
256,192,130125,1,0,0:0:0:0:
256,192,130185,1,0,0:0:0:0:
256,192,130244,1,0,0:0:0:0:
256,192,130363,1,8,0:0:0:0:
256,192,130482,1,0,0:0:0:0:
256,192,130541,1,0,0:0:0:0:
256,192,130601,1,0,0:0:0:0:
256,192,130719,1,0,0:0:0:0:
256,192,130838,1,8,0:0:0:0:
256,192,130957,1,0,0:0:0:0:
256,192,131076,1,0,0:0:0:0:
256,192,131136,1,0,0:0:0:0:
256,192,131195,1,0,0:0:0:0:
256,192,131314,1,8,0:0:0:0:
256,192,131433,1,0,0:0:0:0:
256,192,131492,1,0,0:0:0:0:
256,192,131552,1,0,0:0:0:0:
256,192,131670,1,0,0:0:0:0:
256,192,131789,1,8,0:0:0:0:
256,192,131908,1,0,0:0:0:0:
256,192,132027,1,0,0:0:0:0:
256,192,132087,1,0,0:0:0:0:
256,192,132146,1,0,0:0:0:0:
256,192,132265,1,8,0:0:0:0:
256,192,132384,1,0,0:0:0:0:
256,192,132443,1,0,0:0:0:0:
256,192,132503,1,0,0:0:0:0:
256,192,132621,1,0,0:0:0:0:
256,192,132740,1,8,0:0:0:0:
256,192,132859,1,0,0:0:0:0:
256,192,132978,1,0,0:0:0:0:
256,192,133038,1,0,0:0:0:0:
256,192,133097,1,0,0:0:0:0:
256,192,133216,1,8,0:0:0:0:
256,192,133335,1,0,0:0:0:0:
256,192,133394,1,0,0:0:0:0:
256,192,133454,1,0,0:0:0:0:
256,192,133572,1,0,0:0:0:0:
256,192,133691,1,8,0:0:0:0:
256,192,133810,1,0,0:0:0:0:
256,192,133929,1,0,0:0:0:0:
256,192,133989,1,0,0:0:0:0:
256,192,134048,1,0,0:0:0:0:
256,192,134167,1,8,0:0:0:0:
256,192,134286,1,0,0:0:0:0:
256,192,134345,1,0,0:0:0:0:
256,192,134405,1,0,0:0:0:0:
256,192,134523,1,0,0:0:0:0:
256,192,134642,1,8,0:0:0:0:
256,192,134761,1,0,0:0:0:0:
256,192,134880,1,0,0:0:0:0:
256,192,134940,1,0,0:0:0:0:
256,192,134999,1,0,0:0:0:0:
256,192,135118,1,8,0:0:0:0:
256,192,135237,1,0,0:0:0:0:
256,192,135296,1,0,0:0:0:0:
256,192,135357,1,0,0:0:0:0:
256,192,135475,1,0,0:0:0:0:
256,192,135594,1,8,0:0:0:0:
256,192,135713,1,0,0:0:0:0:
256,192,135832,1,0,0:0:0:0:
256,192,135892,1,0,0:0:0:0:
256,192,135951,1,0,0:0:0:0:
256,192,136070,1,8,0:0:0:0:
256,192,136189,1,0,0:0:0:0:
256,192,136248,1,0,0:0:0:0:
256,192,136308,1,0,0:0:0:0:
256,192,136426,1,0,0:0:0:0:
256,192,136545,1,8,0:0:0:0:
256,192,136664,1,0,0:0:0:0:
256,192,136783,1,0,0:0:0:0:
256,192,136843,1,0,0:0:0:0:
256,192,136902,1,0,0:0:0:0:
256,192,137021,1,8,0:0:0:0:
256,192,137140,1,0,0:0:0:0:
256,192,137199,1,0,0:0:0:0:
256,192,137259,1,0,0:0:0:0:
256,192,137377,1,0,0:0:0:0:
256,192,137496,1,8,0:0:0:0:
256,192,137615,1,0,0:0:0:0:
256,192,137734,1,0,0:0:0:0:
256,192,137794,1,0,0:0:0:0:
256,192,137853,1,0,0:0:0:0:
256,192,137972,1,8,0:0:0:0:
256,192,138091,1,0,0:0:0:0:
256,192,138150,1,0,0:0:0:0:
256,192,138210,1,0,0:0:0:0:
256,192,138328,1,0,0:0:0:0:
256,192,138447,1,8,0:0:0:0:
256,192,138566,1,0,0:0:0:0:
256,192,138685,1,0,0:0:0:0:
256,192,138745,1,0,0:0:0:0:
256,192,138804,1,0,0:0:0:0:
256,192,138923,1,8,0:0:0:0:
256,192,139042,1,0,0:0:0:0:
256,192,139101,1,0,0:0:0:0:
256,192,139161,1,0,0:0:0:0:
256,192,139279,1,0,0:0:0:0:
256,192,139398,1,8,0:0:0:0:
256,192,139517,1,0,0:0:0:0:
256,192,139636,1,0,0:0:0:0:
256,192,139696,1,0,0:0:0:0:
256,192,139755,1,0,0:0:0:0:
256,192,139874,1,8,0:0:0:0:
256,192,139993,1,0,0:0:0:0:
256,192,140052,1,0,0:0:0:0:
256,192,140112,1,0,0:0:0:0:
256,192,140230,1,0,0:0:0:0:
256,192,140349,1,8,0:0:0:0:
256,192,140468,1,0,0:0:0:0:
256,192,140587,1,0,0:0:0:0:
256,192,140647,1,0,0:0:0:0:
256,192,140706,1,0,0:0:0:0:
256,192,140825,1,8,0:0:0:0:
256,192,140944,1,0,0:0:0:0:
256,192,141003,1,0,0:0:0:0:
256,192,141063,1,0,0:0:0:0:
256,192,141181,1,0,0:0:0:0:
256,192,141300,1,8,0:0:0:0:
256,192,141419,1,0,0:0:0:0:
256,192,141538,1,0,0:0:0:0:
256,192,141598,1,0,0:0:0:0:
256,192,141657,1,0,0:0:0:0:
256,192,141776,1,8,0:0:0:0:
256,192,141895,1,0,0:0:0:0:
256,192,141954,1,0,0:0:0:0:
256,192,142014,1,12,0:0:0:0:
