osu file format v9

[General]
AudioFilename: chipapple.mp3
AudioLeadIn: 2007
PreviewTime: 179323
Countdown: 0
SampleSet: Normal
StackLeniency: 0.7
Mode: 1
LetterboxInBreaks: 0

[Editor]
Bookmarks: 70286,77094,119647,225128
DistanceSpacing: 0.8
BeatDivisor: 4
GridSize: 8

[Metadata]
Title:Bad Apple!! (Chiptune ver.)
Artist:Kommisar
Creator:Sushi
Version:Taiko
Source:Touhou
Tags:

[Difficulty]
HPDrainRate:6
CircleSize:5
OverallDifficulty:6
ApproachRate:6
SliderMultiplier:1.6
SliderTickRate:2

[Events]
//Background and Video events
0,0,"bli.png"
//Break Periods
//Storyboard Layer 0 (Background)
//Storyboard Layer 1 (Fail)
//Storyboard Layer 2 (Pass)
//Storyboard Layer 3 (Foreground)
//Storyboard Sound Samples
//Background Colour Transformations
3,100,0,0,0

[TimingPoints]
152,424.328147100424,4,1,0,100,1,0
27733,425.531914893617,4,1,0,100,1,0
49860,-100,4,1,0,100,0,1
63477,-100,4,1,0,100,0,0
92413,-100,4,1,0,100,0,1
106030,-100,4,1,0,100,0,0
134967,-100,4,1,0,100,0,1
148584,-100,4,1,0,100,0,0
155392,-100,4,1,0,100,0,1
169009,-100,4,1,0,100,0,0
177604,424.328147100424,4,1,0,100,1,0
220036,-100,4,1,0,100,0,1
232766,-100,4,1,0,100,0,0

[HitObjects]
256,272,152,1,0
256,272,576,1,0
256,272,1000,1,0
256,272,1424,1,0
256,272,1531,1,0
256,272,1637,1,0
256,272,1743,1,0
256,272,1849,1,0
256,272,2273,1,0
256,272,2697,1,0
256,272,3122,1,0
256,272,3334,1,0
256,272,3546,1,0
256,272,3970,1,0
256,272,4395,1,0
256,272,4819,1,0
256,272,4925,1,0
256,272,5031,1,0
256,272,5137,1,0
256,272,5243,1,0
256,272,5668,1,0
256,272,6092,1,0
256,272,6516,1,0
256,272,6729,1,8
256,272,6941,1,0
256,272,7365,1,0
256,272,7789,1,0
256,272,8214,1,0
256,272,8320,1,0
256,272,8426,1,0
256,272,8532,1,0
256,272,8638,1,0
256,272,9062,1,0
256,272,9487,1,0
256,272,9911,1,0
256,272,10123,1,0
256,272,10335,1,0
256,272,10760,1,0
256,272,11184,1,0
256,272,11608,1,0
256,272,11714,1,0
256,272,11821,1,0
256,272,11927,1,0
256,192,12033,12,0,13306
256,192,13730,5,4
256,192,13942,1,0
256,192,14048,1,8
256,192,14260,1,0
256,192,14366,1,8
256,192,14579,1,0
256,192,14791,1,8
256,192,15003,1,0
256,192,15109,1,0
256,192,15215,1,0
256,192,15321,1,0
256,192,15427,1,0
256,192,15639,1,8
256,192,15852,1,0
256,192,16064,1,8
256,192,16276,1,0
256,192,16488,1,0
256,192,16594,1,0
256,192,16700,1,8
256,192,16912,1,0
256,192,17019,1,8
256,192,17125,1,0
256,192,17337,1,0
256,192,17443,1,8
256,192,17655,1,0
256,192,17761,1,8
256,192,17867,1,8
256,192,17973,1,0
256,192,18185,1,8
256,192,18398,1,0
256,192,18504,1,0
256,192,18610,1,0
256,192,18716,1,0
256,192,18822,1,0
256,192,19034,1,8
256,192,19246,1,0
256,192,19458,1,8
256,192,19671,1,0
256,192,19883,1,0
256,192,19989,1,0
256,192,20095,1,8
256,192,20307,1,0
256,192,20413,1,8
256,192,20519,1,0
256,192,20731,1,0
256,192,20837,1,8
256,192,21050,1,0
256,192,21156,1,8
256,192,21368,1,0
256,192,21580,1,8
256,192,21792,1,0
256,192,21898,1,0
256,192,22004,1,0
256,192,22110,1,0
256,192,22217,1,0
256,192,22429,1,8
256,192,22641,1,0
256,192,22853,1,8
256,192,23065,1,0
256,192,23277,1,0
256,192,23383,1,0
256,192,23490,1,8
256,192,23702,1,0
256,192,23914,1,4
256,192,24126,1,8
256,192,24338,1,0
256,192,24550,1,8
256,192,24763,1,4
256,192,24975,1,8
256,192,25187,1,0
256,192,25399,1,8
256,192,25611,1,4
256,192,25823,1,8
256,192,26036,1,4
256,192,26248,1,8
256,192,26460,1,0
256,192,26566,1,0
256,192,26672,1,0
256,192,26778,1,0
256,192,26884,1,0
256,192,26990,1,0
256,192,27096,1,0
256,192,27202,1,0
256,192,27309,1,0
256,192,27733,1,0
256,192,27839,1,0
256,192,27945,1,0
256,192,28158,1,8
256,192,28371,1,0
256,192,28477,1,0
256,192,28584,1,0
256,192,28796,1,0
256,192,29009,1,8
256,192,29435,1,0
256,192,29647,1,0
256,192,29860,1,8
256,192,30073,1,0
256,192,30179,1,0
256,192,30286,1,0
256,192,30392,1,8
256,192,30498,1,0
256,192,30711,1,8
256,192,31137,1,0
256,192,31243,1,0
256,192,31350,1,0
256,192,31562,1,8
256,192,31775,1,0
256,192,31881,1,0
256,192,31988,1,0
256,192,32201,1,0
256,192,32413,1,8
256,192,32839,1,0
256,192,32945,1,0
256,192,33052,1,0
256,192,33158,1,0
256,192,33264,1,8
256,192,33477,1,0
256,192,33584,1,0
256,192,33690,1,0
256,192,33903,1,8
256,192,34115,1,8
256,192,34328,1,8
256,192,34541,1,0
256,192,34754,1,0
256,192,34860,1,8
256,192,35073,1,0
256,192,35179,1,8
256,192,35392,1,0
256,192,35498,1,0
256,192,35605,1,0
256,192,35711,1,0
256,192,35818,1,8
256,192,36030,1,8
256,192,36243,1,0
256,192,36456,1,0
256,192,36669,1,8
256,192,36881,1,0
256,192,36988,1,8
256,192,37094,1,0
256,192,37307,1,0
256,192,37520,1,8
256,192,37945,1,4
256,192,38371,1,8
256,192,38584,1,0
256,192,38690,1,8
256,192,38796,1,0
256,192,39009,1,0
256,192,39222,1,8
256,192,39647,1,0
256,192,39860,1,0
256,192,40073,1,8
256,192,40286,2,0,B|344:56|440:240,1,240
256,192,41350,1,0
256,192,41562,1,0
256,192,41775,1,8
256,192,41988,1,0
256,192,42201,1,4
256,192,42626,1,4
256,192,43052,1,0
256,192,43264,1,0
256,192,43477,1,8
256,192,43690,1,0
256,192,43903,1,4
256,192,44328,1,4
256,192,44754,1,0
256,192,44967,1,0
256,192,45073,1,0
256,192,45179,1,8
256,192,45392,1,0
256,192,45605,1,4
256,192,46030,1,4
256,192,46456,1,0
256,192,46669,1,4
256,192,47094,1,4
256,192,47520,1,4
256,192,47945,12,0,49222
256,192,49435,5,8
256,192,49860,1,0
256,192,50073,1,0
256,192,50286,1,8
256,192,50498,1,0
256,192,50605,1,8
256,192,50711,1,0
256,192,50924,1,0
256,192,51137,1,8
256,192,51350,1,0
256,192,51562,1,0
256,192,51775,1,0
256,192,51988,1,8
256,192,52201,1,0
256,192,52307,1,8
256,192,52413,1,0
256,192,52520,1,8
256,192,52626,1,0
256,192,52839,1,8
256,192,53052,1,8
256,192,53158,1,8
256,192,53264,1,0
256,192,53477,1,0
256,192,53584,1,0
256,192,53690,1,0
256,192,53903,1,8
256,192,54115,1,0
256,192,54222,1,0
256,192,54328,1,0
256,192,54435,1,0
256,192,54541,1,8
256,192,54754,1,0
256,192,54860,1,8
256,192,54967,1,0
256,192,55179,1,0
256,192,55392,1,4
256,192,55818,1,0
256,192,56030,1,0
256,192,56243,1,4
256,192,56669,1,0
256,192,56881,1,0
256,192,57094,1,8
256,192,57307,1,0
256,192,57413,1,8
256,192,57520,1,0
256,192,57733,1,0
256,192,57945,1,8
256,192,58158,1,0
256,192,58371,1,0
256,192,58584,1,0
256,192,58796,1,8
256,192,59009,1,0
256,192,59115,1,8
256,192,59222,1,0
256,192,59328,1,8
256,192,59435,1,0
256,192,59647,1,8
256,192,59860,1,8
256,192,59967,1,8
256,192,60073,1,0
256,192,60286,1,0
256,192,60392,1,0
256,192,60498,1,0
256,192,60711,1,8
256,192,60924,1,0
256,192,61030,1,0
256,192,61137,1,0
256,192,61243,1,0
256,192,61350,1,8
256,192,61562,1,0
256,192,61669,1,8
256,192,61775,1,0
256,192,61988,1,0
256,192,62201,1,4
256,192,62626,1,0
256,192,62839,1,0
256,192,63052,1,4
256,328,63477,1,0
256,328,63690,1,0
256,328,63903,1,0
256,328,64115,1,8
256,328,64328,1,0
256,328,64541,1,0
256,328,64754,1,4
256,328,65179,1,0
256,328,65392,1,0
256,328,65605,1,0
256,328,65818,1,8
256,328,66030,1,0
256,328,66243,1,0
256,328,66456,1,4
256,328,66881,1,4
256,328,67307,1,4
256,328,67733,1,4
256,328,68158,1,4
256,328,68584,1,0
256,328,68796,1,0
256,328,68903,1,0
256,328,69009,1,8
256,328,69222,1,0
256,328,69435,1,0
256,328,69647,1,8
256,328,69860,1,0
256,328,70073,1,0
256,328,70286,1,4
256,328,70498,1,0
256,328,70605,1,0
256,328,70711,1,8
256,328,70924,1,0
256,328,71137,1,0
256,328,71350,1,0
256,328,71562,1,8
256,328,71775,1,8
256,328,71988,1,0
256,328,72094,1,0
256,328,72201,1,0
256,328,72307,1,0
256,328,72413,1,8
256,328,72626,1,0
256,328,72733,1,8
256,328,72839,1,0
256,328,73052,1,0
256,328,73264,1,8
256,328,73690,1,0
256,328,73903,1,0
256,328,74115,1,8
256,328,74328,1,0
256,328,74541,1,0
256,328,74754,1,0
256,328,74860,1,0
256,328,74967,1,8
256,328,75392,1,0
256,328,75605,1,0
256,328,75818,1,8
256,328,76030,1,0
256,328,76243,1,0
256,328,76350,1,8
256,328,76456,1,0
256,328,76669,1,8
256,328,77094,1,0
256,328,77201,1,0
256,328,77307,1,0
256,328,77520,1,8
256,328,77732,1,0
256,328,77839,1,0
256,328,77945,1,0
256,328,78158,1,0
256,328,78371,1,8
256,328,78796,1,0
256,328,78903,1,0
256,328,79009,1,0
256,328,79222,1,8
256,328,79435,1,0
256,328,79541,1,0
256,328,79647,1,0
256,328,79754,1,8
256,328,79860,1,0
256,200,80073,2,0,B|256:32,1,160
256,200,80711,1,0
256,200,80818,1,0
256,200,80924,1,8
256,200,81137,1,0
256,200,81350,1,0
256,200,81562,1,0
256,200,81669,1,0
256,200,81775,1,8
256,200,82201,1,8
256,200,82413,1,8
256,200,82626,1,0
256,200,82839,1,8
256,200,83052,1,8
256,200,83264,1,8
256,200,83477,1,0
256,192,83903,1,0
256,192,84115,1,0
256,192,84328,1,8
256,192,84541,1,0
256,192,84754,1,4
256,192,85179,1,4
256,192,85605,1,0
256,192,85818,1,0
256,192,86030,1,8
256,192,86243,1,0
256,192,86456,1,4
256,192,86881,1,4
256,192,87307,1,0
256,192,87520,1,0
256,192,87626,1,0
256,192,87732,1,8
256,192,87945,1,0
256,192,88158,1,4
256,192,88584,1,4
256,192,89009,1,0
256,192,89222,1,4
256,192,89647,1,4
256,192,90073,1,4
256,192,90498,12,0,91775
256,192,91988,5,8
256,192,92413,5,0
256,192,92520,1,0
256,192,92626,1,0
256,192,92839,1,8
256,192,93052,1,0
256,192,93158,1,8
256,192,93264,1,0
256,192,93477,1,0
256,192,93690,1,8
256,192,93903,1,0
256,192,94115,1,0
256,192,94222,1,0
256,192,94328,1,0
256,192,94541,1,8
256,192,94754,1,0
256,192,94860,1,8
256,192,94967,1,0
256,192,95073,1,8
256,192,95179,1,0
256,192,95392,1,8
256,192,95605,1,8
256,192,95711,1,8
256,192,95818,1,0
256,192,96030,1,0
256,192,96243,1,8
256,192,96456,1,0
256,192,96562,1,8
256,192,96669,1,0
256,192,96775,1,0
256,192,96881,1,0
256,192,97094,1,8
256,192,97307,1,0
256,192,97413,1,8
256,192,97520,1,0
256,192,97732,1,0
256,192,97945,1,4
256,192,98371,1,0
256,192,98584,1,0
256,192,98796,1,4
256,192,99222,1,0
256,192,99328,1,0
256,192,99435,1,0
256,192,99647,1,8
256,192,99860,1,0
256,192,99967,1,8
256,192,100073,1,0
256,192,100286,1,0
256,192,100498,1,8
256,192,100711,1,0
256,192,100924,1,0
256,192,101030,1,0
256,192,101137,1,0
256,192,101350,1,8
256,192,101562,1,0
256,192,101669,1,8
256,192,101775,1,0
256,192,101881,1,8
256,192,101988,1,0
256,192,102201,1,8
256,192,102413,1,8
256,192,102520,1,8
256,192,102626,1,0
256,192,102839,1,0
256,192,103052,1,8
256,192,103264,1,0
256,192,103371,1,8
256,192,103477,1,0
256,192,103584,1,0
256,192,103690,1,0
256,192,103903,1,8
256,192,104115,1,0
256,192,104222,1,8
256,192,104328,1,0
256,192,104541,1,0
256,192,104754,1,4
256,192,105179,1,0
256,192,105392,1,0
256,192,105605,1,4
256,328,106030,1,0
256,328,106243,1,0
256,328,106456,1,0
256,328,106669,1,8
256,328,106881,1,0
256,328,107094,1,0
256,328,107307,1,4
256,328,107732,1,0
256,328,107945,1,0
256,328,108158,1,0
256,328,108371,1,8
256,328,108584,1,0
256,328,108796,1,0
256,328,109009,1,4
256,328,109435,1,4
256,328,109860,1,4
256,328,110286,1,4
256,328,110711,1,4
256,328,111137,1,0
256,328,111350,1,0
256,328,111456,1,0
256,328,111562,1,8
256,328,111775,1,0
256,328,111988,1,0
256,328,112094,1,8
256,328,112201,1,0
256,328,112413,1,8
256,328,112626,1,8
256,328,112732,1,8
256,328,112839,1,0
256,184,114541,1,0
256,184,114754,1,0
256,184,116243,1,0
248,176,117945,5,0
248,176,118158,1,0
256,192,119647,5,0
256,192,119860,1,0
256,192,120286,1,0
256,192,120711,1,0
256,192,120818,1,0
256,192,120924,1,0
256,192,121350,5,0
256,192,121562,1,0
256,192,121988,1,0
256,192,122413,1,0
256,192,122520,1,0
256,192,122626,1,0
256,192,123052,5,0
256,192,123264,1,0
256,192,123690,1,0
256,192,124115,1,0
256,192,124222,1,0
256,192,124328,1,0
256,192,124754,5,0
256,192,124967,1,0
256,192,125392,1,0
256,192,125818,1,0
256,192,125924,1,0
256,192,126030,1,0
256,192,126669,1,8
256,192,126881,1,8
256,192,127094,1,8
256,192,127520,1,0
256,192,127732,1,0
256,192,127945,1,0
256,192,128371,1,8
256,192,128584,1,8
256,192,128796,1,8
256,192,129222,1,0
256,192,129435,1,0
256,192,129647,1,0
256,192,129860,1,0
256,192,130073,1,0
256,192,130498,1,0
256,192,130924,1,0
256,192,131562,1,0
256,192,131775,1,0
256,192,131988,1,0
256,192,132201,1,0
256,192,132413,1,0
256,192,132520,1,0
256,192,132626,1,0
256,192,132732,1,0
256,192,132839,1,0
256,192,132945,1,0
256,192,133052,1,0
256,192,133158,1,0
256,192,133264,12,0,134328
256,192,134541,5,8
256,192,134967,1,0
256,192,135179,1,0
256,192,135392,1,8
256,192,135605,1,0
256,192,135711,1,8
256,192,135818,1,0
256,192,136030,1,0
256,192,136243,1,8
256,192,136456,1,0
256,192,136669,1,0
256,192,136881,1,0
256,192,137094,1,8
256,192,137307,1,0
256,192,137413,1,8
256,192,137520,1,0
256,192,137626,1,8
256,192,137732,1,0
256,192,137945,1,8
256,192,138158,1,8
256,192,138264,1,8
256,192,138371,1,0
256,192,138584,1,0
256,192,138690,1,0
256,192,138796,1,0
256,192,139009,1,8
256,192,139222,1,0
256,192,139328,1,0
256,192,139435,1,0
256,192,139541,1,0
256,192,139647,1,8
256,192,139860,1,0
256,192,139967,1,8
256,192,140073,1,0
256,192,140286,1,0
256,192,140498,1,4
256,192,140924,1,0
256,192,141137,1,0
256,192,141350,1,4
256,192,141775,1,0
256,192,141988,1,0
256,192,142201,1,8
256,192,142413,1,0
256,192,142520,1,8
256,192,142626,1,0
256,192,142839,1,0
256,192,143052,1,8
256,192,143264,1,0
256,192,143477,1,0
256,192,143690,1,0
256,192,143903,1,8
256,192,144115,1,0
256,192,144222,1,8
256,192,144328,1,0
256,192,144435,1,8
256,192,144541,1,0
256,192,144754,1,8
256,192,144967,1,8
256,192,145073,1,8
256,192,145179,1,0
256,192,145392,1,0
256,192,145498,1,0
256,192,145605,1,0
256,192,145818,1,8
256,192,146030,1,0
256,192,146137,1,0
256,192,146243,1,0
256,192,146350,1,0
256,192,146456,1,8
256,192,146669,1,0
256,192,146775,1,8
256,192,146881,1,0
256,192,147094,1,0
256,192,147307,1,4
256,192,147732,1,0
256,192,147945,1,0
256,192,148158,1,4
256,328,148584,1,0
256,328,148796,1,0
256,328,149009,1,0
256,328,149222,1,8
256,328,149435,1,0
256,328,149647,1,0
256,328,149860,1,4
256,328,150286,1,0
256,328,150498,1,0
256,328,150711,1,0
256,328,150924,1,8
256,328,151137,1,0
256,328,151350,1,0
256,328,151562,1,4
256,328,151988,1,4
256,328,152413,1,4
256,328,152839,1,4
256,328,153264,1,4
256,328,153690,1,0
256,328,153903,1,0
256,328,154009,1,0
256,328,154115,1,8
256,328,154328,1,0
256,328,154541,1,0
256,328,154754,1,8
256,328,154967,1,0
256,328,155179,1,0
256,192,155392,5,0
256,192,155498,1,0
256,192,155605,1,0
256,192,155818,1,8
256,192,156030,1,0
256,192,156137,1,8
256,192,156243,1,0
256,192,156456,1,0
256,192,156669,1,8
256,192,156881,1,0
256,192,157094,1,0
256,192,157201,1,0
256,192,157307,1,0
256,192,157520,1,8
256,192,157732,1,0
256,192,157839,1,8
256,192,157945,1,0
256,192,158052,1,8
256,192,158158,1,0
256,192,158371,1,8
256,192,158584,1,8
256,192,158690,1,8
256,192,158796,1,0
256,192,159009,1,0
256,192,159222,1,8
256,192,159435,1,0
256,192,159541,1,8
256,192,159647,1,0
256,192,159754,1,0
256,192,159860,1,0
256,192,160073,1,8
256,192,160286,1,0
256,192,160392,1,8
256,192,160498,1,0
256,192,160711,1,0
256,192,160924,1,4
256,192,161350,1,0
256,192,161562,1,0
256,192,161775,1,4
256,192,162201,1,0
256,192,162307,1,0
256,192,162413,1,0
256,192,162626,1,8
256,192,162839,1,0
256,192,162945,1,8
256,192,163052,1,0
256,192,163264,1,0
256,192,163477,1,8
256,192,163690,1,0
256,192,163903,1,0
256,192,164009,1,0
256,192,164115,1,0
256,192,164328,1,8
256,192,164541,1,0
256,192,164647,1,8
256,192,164754,1,0
256,192,164860,1,8
256,192,164967,1,0
256,192,165179,1,8
256,192,165392,1,8
256,192,165498,1,8
256,192,165605,1,0
256,192,165818,1,0
256,192,166030,1,8
256,192,166243,1,0
256,192,166350,1,8
256,192,166456,1,0
256,192,166562,1,0
256,192,166669,1,0
256,192,166881,1,8
256,192,167094,1,0
256,192,167201,1,8
256,192,167307,1,0
256,192,167520,1,0
256,192,167733,1,4
256,192,168158,1,0
256,192,168371,1,0
256,192,168584,1,4
256,328,169009,1,0
256,328,169222,1,0
256,328,169435,1,0
256,328,169647,1,8
256,328,169860,1,0
256,328,170073,1,0
256,328,170286,1,4
256,328,170711,1,0
256,328,170924,1,0
256,328,171137,1,0
256,328,171350,1,8
256,328,171562,1,0
256,328,171775,1,0
256,328,171988,1,4
256,328,172413,1,4
256,328,172839,1,4
256,328,173264,1,4
256,328,173690,1,4
256,328,174115,1,0
256,328,174328,1,0
256,328,174435,1,0
256,328,174541,1,8
256,328,174754,1,0
256,328,174967,1,0
256,328,175073,1,8
256,328,175179,1,0
256,328,175392,1,8
256,328,175605,1,8
256,328,175711,1,8
256,328,175818,1,0
232,248,179301,1,0
232,248,179513,1,0
232,248,179725,1,8
232,248,179937,1,0
232,248,180149,1,0
232,248,180362,1,0
232,248,180468,1,0
232,248,180574,1,8
232,248,180786,1,0
232,248,180998,1,0
232,248,181422,1,0
232,248,181847,1,0
232,248,181953,1,0
232,248,182059,1,0
232,248,182165,1,0
232,248,182271,1,8
232,248,182483,1,8
232,248,182695,1,0
232,248,182908,1,0
232,248,183120,1,8
232,248,183332,1,0
232,248,183544,1,0
232,248,183756,1,0
232,248,183862,1,0
232,248,183968,1,8
232,248,184181,1,0
232,248,184393,1,8
232,248,184605,1,0
232,248,184817,1,8
232,248,185029,1,0
232,248,185241,1,8
232,248,185347,1,0
232,248,185454,1,8
232,248,185560,1,0
232,248,185666,1,8
232,248,185878,1,8
232,248,186090,1,0
232,248,186302,1,0
232,248,186514,1,8
232,248,186727,1,0
232,248,186939,1,0
232,248,187151,1,0
232,248,187257,1,0
232,248,187363,1,8
232,248,187575,1,0
232,248,187787,1,0
232,248,188212,1,0
232,248,188636,1,0
232,248,188742,1,0
232,248,188848,1,0
232,248,188954,1,0
232,248,189060,1,8
232,248,189273,1,8
232,248,189485,1,0
232,248,189697,1,0
232,248,189909,1,8
232,248,190121,1,0
232,248,190333,1,0
232,248,190546,1,0
232,248,190652,1,0
232,248,190758,1,8
232,248,190970,1,0
232,248,191182,1,4
232,248,191606,1,4
232,248,192031,1,12
232,248,192455,1,12
232,248,192879,1,0
232,248,193091,1,0
232,248,193198,1,0
232,248,193304,1,8
232,248,193516,1,8
232,248,193728,1,0
232,248,193940,1,0
232,248,194046,1,0
232,248,194152,1,8
232,248,194364,1,0
232,248,194577,1,0
232,248,195001,1,0
232,248,195425,1,0
232,248,195531,1,0
232,248,195637,1,8
232,248,195744,1,0
232,248,195850,1,8
232,248,196062,1,8
232,248,196274,1,0
232,248,196486,1,0
232,248,196592,1,0
232,248,196698,1,8
232,248,196910,1,0
232,248,197123,1,0
232,248,197335,1,0
232,248,197441,1,0
232,248,197547,1,8
232,248,197759,1,0
232,248,197971,1,8
232,248,198183,1,0
232,248,198289,1,0
232,248,198396,1,8
232,248,198608,1,0
232,248,198820,1,8
232,248,198926,1,0
232,248,199032,1,8
232,248,199138,1,0
232,248,199244,1,8
232,248,199456,1,8
232,248,199669,1,0
232,248,199881,1,0
232,248,199987,1,0
232,248,200093,1,8
232,248,200305,1,0
232,248,200517,1,0
232,248,200729,1,0
232,248,200835,1,0
232,248,200942,1,8
232,248,201154,1,0
232,248,201366,1,0
232,248,201790,1,0
232,248,202215,1,0
232,248,202321,1,0
232,248,202427,1,0
232,248,202533,1,0
232,248,202639,1,8
232,248,202851,1,8
232,248,203063,1,0
232,248,203275,1,0
232,248,203381,1,0
232,248,203488,1,8
232,248,203700,1,0
232,248,203912,1,0
232,248,204124,1,0
232,248,204230,1,0
232,248,204336,1,8
232,248,204548,1,0
232,248,204761,1,4
232,248,205185,1,4
232,248,205609,1,12
232,248,206033,1,12
232,248,206458,1,0
232,248,206670,1,8
232,248,206882,1,0
232,248,207094,1,0
232,248,207306,1,8
232,248,207519,1,0
232,248,207625,1,0
232,248,207731,1,0
232,248,207943,1,0
232,248,208155,1,0
232,248,208367,1,8
232,248,208579,1,0
232,248,208792,1,0
232,248,209004,1,8
232,248,209216,1,0
232,248,209322,1,8
232,248,209428,1,0
232,248,209640,1,8
232,248,209852,1,0
232,248,210065,1,0
232,248,210277,1,0
232,248,210489,1,8
232,248,210701,1,0
232,248,210913,1,0
232,248,211019,1,0
232,248,211125,1,0
232,248,211338,1,0
232,248,211550,1,8
232,248,211762,1,8
232,248,211974,1,0
232,248,212186,1,8
232,248,212398,1,0
232,248,212504,1,0
232,248,212611,1,8
232,248,212717,1,0
232,248,212823,1,8
232,248,213035,1,8
232,248,213247,1,0
232,248,213459,1,8
232,248,213671,1,0
232,248,213884,1,0
232,248,214096,1,8
232,248,214308,1,0
232,248,214414,1,0
232,248,214520,1,0
232,248,214732,1,0
232,248,214944,1,0
232,248,215157,1,8
232,248,215369,1,0
232,248,215581,1,0
232,248,215793,1,8
232,248,216005,1,0
232,248,216111,1,8
232,248,216217,1,0
232,248,216430,1,8
232,248,216642,1,0
232,248,216854,1,0
232,248,217066,1,0
232,248,217278,1,8
232,248,217490,1,0
232,248,217703,1,0
232,248,217809,1,0
232,248,217915,1,0
232,248,218127,1,0
232,248,218339,1,8
232,248,218551,1,8
232,248,218763,1,0
232,248,218975,1,8
232,248,219188,1,0
232,248,219294,1,0
232,248,219400,1,8
232,248,219506,1,0
232,248,219612,1,8
232,248,219824,1,8
232,248,220036,1,4
232,248,220461,1,4
232,248,220885,1,4
232,248,221309,1,4
232,248,221521,1,4
232,248,221734,1,4
232,248,222158,1,4
232,248,222582,1,4
232,248,223007,1,4
232,248,223219,1,12
232,248,223431,1,4
232,248,223855,1,4
232,248,224280,1,4
232,248,224704,1,4
232,248,224916,1,4
232,248,225128,1,4
232,248,225553,1,4
232,248,225977,1,4
232,248,226189,1,12
232,248,226401,1,12
232,248,226613,1,4
256,192,226826,1,0
256,192,227038,1,0
256,192,227144,1,0
256,192,227250,1,8
256,192,227462,1,0
256,192,227674,1,0
256,192,227780,1,0
256,192,227886,1,0
256,192,227992,1,0
256,192,228099,1,0
256,192,228311,1,8
256,192,228523,1,0
256,192,228735,1,0
256,192,228841,1,0
256,192,228947,1,8
256,192,229159,1,0
256,192,229372,1,0
256,192,229478,1,0
256,192,229584,1,8
256,192,229690,1,0
256,192,229796,1,8
256,192,230008,1,8
256,192,230220,1,0
256,192,230326,1,0
256,192,230432,1,0
256,192,230538,1,0
256,192,230645,1,0
256,192,230857,1,8
256,192,231069,1,0
256,192,231175,1,0
256,192,231281,1,0
256,192,231387,1,0
256,192,231493,1,0
256,192,231705,1,8
256,192,231918,1,0
256,192,232130,1,8
256,192,232342,1,0
256,192,232554,1,0
256,192,232766,1,4
