osu file format v9

[General]
AudioFilename: chipapple.mp3
AudioLeadIn: 0
PreviewTime: 179323
Countdown: 0
SampleSet: Soft
StackLeniency: 0.7
Mode: 0
LetterboxInBreaks: 0

[Editor]
Bookmarks: 70286,77094,119647
DistanceSpacing: 1
BeatDivisor: 4
GridSize: 8

[Metadata]
Title:Bad Apple!! (Chiptune ver.)
Artist:Kommisar
Creator:Sushi
Version:Hard
Source:Touhou
Tags:

[Difficulty]
HPDrainRate:4
CircleSize:4
OverallDifficulty:5
ApproachRate:7
SliderMultiplier:1.6
SliderTickRate:2

[Events]
//Background and Video events
0,0,"bli.png"
//Break Periods
2,70485,76407
2,113038,118747
2,176018,178401
//Storyboard Layer 0 (Background)
//Storyboard Layer 1 (Fail)
//Storyboard Layer 2 (Pass)
//Storyboard Layer 3 (Foreground)
//Storyboard Sound Samples
//Background Colour Transformations
3,100,0,0,0

[TimingPoints]
152,424.328147100424,4,1,0,100,1,0
12033,-100,4,2,0,10,0,0
12245,-100,4,2,0,20,0,0
12457,-100,4,2,0,30,0,0
12669,-100,4,2,0,45,0,0
12881,-100,4,2,0,55,0,0
13094,-100,4,2,0,65,0,0
13306,-100,4,1,0,100,0,0
13730,-100,4,1,0,75,0,0
26460,-100,4,2,0,30,0,0
26672,-100,4,2,0,45,0,0
26884,-100,4,2,0,60,0,0
27096,-100,4,2,0,75,0,0
27309,-100,4,1,0,50,0,0
27733,425.531914893617,4,1,0,100,1,0
47307,-100,4,1,0,75,0,0
49435,-100,4,2,0,100,0,0
49860,-100,4,1,0,100,0,1
50498,-55.2486187845304,4,1,0,100,0,1
51350,-100,4,1,0,100,0,1
57307,-55.2486187845304,4,1,0,100,0,1
58158,-100,4,1,0,100,0,1
63477,-100,4,1,0,100,0,0
64754,-100,4,1,0,100,0,1
64967,-100,4,1,0,100,0,0
66456,-100,4,1,0,100,0,1
66669,-100,4,1,0,100,0,0
89860,-100,4,1,0,75,0,0
90392,-100,4,1,0,100,0,0
91988,-100,4,2,0,100,0,0
92413,-100,4,1,0,100,0,1
93052,-59.8802395209581,4,1,0,100,0,1
93903,-100,4,1,0,100,0,1
99860,-59.8802395209581,4,1,0,100,0,1
100711,-100,4,1,0,100,0,1
106030,-100,4,1,0,100,0,0
107307,-100,4,1,0,100,0,1
107520,-100,4,1,0,100,0,0
109009,-100,4,1,0,100,0,1
109222,-100,4,1,0,100,0,0
112839,-100,4,2,0,100,0,0
131456,-100,4,1,0,25,0,0
131669,-100,4,1,0,35,0,0
131881,-100,4,1,0,45,0,0
132094,-100,4,1,0,55,0,0
132307,-100,4,1,0,65,0,0
132520,-100,4,1,0,75,0,0
132733,-100,4,1,0,85,0,0
132945,-100,4,1,0,100,0,0
134541,-100,4,2,0,100,0,0
134967,-100,4,1,0,100,0,1
135605,-55.2486187845304,4,1,0,100,0,1
136456,-100,4,1,0,100,0,1
142413,-55.2486187845304,4,1,0,100,0,1
143264,-100,4,1,0,100,0,1
148584,-100,4,1,0,100,0,0
149860,-100,4,1,0,100,0,1
150073,-100,4,1,0,100,0,0
151562,-100,4,1,0,100,0,1
151775,-100,4,1,0,100,0,0
155392,-100,4,1,0,100,0,1
156030,-59.8802395209581,4,1,0,100,0,1
156881,-100,4,1,0,100,0,1
162839,-59.8802395209581,4,1,0,100,0,1
163690,-100,4,1,0,100,0,1
169009,-100,4,1,0,100,0,0
170286,-100,4,1,0,100,0,1
170498,-100,4,1,0,100,0,0
171988,-100,4,1,0,100,0,1
172201,-100,4,1,0,100,0,0
177604,424.328147100424,4,1,0,100,1,0
177704,-100,4,1,0,100,0,0
220036,-100,4,1,0,100,0,1
232766,-100,4,2,0,100,0,0

[HitObjects]
256,192,12033,2,0,B|256:160,24,20,0|0|0|0|0|0|0|0|0|0|0|0|0|0|0|0|0|0|0|0|0|0|0|0|0
296,344,13730,6,0,B|376:344|424:320,2,120,4|0|8
216,344,14579,2,0,B|136:344|88:320,2,120,0|0|8
256,272,15427,2,0,B|256:112,2,160,4|4|4
256,272,16700,1,8
296,120,17125,6,0,B|376:120|424:144,2,120,4|0|8
216,120,17974,2,0,B|136:120|88:144,2,120,0|0|8
216,199,18822,2,4,B|200:248|256:280|312:248|296:200,2,160
256,48,20095,1,8
216,200,20519,6,0,B|184:256|216:320,2,120,4|0|8
296,200,21368,2,0,B|328:256|296:320,2,120,0|0|8
296,120,22217,2,4,B|320:80|256:32|192:80|216:120,2,160
256,272,23490,1,8
112,112,23914,6,0,B|70:189|112:264,1,160,4|4
400,112,24763,2,0,B|442:189|400:264,1,160,4|0
256,40,25611,2,4,B|256:200,1,160
256,360,26460,6,0,B|256:336,16,20,0|0|0|0|0|0|0|0|0|0|0|0|0|0|0|0|8
96,336,27733,1,0
16,336,27945,1,0
56,272,28158,1,8
136,272,28371,1,0
176,336,28584,2,0,B|224:336|288:328|336:296,1,160
456,112,29435,5,0
376,112,29647,1,0
416,48,29860,1,8
336,48,30073,1,0
296,112,30286,2,0,B|248:184,2,80
344,312,31137,6,0,B|384:328,2,40
272,280,31562,1,8
200,312,31775,1,0
128,280,31988,1,0
104,208,32201,1,0
128,136,32413,1,0
320,48,32839,5,0
392,48,33052,2,0,B|440:48,2,40,0|0|8
360,112,33477,1,0
392,176,33690,2,0,B|392:256,1,80
320,256,34115,2,8,B|320:168,1,80
256,136,34541,6,0,B|208:104|128:104,2,120,0|8|8
256,216,35392,1,0
256,296,35605,1,0
176,296,35818,2,0,B|136:296|96:312,2,80,8|0|0
176,216,36456,6,0,B|176:176,2,40,0|0|8
96,216,36881,1,0
96,136,37094,1,0
96,56,37307,1,0
176,56,37520,1,0
176,56,37945,1,4
456,312,38584,5,0
456,312,38690,1,0
456,312,38796,1,0
456,232,39009,1,0
456,152,39222,1,0
256,312,39647,5,0
216,248,39860,1,0
296,248,40073,1,8
328,176,40286,2,2,B|344:112|256:62|168:112|184:176,1,240,2|4
216,376,41350,6,0,B|296:376,1,80
296,296,41775,2,0,B|216:296,1,80,8|0
256,192,42201,1,4
256,192,42626,1,4
296,8,43052,6,0,B|216:8,1,80
216,88,43477,2,0,B|296:88,1,80,8|0
256,192,43903,1,4
256,192,44328,1,4
256,192,44754,5,0
176,200,44967,1,0
216,264,45179,1,8
296,264,45392,1,0
336,200,45605,1,4
256,64,46030,1,4
184,312,46456,5,0
184,312,46669,2,0,B|256:376|328:312,2,160
256,192,47945,12,2,49435
216,48,49860,6,0,B|208:104|256:128|304:104|296:48,1,160,0|8
152,88,50711,6,2,B|166:157|256:221|344:160|360:88,1,289.600003452301,2|8
472,192,51562,5,0
472,272,51775,1,0
416,328,51988,1,8
336,328,52201,1,0
296,264,52413,2,2,B|304:208|256:187|208:208|216:264,1,160,2|8
256,120,53264,1,4
176,120,53477,5,0
96,120,53690,1,8
40,176,53903,1,0
96,232,54115,2,0,B|256:232,1,160,0|8
368,120,54967,6,0,B|440:264,1,160,0|4
144,120,55818,6,0,B|72:264,1,160,0|4
296,336,56669,6,0,B|304:280|256:256|208:280|216:336,1,160,0|8
360,296,57520,6,2,B|346:227|256:163|168:224|152:296,1,289.600003452301,2|8
256,136,58371,5,0
256,136,58584,1,0
256,136,58796,1,8
256,136,59009,1,0
187,95,59222,2,2,B|208:64|256:40|304:64|323:94,1,160,2|8
256,232,60073,1,4
176,232,60286,6,0,B|152:192,2,40,0|0|8
144,304,60711,1,0
208,352,60924,2,0,B|256:352|280:304,2,80,0|0|8
368,264,61775,6,0,B|440:120,1,160,0|8
144,264,62626,6,2,B|72:120,1,160,2|4
72,336,63477,5,0
72,336,63690,1,0
72,336,63903,1,8
176,336,64115,1,0
176,336,64328,1,0
176,336,64541,1,0
256,224,64754,5,4
440,336,65179,5,0
440,336,65392,1,0
440,336,65605,1,8
336,336,65817,1,0
336,336,66030,1,0
336,336,66243,1,0
256,224,66456,5,4
192,88,66881,6,0,B|224:32|288:32|320:88,3,160,0|8|0|0
216,200,68584,5,0
296,200,68796,1,0
304,280,69009,2,0,B|304:352|208:352|208:280,1,160,8|0
152,224,69647,1,8
184,152,69860,2,2,B|224:112|288:112|328:152,1,160,8|4
256,40,77307,5,0
256,40,77520,2,0,B|256:128,1,80,8|0
232,192,77945,1,0
160,224,78158,1,0
80,216,78371,1,0
24,160,78584,1,0
0,232,78796,5,0
8,312,79009,1,0
72,352,79222,1,8
144,320,79435,1,0
208,360,79647,1,0
208,208,80073,6,2,B|160:192|136:112|168:64,1,160,2|4
256,40,80711,5,0
256,40,80924,2,0,B|256:128,1,80,8|0
280,192,81349,1,0
352,224,81562,1,0
432,216,81775,1,0
256,368,82200,5,0
136,192,82626,1,8
376,192,83051,1,0
256,16,83477,1,0
216,376,83903,6,0,B|296:376,1,80
296,296,84328,2,0,B|216:296,1,80,8|0
256,192,84754,1,4
256,192,85179,1,4
296,8,85605,6,0,B|216:8,1,80
216,88,86030,2,0,B|296:88,1,80,8|0
256,192,86456,1,4
256,192,86881,1,4
256,192,87307,5,0
200,136,87520,1,0
200,136,87626,1,0
200,136,87733,1,8
144,192,87945,1,0
200,248,88158,2,0,B|200:272|200:272|200:344|272:344|272:344|296:344,1,160,4|4
328,72,89009,5,0
328,72,89222,2,0,B|256:8|184:72,2,160
256,192,90498,12,2,91988
184,256,92413,6,0,B|256:320|328:256,1,160,0|8
136,304,93264,6,2,B|184:344|257:387|328:344|376:304,1,267.200003344536,2|8
312,160,94115,5,0
256,216,94328,1,0
200,160,94541,1,8
256,104,94754,1,0
184,56,94967,2,2,B|256:-8|328:56,1,160,2|8
256,216,95818,1,4
176,216,96030,5,0
112,176,96243,2,0,B|16:176,1,80,8|0
32,256,96669,2,0,B|112:256,1,80
176,296,97094,1,8
176,296,97307,1,0
256,296,97520,6,0,B|344:296|408:240,1,160,0|4
256,88,98371,6,0,B|168:88|104:144,1,160,0|4
328,256,99222,6,0,B|256:320|184:256,1,160,0|8
376,304,100073,6,2,B|328:344|255:387|184:344|136:304,1,267.200003344536,2|8
256,208,100924,5,0
192,152,101137,1,0
256,96,101350,1,8
320,152,101562,1,0
328,48,101775,6,2,B|256:-16|184:48,1,160,2|8
256,208,102626,1,4
256,288,102839,2,0,B|256:328,2,40,0|0|8
320,248,103264,1,0
384,288,103477,1,0
448,248,103690,1,0
384,208,103903,2,0,B|384:120,1,80,8|0
288,48,104328,6,0,B|248:120|160:136,1,160,0|8
224,336,105179,6,2,B|264:264|352:248,1,160,2|4
440,336,106030,5,0
440,336,106243,1,0
440,336,106456,1,8
336,336,106668,1,0
336,336,106881,1,0
336,336,107094,1,0
256,224,107307,5,4
72,336,107732,5,0
72,336,107945,1,0
72,336,108158,1,8
176,336,108370,1,0
176,336,108583,1,0
176,336,108796,1,0
256,224,109009,5,4
320,88,109434,6,0,B|288:32|224:32|192:88,3,160,0|8|0|0
296,200,111137,5,0
216,200,111349,1,0
208,280,111562,2,0,B|208:352|304:352|304:280,1,160,8|0
360,224,112200,1,8
328,152,112413,2,0,B|288:112|224:112|184:152,1,160,8|4
184,64,119647,6,0,B|256:128|328:64,2,160,2|0|0
80,64,120924,1,2
80,64,121137,1,0
80,64,121350,2,0,B|38:141|80:216,1,160,2|0
432,320,122413,5,2
432,320,122626,1,2
432,320,122839,1,0
432,320,123052,2,0,B|474:243|432:168,1,160,2|0
256,64,124115,5,0
256,64,124328,1,2
192,152,124754,2,0,B|224:192|257:213|288:192|320:152,3,160,0|2|0|2
216,328,126669,5,0
160,328,126881,1,2
104,328,127094,1,2
56,312,127307,1,0
24,272,127520,2,0,B|0:232|8:192,2,80,2|0|2
208,264,128371,5,0
256,288,128584,1,2
304,264,128796,1,2
304,120,129222,5,0
256,96,129435,1,2
208,120,129647,1,0
160,96,129860,2,2,B|75:207|256:405|435:207|352:96,1,480,2|2
256,152,131562,5,0
256,152,131775,1,0
256,152,131988,1,0
256,152,132201,1,0
256,48,132413,1,0
256,48,132626,1,0
256,48,132839,1,0
256,192,133052,12,2,134541
296,336,134967,6,0,B|304:280|256:256|208:280|216:336,1,160,0|8
360,296,135818,6,2,B|346:227|256:163|168:224|152:296,1,289.600003452301,2|8
40,192,136669,5,0
40,112,136882,1,0
96,56,137095,1,8
176,56,137308,1,0
216,120,137520,2,2,B|208:176|256:197|304:176|296:120,1,160,2|8
256,264,138371,1,4
336,264,138584,5,0
416,264,138797,1,8
472,208,139010,1,0
416,152,139222,2,0,B|256:152,1,160,0|8
144,264,140074,6,0,B|72:120,1,160,0|4
368,264,140925,6,0,B|440:120,1,160,0|4
216,48,141776,6,0,B|208:104|256:128|304:104|296:48,1,160,0|8
152,88,142627,6,2,B|166:157|256:221|344:160|360:88,1,289.600003452301,2|8
256,248,143478,5,0
256,248,143691,1,0
256,248,143903,1,8
256,248,144116,1,0
325,289,144329,2,2,B|304:320|256:344|208:320|189:290,1,160,2|8
256,152,145180,1,4
336,152,145393,6,0,B|360:192,2,40,0|0|8
368,80,145818,1,0
304,32,146031,2,0,B|256:32|232:80,2,80,0|0|8
144,120,146882,6,0,B|72:264,1,160,0|8
368,120,147733,6,2,B|440:264,1,160,2|4
440,48,148584,5,0
440,48,148797,1,0
440,48,149010,1,8
336,48,149222,1,0
336,48,149435,1,0
336,48,149648,1,0
256,160,149861,5,4
72,48,150286,5,0
72,48,150499,1,0
72,48,150712,1,8
176,48,150924,1,0
176,48,151137,1,0
176,48,151350,1,0
256,160,151563,5,4
320,296,151988,6,0,B|288:352|224:352|192:296,3,160,0|8|0|0
296,184,153691,5,0
216,184,153903,1,0
208,104,154116,2,0,B|208:32|304:32|304:104,1,160,8|0
296,184,154754,1,8
216,184,154967,1,8
328,256,155392,6,0,B|256:320|184:256,1,160,0|8
376,304,156243,6,2,B|328:344|255:387|184:344|136:304,1,267.200003344536,2|8
200,160,157094,5,0
256,216,157307,1,0
312,160,157520,1,8
256,104,157733,1,0
328,56,157946,2,2,B|256:-8|184:56,1,160,2|8
256,216,158797,1,4
336,216,159009,5,0
400,176,159222,2,0,B|496:176,1,80,8|0
480,256,159648,2,0,B|400:256,1,80
336,296,160073,1,8
336,296,160286,1,0
256,296,160499,6,0,B|168:296|104:240,1,160,0|4
256,88,161350,6,0,B|344:88|408:144,1,160,0|4
184,256,162201,6,0,B|256:320|328:256,1,160,0|8
136,304,163052,6,2,B|184:344|257:387|328:344|376:304,1,267.200003344536,2|8
256,208,163903,5,0
320,152,164116,1,0
256,96,164329,1,8
192,152,164541,1,0
184,48,164754,2,2,B|256:-16|328:48,1,160,2|8
256,208,165605,1,4
256,288,165818,6,0,B|256:328,2,40,0|0|8
192,248,166243,1,0
128,288,166456,1,0
64,248,166669,1,0
128,208,166882,2,0,B|128:120,1,80,8|0
224,48,167307,6,0,B|264:120|352:136,1,160,0|8
288,336,168158,6,2,B|248:264|160:248,1,160,2|4
72,336,169009,5,0
72,336,169222,1,0
72,336,169435,1,8
176,336,169647,1,0
176,336,169860,1,0
176,336,170073,1,0
256,224,170286,5,4
440,336,170711,5,0
440,336,170924,1,0
440,336,171137,1,8
336,336,171349,1,0
336,336,171562,1,0
336,336,171775,1,0
256,224,171988,5,4
192,88,172413,6,0,B|224:32|288:32|320:88,3,160,0|8|0|0
256,192,174115,12,4,175818
328,192,179301,6,0,B|288:192|256:160,1,80
192,112,179725,1,8
128,152,179937,1,0
80,208,180149,2,0,B|38:284|80:360,2,160,0|8|0
192,320,181422,1,8
256,184,181847,6,0,B|256:144|256:144|248:136|248:136|256:136|256:136|264:136|264:136|256:128|256:128,1,80,2|0
256,48,182271,1,2
328,24,182483,1,0
400,48,182695,5,0
440,112,182908,1,0
400,176,183120,2,0,B|400:256,1,80,8|0
328,288,183544,2,0,B|256:352|184:288,1,160,0|8
256,248,184181,1,0
296,184,184393,6,0,B|296:104,1,80
216,104,184817,2,0,B|216:184,1,80,8|0
136,184,185241,2,0,B|136:96,1,80,2|0
56,104,185666,2,0,B|56:184,1,80,2|0
136,328,186090,6,0,B|168:352|216:352,1,80
256,288,186514,1,8
304,352,186727,1,0
344,288,186939,2,0,B|344:232|293:185|233:202,2,160,0|8|0
256,128,188212,1,8
192,264,188636,6,0,B|232:264|232:264|240:256|240:256|248:264|248:264|256:272|256:272|264:264|264:264|256:256|256:256|264:256,1,80,2|0
336,264,189060,1,2
400,216,189273,1,0
400,136,189485,5,0
336,88,189697,1,0
256,88,189909,2,0,B|168:88,1,80,8|0
136,160,190333,2,0,B|304:160,1,160,0|8
296,237,190970,1,0
256,304,191182,5,4
256,80,191606,1,4
256,304,192031,5,4
256,80,192455,1,4
184,192,192879,6,0,B|224:192|256:224,1,80
320,272,193303,1,8
384,232,193515,1,0
432,176,193727,2,0,B|474:100|432:24,2,160,0|8|0
320,64,195000,1,8
256,200,195425,6,0,B|256:240|256:240|264:248|264:248|256:248|256:248|248:248|248:248|256:256|256:256,1,80,2|0
256,336,195849,1,2
184,360,196061,1,0
112,336,196273,5,0
72,272,196486,1,0
112,208,196698,2,0,B|112:128,1,80,8|0
184,96,197122,2,0,B|256:32|328:96,1,160,0|8
256,136,197759,1,0
216,200,197971,6,0,B|216:280,1,80
296,280,198395,2,0,B|296:200,1,80,8|0
376,200,198819,2,0,B|376:288,1,80,2|0
456,280,199244,2,0,B|456:200,1,80,2|0
376,56,199668,6,0,B|344:32|296:32,1,80
256,96,200092,1,8
208,32,200305,1,0
168,96,200517,2,0,B|168:152|219:199|279:182,2,160,0|8|0
256,256,201790,1,8
320,120,202214,6,0,B|280:120|280:120|272:128|272:128|264:120|264:120|256:112|256:112|248:120|248:120|256:128|256:128|248:128,1,80,2|0
176,120,202638,1,2
112,168,202851,1,0
112,248,203063,5,0
176,296,203275,1,0
256,296,203487,2,0,B|344:296,1,80,8|0
376,224,203911,2,0,B|208:224,1,160,0|8
176,160,204548,1,0
176,80,204761,5,4
176,80,205185,1,4
336,304,205609,5,4
336,304,206033,1,4
184,304,206458,6,0,B|104:304,1,80
64,232,206882,2,0,B|160:232,1,80,8|0
184,168,207306,2,2,B|257:108|328:168,1,160,2|8
280,232,207943,1,0
328,304,208155,6,0,B|408:304,1,80
448,232,208579,2,0,B|352:232,1,80,8|0
328,168,209004,2,2,B|255:108|184:168,1,160,2|8
256,208,209640,1,0
328,248,209852,6,0,B|255:308|184:248,3,160,0|8|2|8
256,208,211338,1,0
328,160,211550,2,0,B|255:100|184:160,2,160,0|8|4
256,16,212823,1,4
192,64,213035,1,0
136,120,213247,6,0,B|96:192,1,80
144,256,213671,2,0,B|184:184,1,80,8|0
232,248,214096,2,2,B|192:328|320:328|280:248,1,160,2|8
272,168,214732,1,0
376,120,214944,6,0,B|416:192,1,80
368,256,215368,2,0,B|328:184,1,80,8|0
280,248,215793,2,2,B|320:328|192:328|232:248,1,160,2|8
256,168,216430,1,0
184,136,216642,6,0,B|104:176|104:272,3,160,0|8|2|8
168,320,218127,1,0
248,344,218339,2,0,B|328:304|328:208,2,160,0|8|4
256,192,219612,5,0
200,136,219824,1,0
256,80,220036,1,4
256,80,220461,1,4
256,304,220885,1,4
256,304,221310,1,4
176,271,221521,5,0
144,192,221734,5,4
144,192,222159,1,4
368,192,222582,1,4
368,192,223007,1,4
335,112,223219,5,0
256,80,223431,5,4
144,192,223855,1,4
256,304,224280,1,4
368,192,224704,1,4
256,80,225128,6,0,B|216:80|189:136|216:192|256:192,1,160,4|4
256,304,225977,2,0,B|296:304|323:248|296:192|256:192,1,160,4|4
184,192,226613,1,0
104,168,226826,5,0
56,104,227038,1,0
104,40,227250,1,8
152,104,227462,1,0
232,104,227674,2,0,B|392:104,2,160,4|4|0
256,184,228735,5,0
336,184,228947,1,8
416,184,229159,1,0
416,264,229372,2,4,B|256:264,1,160
168,264,230008,1,0
256,192,230220,12,4,232766
