osu file format v9

[General]
AudioFilename: yozakura.mp3
AudioLeadIn: 1750
PreviewTime: 73568
Countdown: 0
SampleSet: Normal
StackLeniency: 0.7
Mode: 1
LetterboxInBreaks: 1

[Editor]
DistanceSpacing: 0.8
BeatDivisor: 4
GridSize: 8

[Metadata]
Title:Yozakura
Artist:Komiya Mao
Creator:Alace
Version:Taiko Oni
Source:
Tags:

[Difficulty]
HPDrainRate:6
CircleSize:7
OverallDifficulty:5
ApproachRate:5
SliderMultiplier:1.4
SliderTickRate:1

[Events]
//Background and Video events
0,0,"Yozakura.jpg"
//Break Periods
//Storyboard Layer 0 (Background)
//Storyboard Layer 1 (Fail)
//Storyboard Layer 2 (Pass)
//Storyboard Layer 3 (Foreground)
//Storyboard Sound Samples
//Background Colour Transformations
3,100,0,0,0

[TimingPoints]
-654,444.444444444444,4,1,0,90,1,0
74012,-100,4,1,0,90,0,1
102457,-100,4,1,0,90,0,0

[Colours]
Combo1 : 255,62,158
Combo2 : 255,210,233
Combo3 : 255,157,206

[HitObjects]
216,144,1123,1,4
168,112,2012,1,4
240,160,2901,1,4
256,128,3123,1,2
256,128,3568,1,2
256,128,4012,1,2
256,128,4457,1,2
224,104,4679,1,4
224,104,5568,1,4
216,72,6457,1,4
216,72,6679,1,2
216,72,6790,1,2
216,72,6901,1,0
216,72,7123,1,2
216,72,7345,1,0
216,72,7568,1,2
216,72,7790,1,0
216,72,8012,1,2
168,120,8234,1,4
168,120,9123,1,4
152,80,10012,1,4
152,80,10234,1,2
232,88,10679,1,2
232,88,11123,1,2
232,88,11568,1,2
216,40,11790,1,0
192,80,12012,1,2
192,80,12457,1,2
192,80,12679,1,0
192,80,12901,1,2
192,80,13345,1,2
192,80,13568,1,0
192,80,13790,1,2
192,80,14234,1,2
192,80,14679,1,2
192,80,15123,1,2
128,128,15345,1,0
128,128,15568,1,2
128,128,15790,1,2
128,128,16012,1,0
128,128,16123,1,2
328,112,16345,1,2
328,112,16457,1,0
328,112,16568,1,2
328,112,16679,1,2
328,112,16790,1,2
328,112,16901,1,0
328,112,17012,1,2
216,64,17123,5,0
216,64,17345,1,2
216,64,17457,1,0
216,64,17679,1,0
216,64,17790,1,2
216,64,18012,1,0
216,64,18234,1,0
216,64,18345,1,0
216,64,18457,1,2
216,64,18679,1,0
216,64,18901,1,0
216,64,19123,1,0
216,64,19235,1,2
216,64,19457,1,0
216,64,19568,1,2
216,64,19790,1,0
216,64,19901,1,2
216,64,20012,1,0
216,64,20234,1,2
216,64,20457,1,0
216,64,20679,1,2
216,64,20901,1,0
216,64,21013,1,2
216,64,21123,1,0
216,64,21346,1,2
216,64,21568,1,0
216,64,21679,1,2
208,88,21790,1,2
216,64,21901,1,0
216,64,22013,1,2
216,64,22235,1,0
128,48,22457,1,2
128,48,22568,1,2
128,48,22679,1,2
128,48,22790,1,2
136,80,22901,1,0
136,80,23012,1,0
136,80,23123,1,0
136,80,23234,1,0
136,80,23345,1,2
136,80,23679,1,2
136,80,24012,1,2
216,64,24234,5,0
216,64,24456,1,2
216,64,24568,1,2
216,64,24679,1,0
216,64,24901,1,2
216,64,25123,1,0
216,64,25345,1,0
216,64,25457,1,2
216,64,25568,1,2
216,64,25790,1,2
216,64,26012,1,0
216,64,26234,1,2
216,64,26346,1,0
216,64,26568,1,0
216,64,26679,1,2
216,64,26901,1,0
216,64,27123,1,0
216,64,27234,1,0
216,64,27346,1,2
216,64,27568,1,0
216,64,27790,1,0
216,64,28012,1,0
216,64,28124,1,2
216,64,28346,1,0
216,64,28457,1,2
216,64,28679,1,0
216,64,28790,1,2
208,88,28901,1,0
216,64,29012,1,0
216,64,29124,1,2
216,64,29346,1,0
128,48,29568,1,2
128,48,29679,1,2
128,48,29790,1,2
128,48,29901,1,2
136,80,30012,1,0
136,80,30123,1,0
136,80,30234,1,0
136,80,30345,1,0
136,80,30456,1,2
200,32,30568,1,2
200,32,30679,1,2
136,80,30790,1,2
200,32,30901,1,2
200,32,31012,1,2
136,80,31123,1,2
136,184,31345,5,0
248,168,31568,1,2
344,176,31901,1,2
232,88,32234,1,2
192,72,32457,1,0
232,88,32568,1,0
232,88,32679,1,2
232,88,32901,1,0
136,184,33123,1,0
248,168,33346,1,2
344,176,33679,1,2
232,88,34012,1,2
176,24,34234,1,0
232,88,34457,1,2
232,88,34679,1,0
136,184,34901,1,0
248,168,35124,1,2
168,88,35234,1,0
344,176,35457,1,0
176,48,35568,1,2
232,88,35790,1,2
176,24,36013,1,0
232,88,36124,1,0
232,88,36235,1,2
232,88,36457,1,0
208,72,36568,1,2
128,96,36679,1,0
128,96,36901,1,0
176,24,37123,1,2
128,96,37234,1,2
152,80,37568,1,0
160,56,37790,1,0
152,80,38012,1,2
184,8,38123,1,2
136,184,38457,5,0
248,168,38680,1,2
344,176,38902,1,0
160,56,39123,1,2
344,176,39234,1,2
232,88,39346,1,0
192,72,39569,1,2
232,88,39680,1,0
232,88,39791,1,2
232,88,40013,1,0
136,184,40235,1,0
248,168,40458,1,2
344,176,40680,1,2
344,176,40791,1,2
232,88,40901,1,0
232,88,41124,1,2
176,24,41347,1,0
232,88,41458,1,0
232,88,41569,1,2
232,88,41791,1,0
136,184,42013,1,0
248,168,42236,1,2
344,176,42458,1,2
344,176,42569,1,0
232,88,42790,1,0
232,88,42902,1,2
176,24,43125,1,0
232,88,43236,1,0
232,88,43347,1,2
232,88,43569,1,0
128,96,43791,1,0
128,96,44013,1,2
184,64,44123,1,2
176,24,44234,1,0
128,96,44346,1,0
176,96,44457,1,2
152,80,44680,1,0
160,56,44902,1,2
184,64,45012,1,0
152,80,45124,1,2
184,8,45235,1,0
152,80,45345,1,2
136,184,45568,5,0
248,168,45791,1,2
344,176,46013,1,2
344,176,46124,1,0
160,56,46346,1,0
232,88,46457,1,2
192,72,46680,1,0
232,88,46791,1,0
232,88,46902,1,2
232,88,47124,1,0
136,184,47346,1,0
248,168,47569,1,2
344,176,47791,1,0
344,176,48012,1,2
232,88,48124,1,0
232,88,48235,1,2
176,24,48458,1,0
232,88,48680,1,2
232,88,48902,1,0
136,184,49124,1,2
248,168,49347,1,0
344,176,49569,1,2
344,176,49680,1,0
232,88,49901,1,0
232,88,50013,1,2
176,24,50236,1,0
232,88,50458,1,2
232,88,50680,1,0
208,80,50790,1,0
128,96,50902,1,2
128,96,51123,1,0
200,80,51234,1,0
176,24,51346,1,2
128,96,51457,1,2
200,80,51568,1,0
152,80,51791,1,0
160,56,52013,1,2
200,80,52123,1,2
152,80,52235,1,0
184,8,52346,1,0
200,80,52457,1,2
136,184,52679,5,0
248,168,52902,1,2
344,176,53124,1,2
384,232,53345,1,0
160,56,53457,1,0
232,88,53568,1,2
192,72,53791,1,0
232,88,54013,1,2
232,88,54235,1,2
160,56,54345,1,2
136,184,54457,1,0
248,168,54680,1,2
344,176,54902,1,0
344,176,55013,1,2
200,48,55123,1,0
136,64,55234,1,0
136,64,55345,1,2
176,24,55569,1,0
232,88,55680,1,0
232,88,55791,1,2
232,88,56013,1,0
136,184,56235,1,0
248,168,56457,1,2
344,176,56680,1,0
344,176,56791,1,2
208,48,56901,1,0
232,88,57013,1,0
232,88,57124,1,2
176,24,57347,1,0
232,88,57458,1,0
232,88,57569,1,2
232,88,57791,1,0
208,72,57901,1,2
128,96,58013,1,0
128,96,58234,1,2
208,48,58345,1,0
176,24,58457,1,2
128,96,58568,1,0
208,48,58679,1,2
152,80,58902,1,0
160,56,59123,1,2
208,48,59234,1,0
152,80,59346,1,2
184,8,59457,1,2
208,48,59568,1,0
272,120,59679,1,0
120,128,59790,5,2
120,128,60123,1,2
120,128,60457,1,2
120,128,60901,1,6
120,128,61123,1,6
120,128,61345,1,6
120,128,61568,5,2
120,128,61901,1,2
120,128,62235,1,2
120,128,62679,1,6
120,128,62901,1,6
120,128,63123,1,6
184,72,63345,5,0
184,72,63568,1,2
184,72,63679,1,0
184,72,63901,1,0
184,72,64012,1,2
184,72,64234,1,0
184,72,64457,1,2
184,72,64679,1,0
184,72,64901,1,2
184,72,65123,1,0
184,72,65345,1,2
184,72,65457,1,2
184,72,65568,1,0
184,72,65790,1,2
184,72,66012,1,0
184,72,66234,1,2
200,48,66345,1,2
184,72,66457,1,0
184,72,66679,1,2
88,112,66901,1,0
88,112,67123,1,2
88,112,67234,1,0
88,112,67457,1,0
88,112,67568,1,2
176,112,67790,1,0
176,112,67901,1,0
176,112,68012,1,2
176,112,68123,1,2
176,112,68234,1,0
176,112,68457,1,2
88,112,68679,1,0
88,112,68901,1,2
88,112,69012,1,2
88,112,69123,1,0
88,112,69346,1,2
176,112,69568,1,0
176,112,69679,1,0
176,112,69790,1,2
176,112,69901,1,2
176,112,70012,1,0
176,112,70234,1,2
120,40,70457,1,0
120,40,70679,1,2
120,40,70790,1,0
120,40,71012,1,0
120,40,71123,1,2
208,72,71345,1,0
208,72,71457,1,0
208,72,71568,1,0
208,72,71679,1,0
208,72,71790,1,0
208,72,71901,1,0
208,72,72012,1,0
208,72,72123,1,0
152,72,72234,5,2
152,72,72345,1,2
152,72,72457,1,2
152,72,72568,1,2
152,72,72679,1,2
152,72,72790,1,2
152,72,72901,1,2
152,72,73012,1,2
152,72,73123,1,2
152,72,73568,1,0
152,72,73679,1,0
152,72,73790,1,0
200,104,74012,1,4
192,192,74234,1,2
280,136,74345,1,0
280,136,74568,1,0
280,136,74679,1,2
280,136,74901,1,0
280,136,75123,1,2
280,136,75345,1,0
280,136,75568,1,2
256,120,75679,1,2
200,104,75790,1,0
192,192,76012,1,2
280,136,76234,1,0
280,136,76457,1,2
280,136,76679,1,0
280,136,76901,1,2
280,136,77123,1,0
280,136,77346,1,2
256,120,77457,1,2
200,104,77568,1,0
192,192,77790,1,2
280,136,77901,1,0
280,136,78124,1,0
280,136,78235,1,2
280,136,78457,1,0
280,136,78679,1,2
232,240,78790,1,2
280,136,78901,1,0
280,136,79124,1,2
200,104,79346,1,0
192,192,79568,1,2
280,136,79679,1,2
280,136,79791,1,0
280,136,80013,1,2
280,136,80235,1,0
280,136,80457,1,2
280,136,80679,1,0
280,136,80902,1,2
224,88,81123,1,4
160,32,81345,1,2
160,32,81457,1,2
368,184,81568,1,0
368,184,81679,1,0
368,184,81790,1,2
184,128,82012,1,0
264,208,82234,1,2
264,208,82457,1,0
304,256,82679,1,2
200,104,82901,1,0
192,192,83123,1,2
280,136,83234,1,2
280,136,83345,1,0
280,136,83457,1,0
280,136,83568,1,2
280,136,83790,1,0
280,136,84012,1,2
184,48,84123,1,2
280,136,84234,1,0
280,136,84457,1,2
200,104,84679,1,0
192,192,84901,1,2
280,136,85012,1,0
280,136,85124,1,0
280,136,85235,1,2
280,136,85346,1,2
280,136,85568,1,0
280,136,85679,1,2
104,224,85901,1,2
280,136,86012,1,0
280,136,86235,1,2
184,80,86457,1,0
184,80,86679,1,2
184,80,86790,1,2
184,80,86901,1,2
184,80,87012,1,2
184,80,87123,1,2
176,120,87234,1,2
176,120,87345,1,2
312,176,87568,1,0
312,176,87679,1,0
312,176,87790,1,0
312,176,88012,1,0
200,104,88234,1,4
192,192,88456,1,0
280,136,88567,1,0
280,136,88679,1,2
280,136,88790,1,2
280,136,88901,1,0
280,136,89123,1,2
184,64,89345,1,0
280,136,89457,1,0
280,136,89567,1,2
280,136,89790,1,0
200,104,90012,1,2
128,72,90234,1,0
128,72,90345,1,0
112,104,90457,1,2
112,104,90568,1,2
112,104,90679,1,0
280,136,90901,1,2
280,136,91012,1,0
104,224,91234,1,0
280,136,91345,1,2
280,136,91568,1,0
200,104,91790,1,2
192,192,92012,1,0
280,136,92123,1,0
280,136,92234,1,2
280,136,92346,1,2
280,136,92457,1,0
280,136,92679,1,2
184,64,92790,1,0
280,136,93013,1,0
280,136,93123,1,2
280,136,93346,1,2
264,112,93568,1,0
192,192,93790,1,2
280,136,93901,1,2
280,136,94013,1,0
280,136,94235,1,2
280,136,94457,1,0
280,136,94679,1,2
280,136,94901,1,0
280,136,95124,1,2
200,104,95345,1,4
192,192,95567,1,2
280,136,95678,1,0
280,136,95790,1,2
280,136,95901,1,0
280,136,96012,1,2
280,136,96234,1,2
184,64,96345,1,0
280,136,96568,1,0
280,136,96678,1,2
280,136,96901,1,0
200,104,97123,1,4
280,136,97568,1,4
280,136,98012,1,4
280,136,98234,1,2
104,224,98345,1,2
280,136,98456,1,0
280,136,98679,1,2
200,104,98901,1,4
192,192,99123,1,0
280,136,99234,1,0
280,136,99346,1,2
280,136,99457,1,2
280,136,99568,1,0
280,136,99790,1,2
184,64,99901,1,0
280,136,100124,1,0
280,136,100234,1,2
192,40,100345,1,0
280,136,100457,1,2
200,104,100679,1,0
192,192,100901,1,2
280,136,101012,1,2
280,136,101124,1,2
280,136,101235,1,2
280,136,101346,1,2
208,72,101457,1,2
280,136,101568,1,2
200,128,102012,1,6
216,64,102457,5,0
104,152,102568,1,0
216,64,102679,1,2
216,64,102791,1,0
216,64,103013,1,0
216,64,103124,1,2
216,64,103346,1,0
216,64,103568,1,2
216,64,103791,1,0
216,64,104012,1,2
216,64,104235,1,0
216,64,104457,1,2
216,64,104568,1,0
216,64,104791,1,0
216,64,104902,1,2
216,64,105124,1,2
216,64,105345,1,0
216,64,105457,1,0
216,64,105569,1,2
216,64,105791,1,0
216,64,106013,1,0
200,48,106123,1,0
216,64,106235,1,2
216,64,106347,1,0
216,64,106569,1,0
216,64,106680,1,2
216,64,106902,1,0
216,64,107123,1,2
216,64,107235,1,0
216,64,107347,1,2
216,64,107569,1,0
128,48,107791,1,2
128,48,107902,1,2
128,48,108013,1,2
128,48,108124,1,2
136,80,108235,1,0
136,80,108346,1,0
136,80,108457,1,0
136,80,108568,1,0
136,80,108679,1,2
136,80,109013,1,2
136,80,109346,1,2
216,64,109568,5,0
216,64,109790,1,2
216,64,109902,1,0
216,64,110123,1,0
216,64,110234,1,2
216,64,110457,1,2
216,64,110679,1,0
216,64,110790,1,0
216,64,110902,1,2
216,64,111124,1,0
216,64,111346,1,0
216,64,111457,1,0
216,64,111568,1,2
264,80,111679,1,0
216,64,111902,1,0
216,64,112013,1,2
216,64,112235,1,2
216,64,112457,1,0
216,64,112568,1,0
216,64,112680,1,2
216,64,112902,1,0
216,64,113012,1,0
216,64,113124,1,2
184,56,113234,1,0
216,64,113346,1,2
216,64,113458,1,0
216,64,113680,1,0
216,64,113791,1,2
216,64,114013,1,2
216,64,114124,1,0
216,64,114346,1,0
216,64,114458,1,2
216,64,114679,1,2
128,48,114902,1,0
128,48,115013,1,0
128,48,115124,1,0
128,48,115235,1,0
136,80,115346,1,0
136,80,115457,1,0
136,80,115568,1,0
136,80,115679,1,0
136,80,115790,1,2
200,32,115902,1,2
200,32,116013,1,2
136,80,116124,1,2
200,32,116235,1,2
200,32,116346,1,2
136,80,116457,1,2
280,168,116679,5,4
280,168,116901,1,0
280,168,117012,1,0
280,168,117123,1,2
192,112,117234,1,2
280,168,117345,1,0
280,168,117568,1,2
280,168,117790,1,0
280,168,117901,1,2
280,168,118012,1,2
280,168,118234,1,2
280,168,118457,1,0
280,168,118679,1,2
280,168,118790,1,2
280,168,118901,1,0
192,112,119012,1,0
280,168,119123,1,2
280,168,119346,1,0
280,168,119568,1,2
280,168,119790,1,0
280,168,120012,1,2
280,168,120234,1,0
280,168,120456,1,2
280,168,120567,1,0
280,168,120678,1,2
192,112,120789,1,0
280,168,120900,1,2
280,168,121123,1,2
104,32,121234,1,0
280,168,121456,1,0
280,168,121567,1,2
280,168,121789,1,2
208,48,122012,1,0
208,48,122123,1,0
208,48,122234,1,0
208,48,122345,1,0
208,48,122457,1,0
208,48,122568,1,0
208,48,122679,1,0
208,48,122790,1,0
208,48,122901,1,2
208,48,123012,1,2
208,48,123123,1,2
208,48,123234,1,2
208,48,123345,1,2
208,48,123457,1,2
208,48,123568,1,2
280,168,123790,1,4
280,168,124012,1,0
280,168,124123,1,0
280,168,124234,1,2
192,112,124345,1,2
280,168,124456,1,0
280,168,124679,1,2
280,168,124901,1,0
280,168,125012,1,0
280,168,125123,1,2
280,168,125345,1,0
280,168,125568,1,6
280,168,126012,1,6
280,168,126457,1,6
280,168,126901,1,4
280,168,127123,1,4
280,168,127345,1,4
280,168,127567,1,2
280,168,127678,1,0
280,168,127789,1,2
192,112,127900,1,0
280,168,128011,1,2
280,168,128234,1,2
264,144,128457,1,0
280,168,128678,1,2
280,168,128900,1,0
200,56,129123,1,2
200,56,129234,1,2
200,56,129345,1,2
200,56,129457,1,2
200,56,129568,1,0
200,56,129679,1,0
200,56,129790,1,0
200,56,129901,1,0
200,56,130012,1,2
200,56,130123,1,2
200,56,130234,1,2
200,56,130345,1,2
200,56,130457,1,0
200,56,130568,1,0
200,56,130679,1,0
200,56,130901,1,4
