osu file format v9

[General]
AudioFilename: yozakura.mp3
AudioLeadIn: 1750
PreviewTime: 73568
Countdown: 1
SampleSet: Normal
StackLeniency: 0.7
Mode: 1
LetterboxInBreaks: 1

[Editor]
DistanceSpacing: 0.8
BeatDivisor: 4
GridSize: 8

[Metadata]
Title:Yozakura
Artist:Komiya Mao
Creator:Alace
Version:Taiko Fuutsu
Source:
Tags:

[Difficulty]
HPDrainRate:3
CircleSize:7
OverallDifficulty:3
ApproachRate:3
SliderMultiplier:1.4
SliderTickRate:2

[Events]
//Background and Video events
0,0,"Yozakura.jpg"
//Break Periods
//Storyboard Layer 0 (Background)
//Storyboard Layer 1 (Fail)
//Storyboard Layer 2 (Pass)
//Storyboard Layer 3 (Foreground)
//Storyboard Sound Samples
//Background Colour Transformations
3,100,0,0,0

[TimingPoints]
-654,444.444444444444,4,1,0,90,1,0
74012,-100,4,1,0,91,0,1
102457,-100,4,1,0,90,0,0

[Colours]
Combo1 : 255,62,158
Combo2 : 255,210,233
Combo3 : 255,157,206

[HitObjects]
144,112,1123,1,6
200,144,2012,1,2
248,120,2901,1,2
224,120,3345,1,2
224,120,3790,1,2
248,96,4679,1,2
224,112,5568,1,2
224,112,6457,1,2
224,112,6901,1,2
224,112,7345,1,2
224,112,7790,1,2
144,72,8234,5,6
184,136,9123,1,2
288,160,10012,1,2
160,128,10457,1,2
160,128,10901,1,2
208,208,11790,1,2
208,96,12679,1,2
176,96,13123,1,2
256,192,13568,12,0,15123
128,64,15345,5,0
128,64,16012,1,0
136,112,16457,1,0
136,112,16679,1,0
136,112,16901,1,0
232,112,17123,5,4
200,96,17568,1,0
104,120,18012,1,2
176,160,18345,1,2
176,160,18679,1,2
176,160,18901,1,0
176,160,19345,1,0
184,24,19790,1,2
184,24,20123,1,2
184,24,20457,1,2
232,72,20679,1,0
144,184,21123,1,0
160,48,21568,1,2
160,48,21901,1,2
160,48,22234,1,2
256,192,22457,12,0,24012
232,112,24234,5,0
200,96,24679,1,0
104,120,25123,1,2
176,160,25456,1,2
176,160,25790,1,2
176,160,26012,1,0
176,160,26456,1,0
184,24,26901,1,2
184,24,27234,1,2
184,24,27568,1,2
232,72,27790,1,0
144,184,28234,1,0
160,48,28679,1,2
160,48,29012,1,2
160,48,29345,1,2
256,192,29568,12,0,31123
96,88,31345,5,4
192,88,31790,1,2
224,72,32679,1,2
160,96,33568,1,2
160,96,34234,1,2
160,96,34457,1,2
160,96,34901,1,0
208,72,35345,1,2
208,72,36234,1,2
192,96,37123,1,2
192,96,37790,1,2
192,96,38012,1,2
128,80,38457,1,0
128,80,38901,1,2
128,80,39790,1,2
192,88,40679,1,2
192,88,41345,1,2
192,88,41568,1,2
168,112,42012,1,0
168,112,42457,1,2
168,112,43345,1,2
168,112,43790,1,0
168,112,44234,1,2
168,112,44679,1,0
168,112,45123,1,2
168,112,45345,1,0
256,136,45568,1,0
256,136,46012,1,2
256,136,46679,1,2
256,136,46901,1,2
160,80,47345,1,0
160,80,47790,1,2
176,104,48457,1,2
176,104,48679,1,2
208,64,48901,1,0
208,64,49123,1,0
184,72,49568,1,2
168,48,49790,1,0
184,72,50234,1,0
184,72,50457,1,2
160,80,50901,1,0
160,80,51345,1,2
160,80,51790,1,0
160,80,52234,1,2
96,144,52679,1,0
96,144,53123,1,2
192,144,53568,1,0
192,144,54012,1,2
192,144,54234,1,0
200,80,54457,1,0
200,80,54901,1,2
200,80,55123,1,0
200,80,55568,1,0
200,80,55790,1,2
200,80,56012,1,0
200,80,56234,1,0
200,80,56679,1,2
200,80,56901,1,0
200,80,57345,1,0
200,80,57568,1,2
200,80,57790,1,0
200,80,58012,1,0
200,80,58457,1,2
200,80,58901,1,0
200,80,59345,1,2
200,80,59568,1,2
104,112,59790,5,2
104,112,60123,1,2
104,112,60457,1,2
144,176,60901,1,0
160,112,61345,1,0
208,48,61568,1,2
208,48,61901,1,2
208,48,62234,1,2
208,48,62679,1,0
136,96,62901,1,0
208,48,63123,1,0
104,112,63345,1,2
104,112,63678,1,2
104,112,64012,1,2
144,176,64456,1,0
136,96,64679,1,0
160,112,64900,1,0
208,48,65123,1,2
208,48,65456,1,2
208,48,65789,1,2
208,48,66234,1,0
136,96,66457,1,0
208,48,66678,1,0
272,104,66901,1,0
272,104,67345,1,2
272,104,67790,1,0
272,104,68234,1,2
272,104,68679,1,0
272,104,69123,1,2
272,104,69345,1,0
272,104,69790,1,0
272,104,70012,1,2
272,104,70234,1,0
144,64,70457,2,0,B|464:64|448:272,1,420
352,208,72234,2,0,B|112:64,1,280
208,112,74012,5,4
176,184,74457,1,2
184,80,74679,1,0
240,88,74901,1,0
240,88,75345,1,2
160,144,75790,1,0
160,144,76234,1,2
248,128,76679,1,0
136,56,77123,1,2
176,104,77345,1,0
160,72,77568,1,0
144,120,78012,1,2
144,120,78234,1,0
144,120,78457,1,0
200,136,78901,1,2
208,40,79345,1,0
208,40,79790,1,2
208,40,80234,1,2
200,136,80457,1,2
200,136,80679,1,2
200,112,80901,1,2
208,112,81123,5,4
176,184,81568,1,2
184,80,81790,1,0
240,88,82012,1,0
240,88,82456,1,2
160,144,82901,1,0
160,144,83345,1,2
248,128,83790,1,0
96,64,84234,1,2
96,64,84457,1,0
160,72,84679,1,0
144,120,85123,1,2
144,120,85345,1,0
144,120,85568,1,0
200,136,86012,1,2
208,40,86456,1,2
208,40,86790,1,2
168,56,87123,1,2
120,80,87345,1,2
208,152,87790,1,6
304,120,88234,1,4
304,120,88679,1,2
304,120,88901,1,0
304,120,89123,1,0
304,120,89568,1,2
272,128,90012,1,0
184,104,90234,1,0
272,128,90457,1,2
208,64,90679,1,0
184,128,90901,1,0
184,104,91345,1,2
216,104,91568,1,0
184,104,91790,1,0
184,104,92234,1,2
184,104,92457,1,0
184,104,92679,1,0
184,104,93123,1,2
184,104,93568,1,0
184,104,94012,1,2
184,104,94457,1,0
184,104,94679,1,0
184,104,94901,1,2
184,104,95123,1,0
248,48,95345,1,0
248,48,95790,1,2
248,48,96012,1,0
248,48,96234,1,0
248,48,96679,1,2
248,48,97123,1,2
248,48,97345,1,0
248,48,97568,1,2
168,16,97790,1,0
168,16,98012,1,2
192,104,98457,1,2
192,104,98679,1,2
192,104,98901,1,4
192,104,99345,1,2
192,104,99790,1,0
192,104,100234,1,2
160,48,100679,2,0,B|384:48,1,210
208,120,101568,1,4
208,120,102012,1,6
160,56,102457,5,0
160,168,102901,1,0
160,168,103123,1,0
160,168,103345,1,2
160,168,103679,1,2
160,168,104012,1,2
160,56,104234,1,0
160,168,104678,1,0
160,168,104900,1,0
160,168,105122,1,2
160,168,105456,1,2
160,168,105789,1,2
160,56,106012,1,0
160,168,106456,1,0
160,168,106678,1,0
160,168,106900,1,2
160,168,107234,1,2
160,168,107567,1,2
160,112,107790,2,0,B|360:112|536:304|240:352,1,490
160,56,109568,5,0
192,96,109790,1,0
160,168,110012,1,2
160,168,110234,1,0
160,168,110456,1,2
160,168,110790,1,2
160,168,111123,1,2
160,56,111345,1,0
216,72,111568,1,0
160,168,111789,1,2
160,168,112011,1,0
160,168,112233,1,2
160,168,112567,1,2
160,168,112900,1,2
160,56,113123,1,0
208,32,113345,1,0
160,168,113567,1,2
160,168,113789,1,0
160,168,114011,1,2
160,168,114345,1,2
160,168,114678,1,2
152,112,114901,2,0,B|392:120|96:296|376:376|448:64,1,490
128,72,116679,5,0
128,72,116901,1,2
136,104,117234,1,2
248,88,117568,1,2
248,88,118012,1,2
176,48,118234,1,2
128,72,118457,1,0
128,72,118679,1,2
136,104,119012,1,2
248,88,119346,1,2
248,88,119790,1,2
176,48,120012,1,2
128,72,120234,1,0
128,72,120456,1,2
136,104,120789,1,2
248,88,121123,1,2
248,88,121568,1,2
176,48,121789,1,2
80,112,122012,2,0,B|360:208|48:320|496:216|464:72,1,490
128,72,123790,5,0
128,72,124012,1,2
136,104,124345,1,2
248,88,124679,1,2
248,88,125012,1,2
176,48,125345,1,2
128,72,125568,1,0
128,72,125790,1,2
136,104,126123,1,2
248,88,126457,1,2
248,88,126790,1,2
176,48,127123,1,2
128,72,127345,1,0
128,72,127567,1,2
136,104,127900,1,2
248,88,128234,1,2
248,88,128567,1,2
176,48,128900,1,2
80,112,129123,2,0,B|360:208|48:320|496:216|464:72,1,490
176,112,130901,1,4
