osu file format v13

[General]
AudioFilename: midnight_EDIT.mp3
AudioLeadIn: 0
PreviewTime: 9907
Countdown: 0
SampleSet: None
StackLeniency: 0.7
Mode: 3
LetterboxInBreaks: 0
SpecialStyle: 0
WidescreenStoryboard: 0

[Editor]
DistanceSpacing: 0.9
BeatDivisor: 4
GridSize: 8
TimelineZoom: 1.7

[Metadata]
Title:Midnight Driving (Sped up version)
TitleUnicode:Midnight Driving (Sped up version)
Artist:Komiya Mao
ArtistUnicode:Komiya Mao
Creator:Cozzzy
Version:4K Insane
Source:
Tags:
BeatmapID:506293
BeatmapSetID:215607

[Difficulty]
HPDrainRate:10
CircleSize:4
OverallDifficulty:8
ApproachRate:5
SliderMultiplier:1.4
SliderTickRate:1

[Events]
//Background and Video events
0,0,"md.png",0,0
//Break Periods
//Storyboard Layer 0 (Background)
//Storyboard Layer 1 (Fail)
//Storyboard Layer 2 (Pass)
//Storyboard Layer 3 (Foreground)
//Storyboard Sound Samples
//Background Colour Transformations
3,100,163,162,255

[TimingPoints]
354,298.507462686567,4,2,0,15,1,0

[HitObjects]
64,192,354,5,0,0:0:0:0:
320,192,354,1,0,0:0:0:0:
192,192,503,1,0,0:0:0:0:
320,192,652,1,0,0:0:0:0:
192,192,801,1,0,0:0:0:0:
64,192,876,1,0,0:0:0:0:
448,192,1249,1,0,0:0:0:0:
320,192,1249,1,0,0:0:0:0:
64,192,1398,1,0,0:0:0:0:
192,192,1548,1,0,0:0:0:0:
320,192,1548,1,0,0:0:0:0:
192,192,2443,1,0,0:0:0:0:
448,192,2443,1,0,0:0:0:0:
320,192,2592,1,0,0:0:0:0:
64,192,2742,1,0,0:0:0:0:
192,192,2742,1,0,0:0:0:0:
64,192,3637,1,0,0:0:0:0:
192,192,3637,1,0,0:0:0:0:
192,192,3936,1,0,0:0:0:0:
320,192,3936,1,0,0:0:0:0:
320,192,4234,1,0,0:0:0:0:
448,192,4234,1,0,0:0:0:0:
192,192,4533,1,0,0:0:0:0:
320,192,4533,1,0,0:0:0:0:
64,192,4831,1,0,0:0:0:0:
320,192,4831,1,0,0:0:0:0:
192,192,5130,1,0,0:0:0:0:
320,192,5130,1,0,0:0:0:0:
448,192,5130,1,0,0:0:0:0:
64,192,5204,1,0,0:0:0:0:
192,192,5279,1,0,0:0:0:0:
320,192,5354,1,0,0:0:0:0:
448,192,5428,1,0,0:0:0:0:
192,192,5503,1,0,0:0:0:0:
320,192,5577,1,0,0:0:0:0:
64,192,5652,1,0,0:0:0:0:
448,192,5727,1,0,0:0:0:0:
320,192,5801,1,0,0:0:0:0:
192,192,5876,1,0,0:0:0:0:
64,192,5951,1,0,0:0:0:0:
320,192,6025,1,0,0:0:0:0:
192,192,6100,1,0,0:0:0:0:
64,192,6174,1,0,0:0:0:0:
448,192,6174,1,0,0:0:0:0:
192,192,6249,1,0,0:0:0:0:
320,192,6324,1,0,0:0:0:0:
64,192,6324,1,0,0:0:0:0:
448,192,6398,1,0,0:0:0:0:
64,192,6473,1,0,0:0:0:0:
320,192,6548,1,0,0:0:0:0:
192,192,6622,1,0,0:0:0:0:
448,192,6697,1,0,0:0:0:0:
320,192,6771,1,0,0:0:0:0:
64,192,6846,1,0,0:0:0:0:
192,192,6921,1,0,0:0:0:0:
448,192,6995,1,0,0:0:0:0:
320,192,7070,1,0,0:0:0:0:
192,192,7145,1,0,0:0:0:0:
64,192,7219,1,0,0:0:0:0:
320,192,7294,1,0,0:0:0:0:
64,192,7368,1,0,0:0:0:0:
192,192,7368,1,0,0:0:0:0:
448,192,7443,1,0,0:0:0:0:
64,192,7518,1,0,0:0:0:0:
320,192,7518,1,0,0:0:0:0:
192,192,7592,1,0,0:0:0:0:
448,192,7667,1,0,0:0:0:0:
320,192,7742,1,0,0:0:0:0:
64,192,7816,1,0,0:0:0:0:
448,192,7816,1,0,0:0:0:0:
192,192,7891,1,0,0:0:0:0:
320,192,7965,1,0,0:0:0:0:
192,192,8040,1,0,0:0:0:0:
64,192,8115,1,0,0:0:0:0:
320,192,8115,1,0,0:0:0:0:
448,192,8189,1,0,0:0:0:0:
192,192,8264,1,0,0:0:0:0:
320,192,8339,1,0,0:0:0:0:
192,192,8413,1,0,0:0:0:0:
448,192,8413,1,0,0:0:0:0:
64,192,8488,1,0,0:0:0:0:
320,192,8562,1,0,0:0:0:0:
192,192,8637,1,0,0:0:0:0:
64,192,8712,1,0,0:0:0:0:
320,192,8712,1,0,0:0:0:0:
448,192,8712,1,0,0:0:0:0:
192,192,8861,1,0,0:0:0:0:
448,192,9010,1,0,0:0:0:0:
320,192,9085,1,0,0:0:0:0:
192,192,9234,1,0,0:0:0:0:
448,192,9234,1,0,0:0:0:0:
320,192,9458,1,0,0:0:0:0:
192,192,9607,1,0,0:0:0:0:
64,192,9682,1,0,0:0:0:0:
64,192,9906,1,0,0:0:0:0:
320,192,9906,1,0,0:0:0:0:
192,192,9980,1,0,0:0:0:0:
448,192,10055,1,0,0:0:0:0:
192,192,10130,1,0,0:0:0:0:
64,192,10204,1,0,0:0:0:0:
320,192,10204,1,0,0:0:0:0:
192,192,10279,1,0,0:0:0:0:
448,192,10353,1,0,0:0:0:0:
192,192,10428,1,0,0:0:0:0:
64,192,10503,1,0,0:0:0:0:
320,192,10503,1,0,0:0:0:0:
192,192,10577,1,0,0:0:0:0:
448,192,10652,1,0,0:0:0:0:
192,192,10727,1,0,0:0:0:0:
320,192,10801,1,0,0:0:0:0:
64,192,10801,1,0,0:0:0:0:
192,192,10876,1,0,0:0:0:0:
448,192,10951,1,0,0:0:0:0:
64,192,11025,1,0,0:0:0:0:
320,192,11100,1,0,0:0:0:0:
448,192,11100,1,0,0:0:0:0:
192,192,11174,1,0,0:0:0:0:
320,192,11249,1,0,0:0:0:0:
64,192,11324,1,0,0:0:0:0:
448,192,11398,1,0,0:0:0:0:
192,192,11398,1,0,0:0:0:0:
320,192,11473,1,0,0:0:0:0:
64,192,11548,1,0,0:0:0:0:
320,192,11622,1,0,0:0:0:0:
192,192,11697,1,0,0:0:0:0:
448,192,11697,1,0,0:0:0:0:
320,192,11771,1,0,0:0:0:0:
64,192,11846,1,0,0:0:0:0:
320,192,11921,1,0,0:0:0:0:
192,192,11995,1,0,0:0:0:0:
448,192,11995,1,0,0:0:0:0:
320,192,12070,1,0,0:0:0:0:
64,192,12145,1,0,0:0:0:0:
320,192,12219,1,0,0:0:0:0:
192,192,12294,1,0,0:0:0:0:
64,192,12294,1,0,0:0:0:0:
320,192,12368,1,0,0:0:0:0:
448,192,12443,1,0,0:0:0:0:
320,192,12518,1,0,0:0:0:0:
192,192,12592,1,0,0:0:0:0:
64,192,12592,1,0,0:0:0:0:
320,192,12667,1,0,0:0:0:0:
448,192,12742,1,0,0:0:0:0:
320,192,12816,1,0,0:0:0:0:
192,192,12891,1,0,0:0:0:0:
64,192,12891,1,0,0:0:0:0:
320,192,12965,1,0,0:0:0:0:
448,192,13040,1,0,0:0:0:0:
320,192,13115,1,0,0:0:0:0:
192,192,13189,1,0,0:0:0:0:
64,192,13189,1,0,0:0:0:0:
320,192,13264,1,0,0:0:0:0:
448,192,13339,1,0,0:0:0:0:
320,192,13413,1,0,0:0:0:0:
192,192,13488,1,0,0:0:0:0:
64,192,13488,1,0,0:0:0:0:
320,192,13562,1,0,0:0:0:0:
192,192,13637,1,0,0:0:0:0:
64,192,13712,1,0,0:0:0:0:
320,192,13786,1,0,0:0:0:0:
448,192,13786,1,0,0:0:0:0:
64,192,13861,1,0,0:0:0:0:
192,192,13936,1,0,0:0:0:0:
64,192,14010,1,0,0:0:0:0:
320,192,14085,1,0,0:0:0:0:
448,192,14085,1,0,0:0:0:0:
64,192,14159,1,0,0:0:0:0:
192,192,14234,1,0,0:0:0:0:
64,192,14309,1,0,0:0:0:0:
320,192,14383,1,0,0:0:0:0:
448,192,14383,1,0,0:0:0:0:
192,192,14458,1,0,0:0:0:0:
64,192,14533,1,0,0:0:0:0:
192,192,14607,1,0,0:0:0:0:
320,192,14682,1,0,0:0:0:0:
448,192,14682,1,0,0:0:0:0:
64,192,14756,1,0,0:0:0:0:
192,192,14831,1,0,0:0:0:0:
320,192,14906,1,0,0:0:0:0:
192,192,14980,1,0,0:0:0:0:
448,192,14980,1,0,0:0:0:0:
320,192,15055,1,0,0:0:0:0:
192,192,15130,1,0,0:0:0:0:
64,192,15204,1,0,0:0:0:0:
192,192,15279,1,0,0:0:0:0:
448,192,15279,1,0,0:0:0:0:
64,192,15353,1,0,0:0:0:0:
192,192,15428,1,0,0:0:0:0:
320,192,15503,1,0,0:0:0:0:
192,192,15577,1,0,0:0:0:0:
448,192,15577,1,0,0:0:0:0:
320,192,15652,1,0,0:0:0:0:
192,192,15727,1,0,0:0:0:0:
64,192,15801,1,0,0:0:0:0:
192,192,15876,1,0,0:0:0:0:
320,192,15876,1,0,0:0:0:0:
448,192,15951,1,0,0:0:0:0:
320,192,16025,1,0,0:0:0:0:
192,192,16100,1,0,0:0:0:0:
64,192,16174,1,0,0:0:0:0:
320,192,16174,1,0,0:0:0:0:
192,192,16249,1,0,0:0:0:0:
320,192,16324,1,0,0:0:0:0:
448,192,16398,1,0,0:0:0:0:
320,192,16473,1,0,0:0:0:0:
64,192,16473,1,0,0:0:0:0:
448,192,16548,1,0,0:0:0:0:
320,192,16622,1,0,0:0:0:0:
192,192,16697,1,0,0:0:0:0:
64,192,16771,1,0,0:0:0:0:
320,192,16771,1,0,0:0:0:0:
192,192,16846,1,0,0:0:0:0:
320,192,16921,1,0,0:0:0:0:
448,192,16995,1,0,0:0:0:0:
192,192,17070,1,0,0:0:0:0:
64,192,17070,1,0,0:0:0:0:
320,192,17145,1,0,0:0:0:0:
448,192,17219,1,0,0:0:0:0:
320,192,17294,1,0,0:0:0:0:
192,192,17368,1,0,0:0:0:0:
64,192,17368,1,0,0:0:0:0:
448,192,17443,1,0,0:0:0:0:
320,192,17518,1,0,0:0:0:0:
448,192,17592,1,0,0:0:0:0:
64,192,17667,1,0,0:0:0:0:
192,192,17667,1,0,0:0:0:0:
320,192,17742,1,0,0:0:0:0:
448,192,17816,1,0,0:0:0:0:
320,192,17891,1,0,0:0:0:0:
64,192,17965,1,0,0:0:0:0:
192,192,17965,1,0,0:0:0:0:
448,192,18040,1,0,0:0:0:0:
320,192,18115,1,0,0:0:0:0:
448,192,18189,1,0,0:0:0:0:
192,192,18264,1,0,0:0:0:0:
64,192,18264,1,0,0:0:0:0:
320,192,18264,1,0,0:0:0:0:
192,192,18562,1,0,0:0:0:0:
320,192,18562,1,0,0:0:0:0:
448,192,18562,1,0,0:0:0:0:
64,192,18861,1,0,0:0:0:0:
192,192,18861,1,0,0:0:0:0:
448,192,18861,1,0,0:0:0:0:
448,192,19159,1,0,0:0:0:0:
320,192,19159,1,0,0:0:0:0:
64,192,19159,1,0,0:0:0:0:
192,192,19458,1,0,0:0:0:0:
448,192,19458,1,0,0:0:0:0:
320,192,19533,1,0,0:0:0:0:
192,192,19607,1,0,0:0:0:0:
64,192,19682,1,0,0:0:0:0:
192,192,19756,1,0,0:0:0:0:
448,192,19756,1,0,0:0:0:0:
320,192,19831,1,0,0:0:0:0:
192,192,19906,1,0,0:0:0:0:
64,192,19980,1,0,0:0:0:0:
192,192,20055,1,0,0:0:0:0:
448,192,20055,1,0,0:0:0:0:
320,192,20130,1,0,0:0:0:0:
192,192,20204,1,0,0:0:0:0:
64,192,20279,1,0,0:0:0:0:
192,192,20353,1,0,0:0:0:0:
448,192,20353,1,0,0:0:0:0:
320,192,20428,1,0,0:0:0:0:
192,192,20503,1,0,0:0:0:0:
64,192,20577,1,0,0:0:0:0:
448,192,20652,1,0,0:0:0:0:
320,192,20652,1,0,0:0:0:0:
64,192,20727,1,0,0:0:0:0:
192,192,20801,1,0,0:0:0:0:
320,192,20876,1,0,0:0:0:0:
64,192,20951,1,0,0:0:0:0:
448,192,20951,1,0,0:0:0:0:
192,192,21025,1,0,0:0:0:0:
320,192,21100,1,0,0:0:0:0:
448,192,21174,1,0,0:0:0:0:
320,192,21249,1,0,0:0:0:0:
64,192,21249,1,0,0:0:0:0:
192,192,21324,1,0,0:0:0:0:
320,192,21398,1,0,0:0:0:0:
448,192,21473,1,0,0:0:0:0:
64,192,21548,1,0,0:0:0:0:
320,192,21548,1,0,0:0:0:0:
192,192,21622,1,0,0:0:0:0:
320,192,21697,1,0,0:0:0:0:
448,192,21771,1,0,0:0:0:0:
192,192,21846,1,0,0:0:0:0:
320,192,21846,1,0,0:0:0:0:
64,192,21921,1,0,0:0:0:0:
320,192,21995,1,0,0:0:0:0:
448,192,22070,1,0,0:0:0:0:
192,192,22145,1,0,0:0:0:0:
320,192,22145,1,0,0:0:0:0:
64,192,22219,1,0,0:0:0:0:
320,192,22294,1,0,0:0:0:0:
448,192,22368,1,0,0:0:0:0:
192,192,22443,1,0,0:0:0:0:
320,192,22443,1,0,0:0:0:0:
64,192,22518,1,0,0:0:0:0:
320,192,22592,1,0,0:0:0:0:
448,192,22667,1,0,0:0:0:0:
192,192,22742,1,0,0:0:0:0:
320,192,22742,1,0,0:0:0:0:
64,192,22816,1,0,0:0:0:0:
320,192,22891,1,0,0:0:0:0:
448,192,22965,1,0,0:0:0:0:
320,192,23040,1,0,0:0:0:0:
64,192,23040,1,0,0:0:0:0:
448,192,23115,1,0,0:0:0:0:
320,192,23189,1,0,0:0:0:0:
192,192,23264,1,0,0:0:0:0:
64,192,23339,1,0,0:0:0:0:
320,192,23339,1,0,0:0:0:0:
448,192,23413,1,0,0:0:0:0:
320,192,23488,1,0,0:0:0:0:
192,192,23562,1,0,0:0:0:0:
320,192,23637,1,0,0:0:0:0:
64,192,23637,1,0,0:0:0:0:
448,192,23712,1,0,0:0:0:0:
320,192,23786,1,0,0:0:0:0:
192,192,23861,1,0,0:0:0:0:
64,192,23936,1,0,0:0:0:0:
320,192,23936,1,0,0:0:0:0:
448,192,24010,1,0,0:0:0:0:
320,192,24085,1,0,0:0:0:0:
192,192,24159,1,0,0:0:0:0:
448,192,24234,1,0,0:0:0:0:
64,192,24234,1,0,0:0:0:0:
192,192,24309,1,0,0:0:0:0:
320,192,24383,1,0,0:0:0:0:
192,192,24458,1,0,0:0:0:0:
64,192,24533,1,0,0:0:0:0:
448,192,24533,1,0,0:0:0:0:
192,192,24607,1,0,0:0:0:0:
320,192,24682,1,0,0:0:0:0:
192,192,24756,1,0,0:0:0:0:
64,192,24831,1,0,0:0:0:0:
448,192,24831,1,0,0:0:0:0:
192,192,24906,1,0,0:0:0:0:
320,192,24980,1,0,0:0:0:0:
192,192,25055,1,0,0:0:0:0:
64,192,25130,1,0,0:0:0:0:
448,192,25130,1,0,0:0:0:0:
192,192,25204,1,0,0:0:0:0:
320,192,25279,1,0,0:0:0:0:
192,192,25353,1,0,0:0:0:0:
320,192,25428,1,0,0:0:0:0:
448,192,25428,1,0,0:0:0:0:
64,192,25503,1,0,0:0:0:0:
192,192,25577,1,0,0:0:0:0:
64,192,25652,1,0,0:0:0:0:
320,192,25727,1,0,0:0:0:0:
448,192,25727,1,0,0:0:0:0:
64,192,25801,1,0,0:0:0:0:
192,192,25876,1,0,0:0:0:0:
64,192,25951,1,0,0:0:0:0:
320,192,26025,1,0,0:0:0:0:
448,192,26025,1,0,0:0:0:0:
64,192,26100,1,0,0:0:0:0:
192,192,26174,1,0,0:0:0:0:
64,192,26249,1,0,0:0:0:0:
320,192,26324,1,0,0:0:0:0:
448,192,26324,1,0,0:0:0:0:
64,192,26398,1,0,0:0:0:0:
192,192,26473,1,0,0:0:0:0:
64,192,26548,1,0,0:0:0:0:
192,192,26622,1,0,0:0:0:0:
448,192,26622,1,0,0:0:0:0:
320,192,26697,1,0,0:0:0:0:
64,192,26771,1,0,0:0:0:0:
320,192,26846,1,0,0:0:0:0:
448,192,26921,1,0,0:0:0:0:
192,192,26921,1,0,0:0:0:0:
320,192,26995,1,0,0:0:0:0:
64,192,27070,1,0,0:0:0:0:
320,192,27145,1,0,0:0:0:0:
192,192,27219,1,0,0:0:0:0:
448,192,27219,1,0,0:0:0:0:
320,192,27294,1,0,0:0:0:0:
64,192,27368,1,0,0:0:0:0:
320,192,27443,1,0,0:0:0:0:
192,192,27518,1,0,0:0:0:0:
448,192,27518,1,0,0:0:0:0:
320,192,27592,1,0,0:0:0:0:
64,192,27667,1,0,0:0:0:0:
320,192,27742,1,0,0:0:0:0:
192,192,27816,1,0,0:0:0:0:
64,192,27816,1,0,0:0:0:0:
320,192,27891,1,0,0:0:0:0:
448,192,27965,1,0,0:0:0:0:
320,192,28040,1,0,0:0:0:0:
192,192,28115,1,0,0:0:0:0:
448,192,28115,1,0,0:0:0:0:
320,192,28189,1,0,0:0:0:0:
192,192,28264,1,0,0:0:0:0:
64,192,28339,1,0,0:0:0:0:
192,192,28413,1,0,0:0:0:0:
320,192,28413,1,0,0:0:0:0:
448,192,28488,1,0,0:0:0:0:
320,192,28562,1,0,0:0:0:0:
192,192,28637,1,0,0:0:0:0:
320,192,28712,1,0,0:0:0:0:
448,192,28712,1,0,0:0:0:0:
64,192,28786,1,0,0:0:0:0:
192,192,28861,1,0,0:0:0:0:
320,192,28936,1,0,0:0:0:0:
64,192,29010,5,0,0:0:0:0:
448,192,29010,1,0,0:0:0:0:
192,192,29309,128,0,29756:0:0:0:0:
320,192,29756,1,0,0:0:0:0:
192,192,29906,1,0,0:0:0:0:
64,192,30055,1,0,0:0:0:0:
192,192,30204,1,0,0:0:0:0:
448,192,30204,1,0,0:0:0:0:
448,192,30503,128,0,31100:0:0:0:0:
192,192,31100,1,0,0:0:0:0:
320,192,31697,1,0,0:0:0:0:
192,192,31846,1,0,0:0:0:0:
64,192,31921,1,0,0:0:0:0:
320,192,32145,1,0,0:0:0:0:
192,192,32294,1,0,0:0:0:0:
64,192,32443,1,0,0:0:0:0:
320,192,32592,1,0,0:0:0:0:
448,192,32592,1,0,0:0:0:0:
64,192,32742,1,0,0:0:0:0:
320,192,32891,1,0,0:0:0:0:
192,192,33040,1,0,0:0:0:0:
448,192,33115,1,0,0:0:0:0:
64,192,33339,1,0,0:0:0:0:
320,192,33488,1,0,0:0:0:0:
192,192,33562,1,0,0:0:0:0:
64,192,33786,1,0,0:0:0:0:
320,192,33786,1,0,0:0:0:0:
192,192,34085,128,0,34383:0:0:0:0:
320,192,34383,1,0,0:0:0:0:
448,192,34533,128,0,34980:0:0:0:0:
64,192,34980,1,0,0:0:0:0:
320,192,35279,1,0,0:0:0:0:
64,192,35428,1,0,0:0:0:0:
320,192,35577,1,0,0:0:0:0:
192,192,35727,128,0,36025:0:0:0:0:
64,192,36174,1,0,0:0:0:0:
192,192,36324,1,0,0:0:0:0:
448,192,36473,1,0,0:0:0:0:
320,192,36622,128,0,36921:0:0:0:0:
192,192,36921,1,0,0:0:0:0:
64,192,37070,1,0,0:0:0:0:
192,192,37219,1,0,0:0:0:0:
448,192,37368,128,0,37965:0:0:0:0:
192,192,37965,128,0,38562:0:0:0:0:
64,192,38562,5,0,0:0:0:0:
448,192,38562,1,0,0:0:0:0:
320,192,38712,1,0,0:0:0:0:
448,192,38861,128,0,39309:0:0:0:0:
192,192,38861,1,0,0:0:0:0:
64,192,39010,1,0,0:0:0:0:
192,192,39085,1,0,0:0:0:0:
320,192,39309,128,0,39458:0:0:0:0:
64,192,39309,1,0,0:0:0:0:
448,192,39458,1,0,0:0:0:0:
192,192,39458,128,0,39607:0:0:0:0:
320,192,39607,1,0,0:0:0:0:
64,192,39607,128,0,39756:0:0:0:0:
320,192,39756,1,0,0:0:0:0:
320,192,39906,1,0,0:0:0:0:
192,192,40055,1,0,0:0:0:0:
448,192,40055,128,0,40503:0:0:0:0:
64,192,40204,1,0,0:0:0:0:
192,192,40279,1,0,0:0:0:0:
320,192,40503,128,0,40652:0:0:0:0:
192,192,40503,1,0,0:0:0:0:
192,192,40652,128,0,40801:0:0:0:0:
64,192,40652,1,0,0:0:0:0:
64,192,40801,128,0,40951:0:0:0:0:
448,192,40801,1,0,0:0:0:0:
320,192,40951,1,0,0:0:0:0:
448,192,41025,1,0,0:0:0:0:
448,192,41249,1,0,0:0:0:0:
64,192,41249,128,0,41473:0:0:0:0:
192,192,41473,128,0,41697:0:0:0:0:
448,192,41473,1,0,0:0:0:0:
320,192,41697,128,0,41846:0:0:0:0:
64,192,41697,1,0,0:0:0:0:
448,192,41846,128,0,41995:0:0:0:0:
64,192,41921,1,0,0:0:0:0:
320,192,41995,128,0,42145:0:0:0:0:
192,192,41995,1,0,0:0:0:0:
64,192,42070,1,0,0:0:0:0:
192,192,42145,1,0,0:0:0:0:
320,192,42443,1,0,0:0:0:0:
448,192,42443,1,0,0:0:0:0:
64,192,42592,1,0,0:0:0:0:
192,192,42667,1,0,0:0:0:0:
192,192,42891,1,0,0:0:0:0:
320,192,42891,1,0,0:0:0:0:
320,192,43040,1,0,0:0:0:0:
64,192,43040,1,0,0:0:0:0:
192,192,43115,1,0,0:0:0:0:
192,192,43339,1,0,0:0:0:0:
448,192,43339,1,0,0:0:0:0:
320,192,43488,1,0,0:0:0:0:
64,192,43637,128,0,43936:0:0:0:0:
448,192,43637,1,0,0:0:0:0:
320,192,43786,1,0,0:0:0:0:
448,192,43861,1,0,0:0:0:0:
192,192,43936,128,0,44085:0:0:0:0:
320,192,44085,128,0,44533:0:0:0:0:
448,192,44085,1,0,0:0:0:0:
64,192,44383,1,0,0:0:0:0:
192,192,44533,128,0,44831:0:0:0:0:
448,192,44533,1,0,0:0:0:0:
64,192,44607,1,0,0:0:0:0:
320,192,44831,128,0,45130:0:0:0:0:
448,192,44831,1,0,0:0:0:0:
192,192,44980,1,0,0:0:0:0:
64,192,45055,1,0,0:0:0:0:
192,192,45130,128,0,45279:0:0:0:0:
64,192,45279,128,0,45577:0:0:0:0:
448,192,45279,1,0,0:0:0:0:
192,192,45577,128,0,45727:0:0:0:0:
320,192,45577,1,0,0:0:0:0:
448,192,45727,128,0,46473:0:0:0:0:
320,192,45876,1,0,0:0:0:0:
192,192,46025,1,0,0:0:0:0:
64,192,46174,1,0,0:0:0:0:
192,192,46249,1,0,0:0:0:0:
320,192,46473,128,0,46771:0:0:0:0:
64,192,46473,1,0,0:0:0:0:
192,192,46771,128,0,47368:0:0:0:0:
448,192,46771,1,0,0:0:0:0:
448,192,47070,5,0,0:0:0:0:
320,192,47145,1,0,0:0:0:0:
64,192,47219,1,0,0:0:0:0:
320,192,47294,1,0,0:0:0:0:
448,192,47368,128,0,47667:0:0:0:0:
64,192,47368,1,0,0:0:0:0:
320,192,47443,1,0,0:0:0:0:
192,192,47592,1,0,0:0:0:0:
320,192,47667,1,0,0:0:0:0:
64,192,47742,1,0,0:0:0:0:
192,192,47816,1,0,0:0:0:0:
192,192,48115,5,0,0:0:0:0:
64,192,48115,1,0,0:0:0:0:
320,192,48189,1,0,0:0:0:0:
448,192,48264,1,0,0:0:0:0:
192,192,48339,1,0,0:0:0:0:
320,192,48413,1,0,0:0:0:0:
64,192,48413,1,0,0:0:0:0:
192,192,48562,1,0,0:0:0:0:
320,192,48637,1,0,0:0:0:0:
448,192,48712,1,0,0:0:0:0:
64,192,48712,1,0,0:0:0:0:
320,192,48786,1,0,0:0:0:0:
448,192,48936,1,0,0:0:0:0:
192,192,49085,1,0,0:0:0:0:
64,192,49085,1,0,0:0:0:0:
320,192,49234,1,0,0:0:0:0:
192,192,49309,1,0,0:0:0:0:
448,192,49309,1,0,0:0:0:0:
320,192,49383,1,0,0:0:0:0:
192,192,49458,1,0,0:0:0:0:
64,192,49533,1,0,0:0:0:0:
192,192,49607,1,0,0:0:0:0:
448,192,49607,1,0,0:0:0:0:
320,192,49682,1,0,0:0:0:0:
448,192,49756,1,0,0:0:0:0:
192,192,49831,1,0,0:0:0:0:
64,192,49906,1,0,0:0:0:0:
320,192,49906,1,0,0:0:0:0:
448,192,49980,1,0,0:0:0:0:
192,192,50055,1,0,0:0:0:0:
320,192,50130,1,0,0:0:0:0:
448,192,50204,1,0,0:0:0:0:
64,192,50204,1,0,0:0:0:0:
320,192,50279,1,0,0:0:0:0:
192,192,50353,1,0,0:0:0:0:
320,192,50428,1,0,0:0:0:0:
64,192,50503,1,0,0:0:0:0:
192,192,50503,1,0,0:0:0:0:
320,192,50577,1,0,0:0:0:0:
448,192,50577,1,0,0:0:0:0:
192,192,50801,1,0,0:0:0:0:
320,192,50801,1,0,0:0:0:0:
320,192,50951,1,0,0:0:0:0:
64,192,51025,1,0,0:0:0:0:
320,192,51398,1,0,0:0:0:0:
448,192,51398,1,0,0:0:0:0:
64,192,51548,1,0,0:0:0:0:
192,192,51622,1,0,0:0:0:0:
64,192,51846,1,0,0:0:0:0:
192,192,51921,1,0,0:0:0:0:
320,192,51995,1,0,0:0:0:0:
64,192,51995,1,0,0:0:0:0:
448,192,52070,1,0,0:0:0:0:
320,192,52145,1,0,0:0:0:0:
192,192,52219,1,0,0:0:0:0:
64,192,52294,1,0,0:0:0:0:
320,192,52294,1,0,0:0:0:0:
192,192,52368,1,0,0:0:0:0:
320,192,52443,1,0,0:0:0:0:
448,192,52518,1,0,0:0:0:0:
320,192,52592,1,0,0:0:0:0:
64,192,52592,1,0,0:0:0:0:
192,192,52667,1,0,0:0:0:0:
64,192,52742,1,0,0:0:0:0:
192,192,52816,1,0,0:0:0:0:
320,192,52891,1,0,0:0:0:0:
448,192,52891,1,0,0:0:0:0:
192,192,53115,1,0,0:0:0:0:
320,192,53189,1,0,0:0:0:0:
64,192,53189,1,0,0:0:0:0:
448,192,53264,1,0,0:0:0:0:
320,192,53339,1,0,0:0:0:0:
192,192,53413,1,0,0:0:0:0:
64,192,53488,1,0,0:0:0:0:
448,192,53488,1,0,0:0:0:0:
192,192,53562,1,0,0:0:0:0:
320,192,53637,1,0,0:0:0:0:
448,192,53712,1,0,0:0:0:0:
192,192,53786,1,0,0:0:0:0:
64,192,53786,1,0,0:0:0:0:
64,192,53936,1,0,0:0:0:0:
192,192,54010,1,0,0:0:0:0:
320,192,54085,1,0,0:0:0:0:
320,192,54234,1,0,0:0:0:0:
192,192,54383,1,0,0:0:0:0:
64,192,54533,1,0,0:0:0:0:
448,192,54607,1,0,0:0:0:0:
64,192,54682,1,0,0:0:0:0:
192,192,54682,1,0,0:0:0:0:
448,192,54756,1,0,0:0:0:0:
192,192,54831,1,0,0:0:0:0:
320,192,54980,1,0,0:0:0:0:
448,192,54980,1,0,0:0:0:0:
192,192,55055,1,0,0:0:0:0:
64,192,55130,1,0,0:0:0:0:
192,192,55204,1,0,0:0:0:0:
320,192,55279,5,0,0:0:0:0:
448,192,55279,1,0,0:0:0:0:
64,192,55353,1,0,0:0:0:0:
192,192,55428,1,0,0:0:0:0:
320,192,55503,1,0,0:0:0:0:
448,192,55577,1,0,0:0:0:0:
64,192,55577,1,0,0:0:0:0:
192,192,55652,1,0,0:0:0:0:
320,192,55727,1,0,0:0:0:0:
448,192,55801,1,0,0:0:0:0:
192,192,55876,1,0,0:0:0:0:
64,192,55876,1,0,0:0:0:0:
448,192,55951,1,0,0:0:0:0:
320,192,56025,1,0,0:0:0:0:
192,192,56100,1,0,0:0:0:0:
320,192,56174,1,0,0:0:0:0:
64,192,56174,1,0,0:0:0:0:
192,192,56249,1,0,0:0:0:0:
320,192,56324,1,0,0:0:0:0:
448,192,56398,1,0,0:0:0:0:
192,192,56473,5,0,0:0:0:0:
320,192,56473,128,0,57368:0:0:0:0:
64,192,56473,1,0,0:0:0:0:
192,192,56771,1,0,0:0:0:0:
448,192,56771,1,0,0:0:0:0:
448,192,57070,1,0,0:0:0:0:
64,192,57070,1,0,0:0:0:0:
192,192,57368,128,0,57667:0:0:0:0:
64,192,57368,1,0,0:0:0:0:
448,192,57368,1,0,0:0:0:0:
448,192,57667,1,0,0:0:0:0:
320,192,57667,1,0,0:0:0:0:
192,192,57816,1,0,0:0:0:0:
320,192,57816,1,0,0:0:0:0:
64,192,57965,1,0,0:0:0:0:
192,192,57965,1,0,0:0:0:0:
192,192,58115,1,0,0:0:0:0:
320,192,58115,1,0,0:0:0:0:
320,192,58264,1,0,0:0:0:0:
448,192,58264,1,0,0:0:0:0:
192,192,58413,1,0,0:0:0:0:
320,192,58413,1,0,0:0:0:0:
192,192,58562,128,0,58861:0:0:0:0:
64,192,58562,128,0,58861:0:0:0:0:
320,192,58861,1,0,0:0:0:0:
448,192,58861,1,0,0:0:0:0:
192,192,59010,1,0,0:0:0:0:
320,192,59010,1,0,0:0:0:0:
64,192,59159,1,0,0:0:0:0:
192,192,59159,1,0,0:0:0:0:
320,192,59309,1,0,0:0:0:0:
448,192,59309,1,0,0:0:0:0:
192,192,59458,1,0,0:0:0:0:
320,192,59458,1,0,0:0:0:0:
64,192,59607,1,0,0:0:0:0:
192,192,59607,1,0,0:0:0:0:
320,192,59756,1,0,0:0:0:0:
448,192,59756,1,0,0:0:0:0:
320,192,59906,1,0,0:0:0:0:
448,192,59906,1,0,0:0:0:0:
64,192,60055,1,0,0:0:0:0:
192,192,60055,1,0,0:0:0:0:
192,192,60204,1,0,0:0:0:0:
320,192,60204,1,0,0:0:0:0:
320,192,60353,1,0,0:0:0:0:
448,192,60353,1,0,0:0:0:0:
192,192,60503,1,0,0:0:0:0:
320,192,60503,1,0,0:0:0:0:
64,192,60652,1,0,0:0:0:0:
320,192,60652,1,0,0:0:0:0:
192,192,60801,1,0,0:0:0:0:
320,192,60801,1,0,0:0:0:0:
320,192,60951,1,0,0:0:0:0:
448,192,60951,1,0,0:0:0:0:
192,192,61100,1,0,0:0:0:0:
320,192,61100,1,0,0:0:0:0:
448,192,61249,1,0,0:0:0:0:
64,192,61249,1,0,0:0:0:0:
192,192,61398,1,0,0:0:0:0:
320,192,61398,1,0,0:0:0:0:
192,192,61548,1,0,0:0:0:0:
448,192,61548,1,0,0:0:0:0:
192,192,61697,1,0,0:0:0:0:
320,192,61697,1,0,0:0:0:0:
64,192,61846,1,0,0:0:0:0:
320,192,61846,1,0,0:0:0:0:
192,192,61995,1,0,0:0:0:0:
320,192,61995,1,0,0:0:0:0:
192,192,62145,128,0,62443:0:0:0:0:
64,192,62145,128,0,62443:0:0:0:0:
320,192,62443,1,0,0:0:0:0:
448,192,62443,1,0,0:0:0:0:
192,192,62592,1,0,0:0:0:0:
320,192,62592,1,0,0:0:0:0:
64,192,62742,1,0,0:0:0:0:
320,192,62742,1,0,0:0:0:0:
192,192,62891,1,0,0:0:0:0:
320,192,62891,1,0,0:0:0:0:
192,192,63040,1,0,0:0:0:0:
448,192,63040,1,0,0:0:0:0:
320,192,63189,1,0,0:0:0:0:
448,192,63189,1,0,0:0:0:0:
64,192,63339,1,0,0:0:0:0:
192,192,63339,1,0,0:0:0:0:
192,192,63488,1,0,0:0:0:0:
320,192,63488,1,0,0:0:0:0:
320,192,63637,1,0,0:0:0:0:
448,192,63637,1,0,0:0:0:0:
64,192,63786,1,0,0:0:0:0:
192,192,63786,1,0,0:0:0:0:
192,192,63936,1,0,0:0:0:0:
320,192,63936,1,0,0:0:0:0:
64,192,64085,1,0,0:0:0:0:
320,192,64085,1,0,0:0:0:0:
192,192,64234,1,0,0:0:0:0:
320,192,64234,1,0,0:0:0:0:
320,192,64383,1,0,0:0:0:0:
448,192,64383,1,0,0:0:0:0:
192,192,64533,1,0,0:0:0:0:
320,192,64533,1,0,0:0:0:0:
192,192,64682,1,0,0:0:0:0:
320,192,64682,1,0,0:0:0:0:
64,192,64831,1,0,0:0:0:0:
192,192,64831,1,0,0:0:0:0:
192,192,64980,1,0,0:0:0:0:
320,192,64980,1,0,0:0:0:0:
320,192,65130,1,0,0:0:0:0:
448,192,65130,1,0,0:0:0:0:
192,192,65279,1,0,0:0:0:0:
320,192,65279,1,0,0:0:0:0:
64,192,65428,1,0,0:0:0:0:
320,192,65428,1,0,0:0:0:0:
192,192,65577,1,0,0:0:0:0:
320,192,65577,1,0,0:0:0:0:
320,192,65727,1,0,0:0:0:0:
448,192,65727,1,0,0:0:0:0:
192,192,65876,1,0,0:0:0:0:
320,192,65876,1,0,0:0:0:0:
64,192,66025,1,0,0:0:0:0:
192,192,66025,1,0,0:0:0:0:
192,192,66174,1,0,0:0:0:0:
320,192,66174,1,0,0:0:0:0:
64,192,66324,1,0,0:0:0:0:
192,192,66324,1,0,0:0:0:0:
320,192,66473,1,0,0:0:0:0:
448,192,66473,1,0,0:0:0:0:
192,192,66622,1,0,0:0:0:0:
320,192,66622,1,0,0:0:0:0:
64,192,67219,5,0,0:0:0:0:
448,192,67518,128,0,67816:0:0:0:0:
320,192,67816,128,0,68040:0:0:0:0:
448,192,68040,128,0,68264:0:0:0:0:
64,192,68264,128,0,68413:0:0:0:0:
192,192,68413,5,0,0:0:0:0:
320,192,68413,1,0,0:0:0:0:
448,192,68413,1,0,0:0:0:0:
192,192,68562,1,0,0:0:0:0:
64,192,68562,1,0,0:0:0:0:
320,192,68712,1,0,0:0:0:0:
448,192,68786,1,0,0:0:0:0:
64,192,68936,1,0,0:0:0:0:
192,192,68936,1,0,0:0:0:0:
320,192,68936,1,0,0:0:0:0:
320,192,69159,1,0,0:0:0:0:
448,192,69159,1,0,0:0:0:0:
192,192,69309,1,0,0:0:0:0:
320,192,69309,1,0,0:0:0:0:
448,192,69383,1,0,0:0:0:0:
64,192,69458,1,0,0:0:0:0:
192,192,69458,1,0,0:0:0:0:
320,192,69533,1,0,0:0:0:0:
192,192,69607,1,0,0:0:0:0:
448,192,69607,1,0,0:0:0:0:
320,192,69682,1,0,0:0:0:0:
64,192,69756,1,0,0:0:0:0:
192,192,69756,1,0,0:0:0:0:
448,192,69831,1,0,0:0:0:0:
192,192,69906,1,0,0:0:0:0:
64,192,69906,1,0,0:0:0:0:
320,192,69980,1,0,0:0:0:0:
192,192,70055,1,0,0:0:0:0:
64,192,70055,1,0,0:0:0:0:
448,192,70130,1,0,0:0:0:0:
192,192,70204,1,0,0:0:0:0:
64,192,70204,1,0,0:0:0:0:
320,192,70279,1,0,0:0:0:0:
192,192,70353,1,0,0:0:0:0:
64,192,70353,1,0,0:0:0:0:
448,192,70428,1,0,0:0:0:0:
192,192,70503,1,0,0:0:0:0:
64,192,70503,1,0,0:0:0:0:
320,192,70577,1,0,0:0:0:0:
192,192,70652,1,0,0:0:0:0:
64,192,70652,1,0,0:0:0:0:
448,192,70727,1,0,0:0:0:0:
320,192,70801,1,0,0:0:0:0:
64,192,70801,1,0,0:0:0:0:
192,192,70876,1,0,0:0:0:0:
64,192,70951,1,0,0:0:0:0:
320,192,70951,1,0,0:0:0:0:
448,192,71025,1,0,0:0:0:0:
64,192,71100,1,0,0:0:0:0:
320,192,71100,1,0,0:0:0:0:
192,192,71174,1,0,0:0:0:0:
64,192,71249,1,0,0:0:0:0:
320,192,71249,1,0,0:0:0:0:
448,192,71324,1,0,0:0:0:0:
320,192,71398,1,0,0:0:0:0:
64,192,71398,1,0,0:0:0:0:
192,192,71473,1,0,0:0:0:0:
64,192,71548,1,0,0:0:0:0:
320,192,71548,1,0,0:0:0:0:
448,192,71622,1,0,0:0:0:0:
320,192,71697,1,0,0:0:0:0:
64,192,71697,1,0,0:0:0:0:
192,192,71771,1,0,0:0:0:0:
64,192,71846,1,0,0:0:0:0:
320,192,71846,1,0,0:0:0:0:
448,192,71921,1,0,0:0:0:0:
192,192,71995,1,0,0:0:0:0:
320,192,71995,1,0,0:0:0:0:
64,192,72070,1,0,0:0:0:0:
192,192,72145,1,0,0:0:0:0:
320,192,72145,1,0,0:0:0:0:
448,192,72219,1,0,0:0:0:0:
320,192,72294,1,0,0:0:0:0:
192,192,72294,1,0,0:0:0:0:
64,192,72368,1,0,0:0:0:0:
192,192,72443,1,0,0:0:0:0:
320,192,72443,1,0,0:0:0:0:
448,192,72518,1,0,0:0:0:0:
320,192,72592,1,0,0:0:0:0:
192,192,72592,1,0,0:0:0:0:
64,192,72667,1,0,0:0:0:0:
192,192,72742,1,0,0:0:0:0:
320,192,72742,1,0,0:0:0:0:
448,192,72816,1,0,0:0:0:0:
320,192,72891,1,0,0:0:0:0:
192,192,72891,1,0,0:0:0:0:
64,192,72965,1,0,0:0:0:0:
192,192,73040,1,0,0:0:0:0:
320,192,73040,1,0,0:0:0:0:
448,192,73115,1,0,0:0:0:0:
320,192,73189,1,0,0:0:0:0:
192,192,73189,1,0,0:0:0:0:
64,192,73264,1,0,0:0:0:0:
320,192,73339,1,0,0:0:0:0:
448,192,73339,1,0,0:0:0:0:
192,192,73413,1,0,0:0:0:0:
320,192,73488,1,0,0:0:0:0:
448,192,73488,1,0,0:0:0:0:
64,192,73562,1,0,0:0:0:0:
320,192,73637,1,0,0:0:0:0:
448,192,73637,1,0,0:0:0:0:
192,192,73712,1,0,0:0:0:0:
320,192,73786,1,0,0:0:0:0:
448,192,73786,1,0,0:0:0:0:
64,192,73861,1,0,0:0:0:0:
320,192,73936,1,0,0:0:0:0:
448,192,73936,1,0,0:0:0:0:
192,192,74010,1,0,0:0:0:0:
320,192,74085,1,0,0:0:0:0:
448,192,74085,1,0,0:0:0:0:
64,192,74159,1,0,0:0:0:0:
320,192,74234,1,0,0:0:0:0:
448,192,74234,1,0,0:0:0:0:
192,192,74309,1,0,0:0:0:0:
320,192,74383,1,0,0:0:0:0:
448,192,74383,1,0,0:0:0:0:
192,192,74458,1,0,0:0:0:0:
64,192,74533,1,0,0:0:0:0:
448,192,74533,1,0,0:0:0:0:
320,192,74607,1,0,0:0:0:0:
64,192,74682,1,0,0:0:0:0:
448,192,74682,1,0,0:0:0:0:
192,192,74756,1,0,0:0:0:0:
448,192,74831,1,0,0:0:0:0:
64,192,74831,1,0,0:0:0:0:
320,192,74906,1,0,0:0:0:0:
64,192,74980,1,0,0:0:0:0:
448,192,74980,1,0,0:0:0:0:
192,192,75055,1,0,0:0:0:0:
448,192,75130,1,0,0:0:0:0:
64,192,75130,1,0,0:0:0:0:
320,192,75204,1,0,0:0:0:0:
64,192,75279,1,0,0:0:0:0:
448,192,75279,1,0,0:0:0:0:
192,192,75353,1,0,0:0:0:0:
448,192,75428,1,0,0:0:0:0:
64,192,75428,1,0,0:0:0:0:
320,192,75503,1,0,0:0:0:0:
192,192,75577,1,0,0:0:0:0:
448,192,75577,1,0,0:0:0:0:
64,192,75652,1,0,0:0:0:0:
192,192,75727,1,0,0:0:0:0:
448,192,75727,1,0,0:0:0:0:
320,192,75801,1,0,0:0:0:0:
192,192,75876,1,0,0:0:0:0:
448,192,75876,1,0,0:0:0:0:
64,192,75951,1,0,0:0:0:0:
192,192,76025,1,0,0:0:0:0:
448,192,76025,1,0,0:0:0:0:
320,192,76100,1,0,0:0:0:0:
192,192,76174,1,0,0:0:0:0:
448,192,76174,1,0,0:0:0:0:
64,192,76249,1,0,0:0:0:0:
192,192,76324,1,0,0:0:0:0:
448,192,76324,1,0,0:0:0:0:
320,192,76398,1,0,0:0:0:0:
192,192,76473,1,0,0:0:0:0:
448,192,76473,1,0,0:0:0:0:
64,192,76548,1,0,0:0:0:0:
192,192,76622,1,0,0:0:0:0:
448,192,76622,1,0,0:0:0:0:
320,192,76697,1,0,0:0:0:0:
192,192,76771,5,0,0:0:0:0:
448,192,76771,1,0,0:0:0:0:
320,192,76846,1,0,0:0:0:0:
64,192,76921,1,0,0:0:0:0:
192,192,76921,1,0,0:0:0:0:
448,192,76995,1,0,0:0:0:0:
192,192,77070,1,0,0:0:0:0:
64,192,77070,1,0,0:0:0:0:
320,192,77145,1,0,0:0:0:0:
64,192,77219,1,0,0:0:0:0:
192,192,77219,1,0,0:0:0:0:
448,192,77294,1,0,0:0:0:0:
192,192,77368,1,0,0:0:0:0:
64,192,77368,1,0,0:0:0:0:
320,192,77443,1,0,0:0:0:0:
192,192,77518,1,0,0:0:0:0:
64,192,77518,1,0,0:0:0:0:
448,192,77592,1,0,0:0:0:0:
192,192,77667,1,0,0:0:0:0:
64,192,77667,1,0,0:0:0:0:
320,192,77742,1,0,0:0:0:0:
192,192,77816,1,0,0:0:0:0:
64,192,77816,1,0,0:0:0:0:
448,192,77891,1,0,0:0:0:0:
192,192,77965,5,0,0:0:0:0:
64,192,77965,1,0,0:0:0:0:
320,192,77965,1,0,0:0:0:0:
448,192,78040,1,0,0:0:0:0:
320,192,78115,1,0,0:0:0:0:
448,192,78189,1,0,0:0:0:0:
64,192,78264,1,0,0:0:0:0:
192,192,78264,1,0,0:0:0:0:
320,192,78264,1,0,0:0:0:0:
448,192,78339,1,0,0:0:0:0:
64,192,78413,1,0,0:0:0:0:
192,192,78488,1,0,0:0:0:0:
320,192,78562,1,0,0:0:0:0:
448,192,78562,1,0,0:0:0:0:
64,192,78562,1,0,0:0:0:0:
192,192,78637,1,0,0:0:0:0:
320,192,78712,1,0,0:0:0:0:
448,192,78786,1,0,0:0:0:0:
192,192,78861,1,0,0:0:0:0:
64,192,78861,1,0,0:0:0:0:
320,192,78861,1,0,0:0:0:0:
448,192,78936,1,0,0:0:0:0:
320,192,79010,1,0,0:0:0:0:
192,192,79085,1,0,0:0:0:0:
320,192,79159,1,0,0:0:0:0:
448,192,79159,1,0,0:0:0:0:
64,192,79234,1,0,0:0:0:0:
320,192,79309,1,0,0:0:0:0:
448,192,79309,1,0,0:0:0:0:
192,192,79383,1,0,0:0:0:0:
320,192,79458,1,0,0:0:0:0:
448,192,79458,1,0,0:0:0:0:
64,192,79533,1,0,0:0:0:0:
320,192,79607,1,0,0:0:0:0:
448,192,79607,1,0,0:0:0:0:
192,192,79682,1,0,0:0:0:0:
320,192,79756,1,0,0:0:0:0:
448,192,79756,1,0,0:0:0:0:
64,192,79831,1,0,0:0:0:0:
320,192,79906,1,0,0:0:0:0:
448,192,79906,1,0,0:0:0:0:
192,192,79980,1,0,0:0:0:0:
320,192,80055,1,0,0:0:0:0:
448,192,80055,1,0,0:0:0:0:
64,192,80130,1,0,0:0:0:0:
320,192,80204,1,0,0:0:0:0:
448,192,80204,1,0,0:0:0:0:
192,192,80279,1,0,0:0:0:0:
320,192,80353,1,0,0:0:0:0:
64,192,80353,1,0,0:0:0:0:
192,192,80428,1,0,0:0:0:0:
64,192,80503,1,0,0:0:0:0:
320,192,80503,1,0,0:0:0:0:
448,192,80577,1,0,0:0:0:0:
320,192,80652,1,0,0:0:0:0:
64,192,80652,1,0,0:0:0:0:
192,192,80727,1,0,0:0:0:0:
64,192,80801,1,0,0:0:0:0:
320,192,80801,1,0,0:0:0:0:
448,192,80876,1,0,0:0:0:0:
64,192,80951,1,0,0:0:0:0:
320,192,80951,1,0,0:0:0:0:
192,192,81025,1,0,0:0:0:0:
64,192,81100,1,0,0:0:0:0:
320,192,81100,1,0,0:0:0:0:
448,192,81174,1,0,0:0:0:0:
320,192,81249,1,0,0:0:0:0:
64,192,81249,1,0,0:0:0:0:
192,192,81324,1,0,0:0:0:0:
64,192,81398,1,0,0:0:0:0:
320,192,81398,1,0,0:0:0:0:
448,192,81473,1,0,0:0:0:0:
320,192,81548,1,0,0:0:0:0:
64,192,81548,1,0,0:0:0:0:
448,192,81622,1,0,0:0:0:0:
192,192,81697,1,0,0:0:0:0:
64,192,81697,1,0,0:0:0:0:
320,192,81771,1,0,0:0:0:0:
448,192,81846,1,0,0:0:0:0:
320,192,81921,1,0,0:0:0:0:
192,192,81995,1,0,0:0:0:0:
64,192,81995,1,0,0:0:0:0:
320,192,82070,1,0,0:0:0:0:
448,192,82145,1,0,0:0:0:0:
320,192,82219,1,0,0:0:0:0:
192,192,82294,1,0,0:0:0:0:
64,192,82294,1,0,0:0:0:0:
320,192,82368,1,0,0:0:0:0:
448,192,82443,1,0,0:0:0:0:
320,192,82518,1,0,0:0:0:0:
192,192,82592,1,0,0:0:0:0:
64,192,82592,1,0,0:0:0:0:
320,192,82667,1,0,0:0:0:0:
448,192,82742,1,0,0:0:0:0:
192,192,82742,1,0,0:0:0:0:
64,192,82816,1,0,0:0:0:0:
192,192,82891,1,0,0:0:0:0:
320,192,82891,1,0,0:0:0:0:
448,192,82965,1,0,0:0:0:0:
320,192,83040,1,0,0:0:0:0:
192,192,83040,1,0,0:0:0:0:
64,192,83115,1,0,0:0:0:0:
192,192,83189,1,0,0:0:0:0:
320,192,83189,1,0,0:0:0:0:
448,192,83264,1,0,0:0:0:0:
320,192,83339,1,0,0:0:0:0:
192,192,83339,1,0,0:0:0:0:
64,192,83413,1,0,0:0:0:0:
192,192,83488,1,0,0:0:0:0:
320,192,83488,1,0,0:0:0:0:
448,192,83562,1,0,0:0:0:0:
320,192,83637,1,0,0:0:0:0:
192,192,83637,1,0,0:0:0:0:
64,192,83712,1,0,0:0:0:0:
192,192,83786,1,0,0:0:0:0:
320,192,83786,1,0,0:0:0:0:
448,192,83861,1,0,0:0:0:0:
64,192,83936,1,0,0:0:0:0:
192,192,83936,1,0,0:0:0:0:
320,192,84010,1,0,0:0:0:0:
448,192,84085,1,0,0:0:0:0:
192,192,84085,1,0,0:0:0:0:
320,192,84159,1,0,0:0:0:0:
192,192,84234,1,0,0:0:0:0:
448,192,84234,1,0,0:0:0:0:
64,192,84309,1,0,0:0:0:0:
192,192,84383,1,0,0:0:0:0:
448,192,84383,1,0,0:0:0:0:
320,192,84458,1,0,0:0:0:0:
192,192,84533,1,0,0:0:0:0:
448,192,84533,1,0,0:0:0:0:
64,192,84607,1,0,0:0:0:0:
192,192,84682,1,0,0:0:0:0:
448,192,84682,1,0,0:0:0:0:
320,192,84756,1,0,0:0:0:0:
192,192,84831,1,0,0:0:0:0:
448,192,84831,1,0,0:0:0:0:
64,192,84906,1,0,0:0:0:0:
192,192,84980,1,0,0:0:0:0:
448,192,84980,1,0,0:0:0:0:
320,192,85055,1,0,0:0:0:0:
192,192,85130,1,0,0:0:0:0:
448,192,85130,1,0,0:0:0:0:
320,192,85204,1,0,0:0:0:0:
64,192,85279,1,0,0:0:0:0:
448,192,85279,1,0,0:0:0:0:
192,192,85353,1,0,0:0:0:0:
448,192,85428,1,0,0:0:0:0:
64,192,85428,1,0,0:0:0:0:
320,192,85503,1,0,0:0:0:0:
64,192,85577,1,0,0:0:0:0:
448,192,85577,1,0,0:0:0:0:
192,192,85652,1,0,0:0:0:0:
64,192,85727,1,0,0:0:0:0:
448,192,85727,1,0,0:0:0:0:
320,192,85801,1,0,0:0:0:0:
64,192,85876,1,0,0:0:0:0:
448,192,85876,1,0,0:0:0:0:
192,192,85951,1,0,0:0:0:0:
448,192,86025,1,0,0:0:0:0:
64,192,86025,1,0,0:0:0:0:
320,192,86100,1,0,0:0:0:0:
64,192,86174,1,0,0:0:0:0:
448,192,86174,1,0,0:0:0:0:
192,192,86249,1,0,0:0:0:0:
64,192,86324,5,0,0:0:0:0:
448,192,86324,1,0,0:0:0:0:
320,192,86398,1,0,0:0:0:0:
448,192,86473,1,0,0:0:0:0:
192,192,86473,1,0,0:0:0:0:
320,192,86548,1,0,0:0:0:0:
192,192,86622,1,0,0:0:0:0:
64,192,86622,1,0,0:0:0:0:
320,192,86697,1,0,0:0:0:0:
64,192,86771,1,0,0:0:0:0:
448,192,86771,1,0,0:0:0:0:
192,192,86846,1,0,0:0:0:0:
320,192,86921,1,0,0:0:0:0:
448,192,86921,1,0,0:0:0:0:
192,192,86995,1,0,0:0:0:0:
64,192,87070,1,0,0:0:0:0:
320,192,87070,1,0,0:0:0:0:
192,192,87145,1,0,0:0:0:0:
448,192,87219,1,0,0:0:0:0:
64,192,87219,1,0,0:0:0:0:
320,192,87294,1,0,0:0:0:0:
192,192,87368,1,0,0:0:0:0:
64,192,87368,1,0,0:0:0:0:
320,192,87443,1,0,0:0:0:0:
192,192,87518,5,0,0:0:0:0:
448,192,87518,1,0,0:0:0:0:
64,192,87518,1,0,0:0:0:0:
320,192,87592,1,0,0:0:0:0:
192,192,87667,1,0,0:0:0:0:
448,192,87667,1,0,0:0:0:0:
64,192,87742,1,0,0:0:0:0:
192,192,87816,1,0,0:0:0:0:
320,192,87816,1,0,0:0:0:0:
448,192,87816,1,0,0:0:0:0:
64,192,87891,1,0,0:0:0:0:
192,192,87965,1,0,0:0:0:0:
320,192,87965,1,0,0:0:0:0:
448,192,88040,1,0,0:0:0:0:
64,192,88115,1,0,0:0:0:0:
192,192,88115,1,0,0:0:0:0:
320,192,88115,1,0,0:0:0:0:
448,192,88189,1,0,0:0:0:0:
192,192,88264,1,0,0:0:0:0:
64,192,88264,1,0,0:0:0:0:
320,192,88339,1,0,0:0:0:0:
192,192,88413,1,0,0:0:0:0:
64,192,88413,1,0,0:0:0:0:
448,192,88413,1,0,0:0:0:0:
320,192,88488,1,0,0:0:0:0:
448,192,88562,1,0,0:0:0:0:
192,192,88562,1,0,0:0:0:0:
64,192,88637,1,0,0:0:0:0:
192,192,88712,1,0,0:0:0:0:
320,192,88712,1,0,0:0:0:0:
