osu file format v9

[General]
AudioFilename: md.mp3
AudioLeadIn: 1496
PreviewTime: 14832
Countdown: 0
SampleSet: Soft
StackLeniency: 0.4
Mode: 0
LetterboxInBreaks: 1

[Editor]
DistanceSpacing: 1.1
BeatDivisor: 4
GridSize: 4

[Metadata]
Title:Midnight Driving
Artist:Komiya Mao
Creator:IceBeam
Version:Easy
Source:
Tags:reiji-rj trance bms yassu

[Difficulty]
HPDrainRate:2
CircleSize:4
OverallDifficulty:2
ApproachRate:3
SliderMultiplier:0.8
SliderTickRate:1

[Events]
//Background and Video events
0,0,"bg.png"
//Break Periods
2,43689,56377
//Storyboard Layer 0 (Background)
//Storyboard Layer 1 (Fail)
//Storyboard Layer 2 (Pass)
//Storyboard Layer 3 (Foreground)
//Storyboard Sound Samples
//Background Colour Transformations
3,100,0,0,0

[TimingPoints]
504,447.761194029851,4,2,0,50,1,0
7668,-100,4,1,0,50,0,0
14832,-100,4,1,0,50,0,0
71921,-100,4,1,0,60,0,0
72369,-100,4,2,0,60,0,0
72817,-100,4,1,0,60,0,0
73265,-100,4,2,0,60,0,0
73712,-100,4,1,0,60,0,0
74160,-100,4,2,0,60,0,0
75504,-100,4,1,0,60,0,0
75951,-100,4,2,0,60,0,0
76399,-100,4,1,0,60,0,0
76847,-100,4,2,0,60,0,0
77295,-100,4,1,0,50,0,0
79533,-100,4,2,0,60,0,0
79981,-100,4,1,0,60,0,0
80429,-100,4,2,0,60,0,0
80877,-100,4,1,0,60,0,0
82220,-100,4,2,0,60,0,0
82668,-100,4,1,0,60,0,0
83115,-100,4,2,0,60,0,0
84459,-100,4,1,0,60,0,0
86250,-100,4,1,0,50,0,0
104384,-100,4,1,0,60,0,1
111436,-100,4,1,0,60,0,0
111548,-100,4,1,0,60,0,1
116809,-100,4,1,0,60,0,0
116921,-100,4,1,0,40,0,1
117257,-100,4,1,0,40,0,0
117369,-100,4,1,0,45,0,1
117705,-100,4,1,0,45,0,0
117817,-100,4,1,0,50,0,1
118153,-100,4,1,0,50,0,0
118265,-100,4,1,0,55,0,1
118601,-100,4,1,0,55,0,0
118712,-100,4,1,0,60,0,1
125765,-100,4,1,0,60,0,0
125877,-100,4,1,0,60,0,1
131138,-100,4,1,0,60,0,0
131250,-100,4,1,0,40,0,1
131586,-100,4,1,0,40,0,0
131698,-100,4,1,0,45,0,1
132033,-100,4,1,0,45,0,0
132145,-100,4,1,0,50,0,1
132481,-100,4,1,0,50,0,0
132593,-100,4,1,0,55,0,1
132929,-100,4,1,0,55,0,0
133041,-100,4,1,0,60,0,1
133153,-100,4,1,0,60,0,0

[Colours]
Combo1 : 253,207,204
Combo2 : 12,56,86
Combo3 : 50,158,199
Combo4 : 222,238,250
Combo5 : 121,7,4
Combo6 : 243,35,35

[HitObjects]
180,52,504,2,0,B|212:72|244:116|240:188|200:236|140:244,1,240,0|0
100,316,2295,2,0,B|124:272|196:228|284:252|320:284,1,240,0|0
380,336,4086,6,0,B|420:260|384:220|348:184|380:88,1,240,0|0
304,52,5877,1,0
304,52,6324,2,0,B|144:60,1,160
56,68,7668,5,4
148,320,9235,1,0
148,320,9459,1,0
288,88,11026,1,0
288,88,11250,54,0,B|384:92,1,80,0|0
344,176,12145,2,0,B|248:172,1,80,0|0
196,232,13041,2,0,B|212:264|196:292|176:320|200:348,2,120,4|0|0
108,244,14832,5,4
48,176,15280,2,0,B|0:104|48:20,1,160,8|8
124,64,16623,1,0
124,64,17071,2,0,B|208:56|284:56,1,160,8|8
356,104,18414,6,0,B|404:68|484:100,2,120,0|0|8
316,184,20205,2,0,B|288:248|332:308,2,120,0|0|8
268,108,21996,53,4
200,164,22444,2,0,B|156:244|48:208,1,160,8|8
24,132,23787,1,0
24,132,24235,2,0,B|32:216|48:304,1,160,8|8
132,280,25578,6,0,B|122:217|112:144,2,120,0|0|8
216,260,27369,2,0,B|252:236|308:252,1,80,4|4
344,320,28265,2,0,B|308:344|252:328,1,80,4|4
180,336,29160,5,4
180,336,29608,2,0,B|140:316|124:264|136:212|172:184,1,160,8|8
104,128,30951,1,0
180,80,31399,2,0,B|216:60|256:80|256:80|296:60|344:84,1,160,8|8
392,148,32742,54,0,B|432:104|412:32,2,120,0|0|8
328,208,34533,2,0,B|288:252|308:324,2,120,0|0|8
304,124,36324,5,4
220,92,36772,2,0,B|144:100|56:104,1,160,8|8
52,192,38115,1,0
52,192,38563,2,0,B|20:284|84:348,1,160,8|8
156,304,39906,6,0,B|220:280|288:324,2,120,0|0|8
140,216,41698,1,0
256,192,41809,12,4,43489
48,72,57817,53,4
108,132,58265,2,0,B|88:216|136:300,1,160,8|8
64,348,59608,1,0
64,348,60056,2,0,B|72:316|112:280|180:280|212:308,1,160,8|8
280,332,61399,6,0,B|328:336|368:320,1,80,0|8
424,264,62295,2,0,B|428:216|428:172,1,80,0|8
352,140,63190,2,0,B|296:108|312:24,2,120,0|0|8
432,100,64981,5,4
428,188,65429,2,0,B|408:220|360:240|308:228|276:192,1,160,8|8
212,156,66772,1,0
132,192,67220,2,0,B|152:248|136:272|120:296|148:360,1,160,8|8
220,304,68563,53,0
348,340,69235,2,0,B|420:336|480:332,1,120,0|8
468,244,70354,1,0
352,176,71026,2,0,B|368:116|344:48,1,120,0|8
260,60,72145,6,0,B|200:68|168:68,1,80,4|2
116,132,73041,2,0,B|120:176|124:220,1,80,0|2
40,188,73936,1,0
40,188,74384,2,0,B|48:268|56:360,1,160,2|2
144,348,75727,6,0,B|184:348|228:332,1,80,0|2
288,276,76623,2,0,B|268:244|280:188,1,80,0|2
224,128,77518,2,0,B|288:96|348:140,2,120,2|2|2
144,88,79309,54,0,B|92:96|52:100,1,80,4|2
68,188,80205,2,0,B|120:180|160:176,1,80,0|2
212,236,81101,2,0,B|208:304|204:372,2,120,0|0|2
212,148,82892,5,0
212,148,83339,2,0,B|292:136|384:128,1,160,2|2
456,108,84683,2,0,B|464:60|452:16,1,80,4|4
372,60,85578,2,0,B|364:108|376:152,1,80,4|4
440,196,86474,5,4
388,264,86921,2,0,B|304:224|224:288,1,160,8|8
204,360,88265,1,0
204,360,88712,2,0,B|168:344|140:296|148:244|180:208,1,160,8|8
120,148,90056,53,0
176,80,90504,2,0,B|228:60|255:79|280:96|348:72,1,160,8|8
408,124,91847,2,0,B|408:176|424:220,1,80,0|8
400,288,92742,2,0,B|364:304|320:304,1,80,0|8
240,272,93638,5,4
240,272,94086,2,0,B|264:248|280:200|260:136|228:116,1,160,8|8
188,52,95429,1,0
136,124,95877,2,0,B|112:148|96:196|116:260|148:280,1,160,8|8
200,332,97220,6,0,B|240:332|296:328,1,80,0|8
324,248,98115,2,0,B|324:208|320:164,1,80,0|8
232,172,99011,2,0,B|232:212|236:256,1,80,0|8
280,328,99906,2,0,B|324:324|372:324,1,80,0|8
448,324,100802,53,4
452,328,102593,6,0,B|456:280|456:248,1,80,4|4
368,264,103489,2,0,B|372:216|372:184,1,80,4|4
284,204,104384,22,0,B|288:140|292:76,2,120,4|0|8
232,276,106175,2,0,B|184:280|148:284,1,80,0|8
88,224,107071,2,0,B|72:188|76:140,1,80,0|8
40,64,107966,5,0
40,64,108414,2,0,B|96:48|120:64|140:80|200:60,1,160,8|8
280,36,109757,1,2
404,76,110429,2,0,B|396:140|388:208,1,120,2|2
308,224,111548,6,0,B|256:192|180:224,2,120,4|0|8
384,264,113339,1,0
460,216,113787,2,0,B|496:140|448:60,1,160,8|8
364,80,115130,53,0
296,192,115802,2,0,B|288:284|284:328,1,120,0|8
196,308,116921,2,0,B|136:312|112:312,1,80,4|4
112,224,117817,2,0,B|172:220|196:220,1,80,4|4
240,144,118712,6,0,B|216:92|224:20,2,120,4|0|8
328,144,120504,2,0,B|364:124|416:136,1,80,0|8
388,220,121399,2,0,B|352:240|300:228,1,80,0|8
240,176,122295,5,0
240,176,122742,2,0,B|220:212|220:264|244:308|296:316,1,160,8|8
364,340,124086,1,2
436,228,124757,2,0,B|440:172|448:108,1,120,2|2
360,92,125877,54,0,B|324:44|240:52,2,120,4|0|8
448,88,127668,1,0
448,88,128115,2,0,B|456:116|444:160|400:188|348:180,1,160,8|8
264,152,129459,6,0,B|252:120|204:96|144:100|112:128,2,160,0|0|4
284,240,131698,2,0,B|268:288|296:332,2,80,4|4|4
340,172,133041,5,4
