osu file format v9

[General]
AudioFilename: midnight.mp3
AudioLeadIn: 2500
PreviewTime: 14832
Countdown: 1
SampleSet: Normal
StackLeniency: 0.7
Mode: 0
LetterboxInBreaks: 1

[Editor]
DistanceSpacing: 1.5
BeatDivisor: 4
GridSize: 4

[Metadata]
Title:Midnight Driving
Artist:Komiya Mao
Creator:Alace
Version:Another
Source:
Tags:

[Difficulty]
HPDrainRate:7
CircleSize:5
OverallDifficulty:7
ApproachRate:8
SliderMultiplier:1.6
SliderTickRate:1

[Events]
//Background and Video events
0,0,"md.png"
//Break Periods
//Storyboard Layer 0 (Background)
//Storyboard Layer 1 (Fail)
//Storyboard Layer 2 (Pass)
//Storyboard Layer 3 (Foreground)
//Storyboard Sound Samples
//Background Colour Transformations
3,100,0,0,0

[TimingPoints]
504,447.761194029851,4,2,1,60,1,0
6101,-100,4,2,1,50,0,0
6548,-100,4,2,1,40,0,0
6996,-100,4,2,1,30,0,0
7556,-100,4,2,1,60,0,0
7780,-100,4,2,1,40,0,0
9123,-100,4,1,1,40,0,0
9571,-100,4,2,1,50,0,0
9906,-100,4,2,1,60,0,0
10354,-100,4,2,1,68,0,0
10914,-100,4,1,1,40,0,0
12929,-100,4,2,1,70,0,0
14832,-100,4,1,1,70,0,0
41586,-100,4,1,1,50,0,0
43489,-100,4,2,1,75,0,0
43712,-100,4,1,1,50,0,0
58041,-100,4,1,1,60,0,0
72145,-100,4,2,1,60,0,0
74384,-100,4,2,1,65,0,0
74832,-100,4,2,1,70,0,0
82780,-100,4,1,1,30,0,0
83339,-100,4,1,1,40,0,0
83787,-100,4,1,1,50,0,0
84235,-100,4,1,1,60,0,0
84683,-100,4,2,1,70,0,0
86367,-100,4,1,1,70,0,0
100578,-100,4,2,1,70,0,0
101026,-100,4,1,1,50,0,0
102145,-100,4,2,1,70,0,0
104272,-100,4,1,1,70,0,0
104384,-100,4,1,1,70,0,1
133041,-100,4,1,1,70,0,0

[Colours]
Combo1 : 253,173,9
Combo2 : 11,101,251
Combo3 : 215,43,86

[HitObjects]
388,260,504,1,2
336,220,727,1,0
388,180,951,1,0
440,220,1175,1,2
440,220,1287,1,2
440,220,1847,5,2
388,260,2071,1,2
336,220,2295,1,2
256,84,2966,1,2
336,220,3638,5,2
388,260,3862,1,2
440,220,4086,1,2
256,84,4757,1,2
72,220,5429,5,2
124,260,5653,1,2
176,220,5877,1,2
256,84,6324,1,2
336,220,6772,1,2
256,84,7220,1,2
256,84,7444,1,2
216,160,7668,6,0,B|180:128|136:128,1,80,4|2
20,184,8115,2,0,B|48:140|92:136,1,80,2|2
116,128,8451,1,2
132,208,8675,1,2
132,208,8787,2,0,B|156:296,1,80,2|2
184,368,9235,1,0
244,304,9459,1,0
332,288,9683,1,2
332,288,10130,5,2
332,288,10578,5,2
376,204,10802,1,2
416,116,11026,1,0
340,56,11250,5,0
108,120,11698,1,0
196,344,12145,1,0
428,280,12593,1,0
428,280,12817,1,0
480,200,13041,5,0
403,176,13265,1,2
326,153,13489,1,2
326,153,13601,1,2
250,129,13824,1,2
239,126,13936,1,0
227,122,14048,1,0
216,119,14160,1,2
204,115,14272,1,0
193,112,14384,1,0
181,108,14496,1,2
170,105,14608,1,2
128,196,14832,6,0,B|108:232|56:256,2,80,4|2|8
212,224,15504,1,2
224,220,15615,1,0
312,236,15839,1,0
300,240,15950,1,2
384,212,16175,2,0,B|468:188,1,80,8|2
372,288,16623,6,0,B|392:324|444:348,2,80,0|2|8
288,316,17295,1,2
276,312,17406,1,0
188,328,17630,1,0
200,332,17741,1,2
116,304,17966,2,0,B|32:280,1,80,8|2
160,240,18414,5,0
176,200,18526,1,0
208,168,18638,1,2
252,156,18750,1,0
296,168,18862,1,8
380,84,19086,1,10
380,84,19198,1,0
420,196,19421,1,0
420,196,19533,1,2
340,284,19757,2,0,B|256:320,1,80,8|10
232,336,20093,1,0
196,352,20205,6,0,B|132:352|104:264,1,120,2|2
104,264,20653,1,8
132,164,20877,1,10
140,180,20989,1,0
208,256,21212,1,2
200,240,21324,1,8
296,196,21548,1,10
336,184,21660,1,2
376,172,21772,1,10
432,100,21996,6,0,B|456:56|504:60,2,80,4|2|8
340,68,22668,1,2
320,100,22780,1,0
256,28,23004,1,0
216,52,23115,1,2
72,56,23339,2,0,B|100:88|148:80,1,80,8|2
180,88,23675,1,2
212,124,23787,6,0,B|224:160|208:204,2,80,0|2|8
304,152,24459,1,2
316,116,24571,1,0
392,172,24795,1,0
420,152,24906,1,2
460,240,25130,1,8
484,332,25354,1,2
380,336,25578,5,0
336,328,25690,1,0
300,304,25802,1,2
276,268,25914,1,0
272,224,26026,1,8
156,248,26250,1,10
156,248,26362,1,0
208,140,26586,1,0
208,140,26698,1,2
308,72,26921,2,0,B|340:36|384:40,1,80,8|10
420,44,27257,1,0
460,48,27369,5,4
216,120,27817,1,4
264,372,28265,1,4
508,300,28713,1,4
508,300,28824,1,0
508,300,28936,1,4
508,300,29048,1,0
508,300,29160,6,0,B|468:304|436:264,1,80,4|2
320,200,29608,2,0,B|360:196|392:236,1,80,8|2
444,208,29944,2,0,B|496:184|492:136,1,80
488,108,30280,1,2
464,76,30392,1,0
428,56,30504,2,0,B|400:24|352:40,1,80,8|2
232,56,30951,6,0,B|268:73|275:123,1,80,0|2
341,238,31399,2,0,B|304:220|297:170,1,80,8|2
239,167,31735,2,0,B|182:160|160:203,1,80
150,230,32071,1,2
154,270,32183,1,0
174,306,32295,2,0,B|181:347|230:358,1,80,8|2
288,300,32742,5,0
328,264,32854,1,0
376,244,32966,1,2
428,252,33078,1,0
480,268,33190,1,8
460,148,33414,1,10
460,148,33526,1,0
376,64,33750,1,0
376,64,33862,1,2
260,28,34086,2,0,B|216:28|188:72,1,80,8|10
164,108,34421,1,0
204,144,34533,6,0,B|140:172|112:92,1,120,2|2
112,88,34981,1,8
28,176,35205,1,10
28,176,35317,1,0
144,208,35541,1,2
144,208,35653,1,8
252,260,35877,1,10
332,352,36101,1,10
368,240,36324,6,0,B|416:236|432:196,1,80,4|2
340,76,36772,2,0,B|388:80|404:120,1,80,8|2
424,152,37108,1,0
432,192,37220,1,0
412,228,37332,1,0
372,240,37444,1,2
332,228,37556,1,0
300,204,37668,2,0,B|224:228,1,80,8|2
176,148,38115,6,0,B|130:165|126:207,1,80,0|2
248,297,38563,2,0,B|200:306|174:272,1,80,8|2
146,248,38899,1,0
127,211,39011,1,0
137,171,39123,1,0
172,149,39235,1,2
213,149,39347,1,0
251,163,39459,2,0,B|317:118,1,80,8|2
452,64,39906,6,0,B|408:48|372:92,1,80,0|2
360,224,40354,2,0,B|395:193|375:140,1,80,8|10
376,140,40690,1,0
308,248,40914,1,0
296,252,41026,1,2
164,308,41250,2,0,B|240:276,1,80,8|2
100,280,41698,6,0,B|76:244,3,40
128,160,42145,2,0,B|104:196,3,40
196,148,42593,2,0,B|172:112,3,40
224,28,43040,2,0,B|200:64,3,40
280,48,43489,5,4
400,96,43936,1,0
280,48,44384,1,0
312,104,44608,2,0,B|332:136|312:188,2,80
252,124,45280,2,0,B|180:144|108:192,3,160
48,220,46847,1,0
100,260,47071,1,0
368,336,47518,5,0
300,316,47742,1,0
300,316,47854,1,0
300,316,47966,2,0,B|220:288,1,80
296,240,48414,2,0,B|376:268,1,80
400,200,48862,2,0,B|360:176|356:132,1,80
460,104,49309,1,0
336,68,49533,1,0
336,68,49645,1,0
336,68,49757,2,0,B|288:48|264:96,1,80
152,160,50205,1,0
152,160,50317,1,0
152,160,50429,2,0,B|200:180|224:132,1,80
180,284,51101,5,0
222,234,51324,1,0
282,259,51548,1,0
277,324,51772,1,0
213,338,51996,1,0
232,288,52444,5,0
232,288,52892,5,0
190,238,53115,1,0
130,263,53339,1,0
135,328,53563,1,0
199,342,53787,1,0
364,204,54235,6,0,B|384:252|428:240,2,80
312,156,54906,1,0
312,156,55018,1,0
312,156,55130,1,0
264,100,55354,2,0,B|244:52|200:64,2,80
124,56,56026,5,0
52,108,56250,1,0
124,56,56474,1,0
116,144,56698,1,0
156,160,56809,1,0
180,196,56921,1,0
236,264,57145,1,0
300,324,57369,1,8
340,308,57480,1,0
364,272,57592,1,8
480,200,57817,6,0,B|440:188|400:220,1,80,4|2
276,160,58265,2,0,B|316:148|356:180,1,80,8|2
364,220,58601,2,0,B|352:280|288:320,1,120,8|2
152,364,59160,2,0,B|228:340,1,80,8|10
96,320,59608,2,0,B|20:344,1,80,0|2
24,256,60056,1,8
148,76,60392,1,8
300,232,60727,1,0
368,208,60951,1,8
380,204,61063,1,0
392,200,61175,1,8
404,196,61287,1,0
416,192,61399,1,0
404,104,61623,5,2
404,104,61735,1,0
404,104,61847,2,0,B|336:56,1,80,8|2
296,44,62183,2,0,B|236:80|216:136,1,120,8|2
144,84,62742,1,8
108,92,62854,1,0
80,112,62966,1,10
64,144,63078,1,0
68,180,63190,2,0,B|80:232|120:252,1,80,0|2
176,276,63638,1,8
384,332,63974,1,8
256,160,64309,1,8
256,88,64533,1,8
256,84,64645,1,0
256,80,64757,1,8
340,124,64981,5,4
440,92,65205,1,2
340,124,65429,1,8
420,188,65653,1,2
420,188,65765,2,0,B|408:248|360:288,1,120,8|10
260,320,66324,1,8
160,348,66548,1,2
88,248,66772,5,0
40,148,66996,1,2
88,248,67220,1,8
140,148,67444,1,2
140,148,67556,2,0,B|200:120|212:48,1,120,8|10
296,76,68115,1,8
332,88,68227,1,0
368,100,68339,1,2
460,188,68563,5,0
344,212,68787,1,2
460,188,69011,1,8
376,276,69235,1,2
376,276,69347,2,0,B|316:288|272:228,1,120,8|10
180,256,69906,1,8
132,268,70018,1,0
84,280,70130,1,2
104,184,70354,6,0,B|76:144,3,40,0|0|2|0
156,76,70802,2,0,B|128:116,3,40,0|0|2|0
208,184,71250,2,0,B|180:144,3,40,0|0|2|0
260,76,71698,2,0,B|232:116,3,40,2|0|2|0
264,132,72145,5,6
300,144,72257,1,2
328,164,72369,1,2
348,192,72481,1,2
360,228,72593,1,2
368,300,72817,1,2
332,288,72929,1,2
304,268,73041,1,2
284,240,73153,1,2
272,204,73265,1,2
204,228,73489,2,2,B|156:248,1,40
60,240,73824,2,2,B|108:220,1,40
108,144,74160,5,2
136,116,74272,1,2
160,76,74384,5,2
196,108,74496,1,0
236,132,74608,1,2
284,140,74720,1,0
308,92,74832,5,2
356,68,74944,1,0
408,64,75056,1,2
456,80,75168,1,0
496,116,75280,2,0,B|496:164|464:200,1,80,2|2
440,300,75727,6,0,B|412:268,1,40,2|2
296,256,76063,2,0,B|337:247,1,40,2|2
408,156,76399,2,0,B|394:196,2,40,2|2|2
436,80,76847,1,2
356,92,77071,1,0
276,108,77295,1,2
276,108,77406,1,0
276,108,77518,1,0
180,112,77742,5,2
152,84,77854,1,2
108,96,77966,5,2
120,140,78078,1,0
120,184,78190,1,2
112,228,78302,1,0
160,216,78414,5,2
156,264,78526,1,0
160,312,78638,1,2
172,360,78750,1,0
204,320,78862,5,2
216,268,78974,1,0
220,216,79086,1,2
204,168,79198,1,0
252,184,79309,6,0,B|332:216,1,80,0|2
324,296,79757,1,2
360,312,79869,1,0
396,328,79981,1,2
432,344,80093,1,0
436,300,80205,5,2
400,272,80317,1,0
368,240,80429,1,2
336,208,80541,1,0
376,188,80653,5,2
396,144,80765,1,0
412,100,80877,1,2
428,56,80989,1,0
384,76,81101,6,0,B|336:92|304:64,1,80,2|2
292,156,81548,2,0,B|242:145|228:105,1,80,2|2
172,200,81996,2,0,B|134:166|142:124,1,80,2|2
52,188,82444,2,0,B|35:139|64:107,1,80,2|2
64,228,82892,5,0
92,268,83004,1,0
136,288,83115,1,0
184,276,83227,1,0
200,232,83339,5,0
232,268,83451,1,0
280,256,83563,1,0
292,208,83675,1,0
324,172,83787,5,0
348,132,83899,1,0
392,112,84011,1,0
440,124,84123,1,0
476,156,84235,5,0
492,200,84347,1,0
484,248,84459,1,0
468,292,84571,1,0
428,316,84683,5,4
180,372,85130,1,4
428,316,85578,1,4
180,372,86025,1,4
180,372,86250,1,4
88,272,86474,6,0,B|136:268|156:228,1,80,4|0
264,136,86921,2,0,B|216:140|196:180,1,80,8|8
68,36,87369,1,0
264,136,87593,1,0
88,272,87817,1,8
128,136,88265,6,0,B|136:180|176:204,1,80,0|0
268,312,88712,2,0,B|260:268|220:244,1,80,8|8
344,296,89160,1,0
344,296,89272,1,0
344,296,89384,2,0,B|424:280,2,80,0|8|8
472,200,90056,6,0,B|424:200|404:160,1,80
316,56,90504,2,0,B|364:56|384:96,1,80,8|8
240,72,90951,1,0
240,72,91063,1,0
240,72,91175,2,0,B|196:68|164:120,2,80,0|8|8
68,172,91847,5,0
188,216,92071,1,0
136,332,92295,1,8
16,288,92519,1,8
68,172,92742,1,0
76,156,92854,1,0
84,140,92966,1,8
92,124,93078,1,0
100,108,93190,2,0,B|136:36,1,80,8|0
180,132,93638,6,0,B|228:112|232:68,1,80,4|0
256,168,94086,2,0,B|208:188|204:232,1,80,8|8
196,264,94421,1,0
216,300,94533,1,0
248,324,94645,1,0
288,328,94757,2,0,B|336:320|352:280,2,80,0|8|8
444,212,95429,6,0,B|409:251|425:292,1,80
359,212,95877,2,8,B|393:172|377:131,1,80,8|8
371,100,96212,1,0
337,76,96324,1,0
298,69,96436,1,0
261,83,96548,2,0,B|220:88|196:128,2,80,0|8|8
80,108,97220,6,0,B|131:106|151:66,1,80
138,168,97668,2,0,B|86:169|66:209,1,80,8|8
47,236,98003,1,0
53,277,98115,1,0
74,311,98227,1,0
110,329,98339,2,0,B|157:338|186:307,2,80,0|8|0
248,276,99011,5,0
320,260,99235,1,0
388,288,99459,1,8
460,272,99683,1,0
412,220,99906,1,0
408,208,100018,1,0
404,196,100130,1,8
400,184,100242,1,0
396,172,100354,2,0,B|364:92,1,80,8|2
284,52,100802,5,2
240,116,101026,1,0
240,116,101138,1,0
240,116,101250,2,0,B|48:88|24:296,1,320,8|2
100,320,102369,1,2
176,348,102593,1,4
256,32,103041,1,4
176,348,103489,1,4
256,32,103937,1,4
256,32,104160,1,4
376,76,104384,5,4
280,132,104608,1,2
232,232,104832,1,8
224,344,105056,1,2
224,344,105168,2,0,B|148:320,1,80
104,352,105504,2,0,B|92:304|116:268,1,80,0|8
44,80,105951,2,0,B|80:164|52:240,1,160,2|2
204,192,106623,2,0,B|128:220,1,80,8|2
256,132,107071,1,0
384,84,107295,1,2
416,216,107518,1,8
288,264,107742,1,2
224,272,107966,5,0
304,72,108190,1,2
472,180,108414,1,8
304,72,108638,1,10
288,76,108750,1,0
272,80,108862,1,0
256,84,108974,1,0
240,88,109086,2,0,B|156:112,2,80,2|8|10
116,160,109757,5,2
128,164,109869,1,0
224,332,110093,1,2
228,320,110205,1,8
396,224,110429,1,10
384,220,110541,1,0
288,52,110765,1,2
284,64,110877,1,8
256,192,111101,1,10
256,192,111212,1,2
256,192,111324,1,10
176,272,111548,5,4
68,248,111772,1,2
68,136,111996,1,8
176,112,112220,1,2
176,112,112332,2,0,B|220:104|232:56,1,80
284,76,112668,2,0,B|372:104,1,80,2|8
328,248,113115,2,0,B|400:208|424:124,1,160,2|2
384,304,113787,1,8
160,292,114011,2,0,B|248:276|316:328,1,160,2|2
384,304,114683,1,8
456,280,114906,1,2
440,116,115130,6,0,B|428:200|348:240,1,160,0|8
164,140,115802,2,0,B|200:224|284:248,1,160,2|2
316,176,116474,1,8
344,100,116698,1,10
344,100,116809,1,2
344,100,116921,5,4
176,312,117369,1,4
60,64,117817,1,4
160,132,118041,1,4
240,220,118265,1,4
272,336,118489,1,4
404,224,118712,5,4
284,272,118936,1,2
188,356,119160,1,8
316,360,119384,1,2
272,336,119496,2,0,B|240:320|208:284,1,80
184,244,119832,1,2
176,196,119944,1,0
188,148,120056,1,8
372,32,120280,2,0,B|280:24|228:96,1,160,2|2
424,88,120951,2,0,B|500:64,1,80,8|2
352,112,121399,1,0
404,240,121623,1,2
280,292,121847,1,8
228,164,122071,1,2
160,128,122295,5,0
324,228,122518,1,2
400,56,122742,1,8
324,228,122966,1,10
292,244,123078,1,0
256,256,123190,1,0
220,256,123302,1,0
184,244,123414,2,0,B|148:216|104:240,2,80,2|8|10
112,320,124086,6,0,B|196:344,1,80,0|2
400,320,124533,2,0,B|316:344,1,80,8|10
256,260,124981,1,0
256,248,125093,1,0
256,236,125205,1,10
256,224,125317,1,0
256,212,125429,2,0,B|256:128,1,80,8|10
416,136,125877,5,4
312,72,126101,1,2
192,56,126324,1,8
80,100,126548,1,2
80,100,126660,2,0,B|120:168,1,80
128,184,126996,1,2
136,196,127108,1,0
144,208,127220,1,8
184,348,127444,2,0,B|232:288|336:280,1,160,2|2
148,280,128115,1,8
332,220,128339,2,0,B|240:216|200:136,1,160,2|2
128,112,129011,1,8
192,64,129235,1,2
292,88,129459,5,0
304,92,129571,1,0
316,96,129683,1,2
328,100,129795,1,0
340,104,129906,1,8
352,108,130018,1,0
364,112,130130,1,2
472,148,130354,1,0
460,152,130466,1,0
448,156,130578,1,2
436,160,130690,1,0
424,164,130801,1,8
412,168,130913,1,0
400,172,131025,1,2
408,284,131250,5,4
104,100,131698,1,4
408,284,132145,1,4
320,256,132369,1,4
256,192,132593,1,4
192,128,132817,1,4
104,100,133041,1,4
