osu file format v12

[General]
AudioFilename: unity (TV Size).mp3
AudioLeadIn: 1500
PreviewTime: 40415
Countdown: 0
SampleSet: Soft
StackLeniency: 0.7
Mode: 0
LetterboxInBreaks: 0
WidescreenStoryboard: 0

[Editor]
DistanceSpacing: 1.4
BeatDivisor: 6
GridSize: 32
TimelineZoom: 1

[Metadata]
Title:unity (TV Size)
TitleUnicode:unity (TV Size)
Artist:Komine Lisa
ArtistUnicode:コミネリサ
Creator:Wafu
Version:Normal
Source:GOSICK -ゴシック-
Tags:asu hasegawa tomoki watanabe shio BONES
BeatmapID:290771
BeatmapSetID:111686

[Difficulty]
HPDrainRate:4
CircleSize:4
OverallDifficulty:4
ApproachRate:5
SliderMultiplier:0.7
SliderTickRate:1

[Events]
//Background and Video events
Video,430,"unity.avi"
0,0,"bg.jpg",0,0
//Break Periods
//Storyboard Layer 0 (Background)
//Storyboard Layer 1 (Fail)
//Storyboard Layer 2 (Pass)
//Storyboard Layer 3 (Foreground)
//Storyboard Sound Samples
//Background Colour Transformations
3,100,163,162,255

[TimingPoints]
1374,410.958904109589,3,2,1,70,1,0
20278,-100,3,2,2,60,0,0
20689,-100,3,2,2,50,0,0
21100,-100,3,2,1,70,0,0
38360,-100,3,2,2,70,0,0
40826,-100,3,2,2,80,0,1
59730,-100,3,2,2,70,0,0
60552,-100,3,2,2,80,0,1
79867,-100,3,2,2,50,0,0
86031,-100,3,2,2,5,0,0

[Colours]
Combo1 : 106,106,106
Combo2 : 255,255,159
Combo3 : 177,255,151
Combo4 : 192,192,192

[HitObjects]
150,84,963,5,0,0:0:0:0:
214,111,1374,2,0,P|321:97|405:150,1,210,0|2,0:0|0:0,0:0:0:0:
383,287,3428,5,0,0:0:0:0:
314,271,3839,2,0,P|207:285|123:232,1,210,0|2,0:0|0:0,0:0:0:0:
96,95,5894,37,0,0:0:0:0:
150,51,6305,2,0,P|215:24|294:34,1,140,0|0,0:0|0:0,0:0:0:0:
302,97,7538,2,0,P|369:102|434:74,1,140,2|0,0:0|0:0,0:0:0:0:
481,21,8771,1,0,0:0:0:0:
484,160,9593,6,0,P|484:193|468:227,2,70,0|2|0,0:0|0:0|0:0,0:0:0:0:
414,152,10826,1,0,0:0:0:0:
350,180,11237,6,0,P|282:176|243:120,1,140,4|0,0:0|0:0,0:0:0:0:
280,61,12469,2,0,P|241:116|173:120,1,140,2|0,0:0|0:0,0:0:0:0:
104,104,13702,6,0,P|78:126|61:157,1,70,4|0,0:0|0:0,0:0:0:0:
53,226,14524,1,0,0:0:0:0:
109,267,14935,2,0,L|245:299,1,140,2|0,0:0|0:0,0:0:0:0:
312,278,16168,38,0,P|323:245|326:210,1,70,4|0,0:0|0:0,0:0:0:0:
299,145,16990,1,0,0:0:0:0:
283,76,17401,2,0,P|250:63|215:59,2,70,2|0|0,0:0|0:0|0:0,0:0:0:0:
351,95,18634,5,4,0:0:0:0:
441,284,19867,2,0,P|406:282|371:288,1,70,8|2,0:0|0:0,0:0:0:0:
302,300,20689,1,2,0:0:0:0:
242,336,21100,38,0,P|172:347|106:329,1,140,2|0,0:0|0:0,0:0:0:0:
58,277,22332,2,0,P|30:284|-4:314,2,70,2|0|0,0:0|0:0|0:0,0:0:0:0:
111,231,23565,6,0,P|151:182|137:110,1,140,2|0,0:0|0:0,0:0:0:0:
87,61,24798,2,0,P|136:101|207:87,1,140,2|0,0:0|0:0,0:0:0:0:
265,48,26031,38,0,P|288:29|312:-3,2,70,2|0|0,0:0|0:0|0:0,0:0:0:0:
265,118,27264,2,0,P|314:162|384:159,1,140,2|0,0:0|0:0,0:0:0:0:
451,137,28497,6,0,P|473:200|451:267,1,140,2|0,0:0|0:0,0:0:0:0:
399,315,29730,1,2,0:0:0:0:
329,320,30141,2,0,P|296:307|261:306,1,70,0|0,0:0|0:0,0:0:0:0:
192,294,30963,38,0,P|138:251|130:183,1,140,2|0,0:0|0:0,0:0:0:0:
115,115,32195,2,0,P|83:103|47:103,2,70,2|2|2,0:0|0:0|0:0,0:0:0:0:
183,141,33428,6,0,P|239:173|312:169,1,140,2|0,0:0|0:0,0:0:0:0:
376,140,34661,2,0,L|407:78,2,70,2|2|0,0:0|0:0|0:0,0:0:0:0:
371,209,35894,38,0,P|396:250|355:325,1,140,2|0,0:0|0:0,0:0:0:0:
289,346,37127,1,2,0:0:0:0:
219,335,37538,1,0,0:0:0:0:
168,286,37949,1,0,0:0:0:0:
149,218,38360,22,0,L|132:114,2,105,8|2|8,0:0|0:0|0:0,0:0:0:0:
277,273,40415,1,8,0:0:0:0:
345,258,40826,6,0,P|417:198|391:95,1,210,4|4,0:0|0:0,0:0:0:0:
260,46,42880,1,8,0:0:0:0:
192,61,43291,38,0,P|120:121|145:223,1,210,4|4,0:0|0:0,0:0:0:0:
255,310,45346,1,2,0:0:0:0:
322,293,45757,6,0,P|371:246|392:178,1,140,4|2,0:0|0:0,0:0:0:0:
360,116,46990,2,0,P|290:114|227:85,1,140,4|8,0:0|0:0,0:0:0:0:
157,81,48223,38,0,L|80:184,1,128.333333333333,8|2,0:0|0:0,0:0:0:0:
105,262,49456,2,0,P|157:301|229:301,1,140,2|2,0:0|0:0,0:0:0:0:
296,281,50689,6,0,P|363:273|425:305,1,140,4|2,0:0|0:0,0:0:0:0:
488,274,51921,1,4,0:0:0:0:
472,134,52743,1,8,0:0:0:0:
431,76,53154,38,0,P|384:52|332:56,2,105,4|8|4,0:0|0:0|0:0,0:0:0:0:
484,121,54798,1,2,0:0:0:0:
485,190,55209,1,8,0:0:0:0:
450,251,55620,6,0,L|313:282,1,140,4|2,0:0|0:0,0:0:0:0:
246,304,56853,2,0,P|242:338|252:372,2,70,4|2|2,0:0|0:0|0:0,0:0:0:0:
262,234,58086,38,0,P|267:183|242:137,2,105,4|8|8,0:0|0:0|0:0,0:0:0:0:
209,281,59730,1,2,0:0:0:0:
141,263,60141,1,0,0:0:0:0:
113,198,60552,6,0,P|103:92|183:44,1,210,4|0,0:0|0:0,0:0:0:0:
309,103,62606,1,2,0:0:0:0:
369,140,63017,38,0,P|394:242|322:302,1,210,4|4,0:0|0:0,0:0:0:0:
181,295,65072,1,2,0:0:0:0:
132,244,65483,6,0,P|98:184|103:115,1,140,4|2,0:0|0:0,0:0:0:0:
158,71,66716,2,0,P|192:131|186:199,1,140,8|2,0:0|0:0,0:0:0:0:
230,254,67949,38,0,L|366:282,1,140,2|4,0:0|0:0,0:0:0:0:
432,308,69182,2,0,P|448:337|476:360,2,70,2|8|0,0:0|0:0|3:0,0:0:0:0:
455,242,70415,6,0,P|483:182|476:110,1,140,4|2,0:0|0:0,0:0:0:0:
421,67,71647,2,0,P|357:91|287:82,1,140,4|8,0:0|0:0,0:0:0:0:
223,52,72880,38,0,P|179:32|123:33,2,105,4|8|4,0:0|0:0|0:0,0:0:0:0:
244,118,74524,1,2,0:0:0:0:
209,179,74935,1,2,0:0:0:0:
162,231,75346,6,0,P|205:295|262:312,1,140,4|2,0:0|0:0,0:0:0:0:
331,301,76579,2,0,L|445:216,1,140,4|2,0:0|0:0,0:0:0:0:
499,175,77812,37,4,0:0:0:0:
387,90,78634,1,2,0:0:0:0:
326,55,79045,2,0,P|258:53|215:106,1,140,8|8,0:0|0:0,0:0:0:0:
256,192,81510,12,0,86031,0:0:0:0:
