osu file format v13

[General]
AudioFilename: unity (TV Size).mp3
AudioLeadIn: 1500
PreviewTime: 40415
Countdown: 0
SampleSet: Soft
StackLeniency: 0.7
Mode: 0
LetterboxInBreaks: 0
WidescreenStoryboard: 0

[Editor]
DistanceSpacing: 1.4
BeatDivisor: 4
GridSize: 32
TimelineZoom: 2

[Metadata]
Title:unity (TV Size)
TitleUnicode:unity (TV Size)
Artist:Komine Lisa
ArtistUnicode:コミネリサ
Creator:Wafu
Version:Hard
Source:GOSICK -ゴシック-
Tags:asu hasegawa tomoki watanabe shio BONES
BeatmapID:290450
BeatmapSetID:111686

[Difficulty]
HPDrainRate:6
CircleSize:4
OverallDifficulty:6
ApproachRate:7
SliderMultiplier:1.2
SliderTickRate:1

[Events]
//Background and Video events
Video,430,"unity.avi"
0,0,"bg.jpg",0,0
//Break Periods
//Storyboard Layer 0 (Background)
//Storyboard Layer 1 (Fail)
//Storyboard Layer 2 (Pass)
//Storyboard Layer 3 (Foreground)
//Storyboard Sound Samples
//Background Colour Transformations
3,100,163,162,255

[TimingPoints]
1374,410.958904109589,3,2,1,70,1,0
1374,-200,3,2,1,70,0,0
11237,-100,3,2,1,70,0,0
20278,-100,3,2,2,60,0,0
20689,-100,3,2,2,50,0,0
21100,-200,3,2,1,70,0,0
38360,-200,3,2,2,70,0,0
39593,-100,3,2,2,70,0,0
40004,-100,3,2,2,70,0,0
40826,-100,3,2,2,80,0,1
59730,-100,3,2,2,70,0,0
60552,-100,3,2,2,80,0,1
79867,-100,3,2,2,50,0,0
86031,-100,3,2,2,5,0,0

[Colours]
Combo1 : 106,106,106
Combo2 : 255,255,159
Combo3 : 177,255,151
Combo4 : 192,192,192

[HitObjects]
127,95,963,5,0,0:0:0:0:
193,145,1374,2,0,P|252:156|310:145,1,120
391,122,2606,2,0,P|430:167|450:223,1,120,2|0,0:0|0:0,0:0:0:0:
408,296,3839,6,0,L|290:317,1,120
205,317,5072,2,0,P|179:262|173:203,1,120,2|0,0:0|0:0,0:0:0:0:
211,128,6305,38,0,P|243:127|270:116,1,60
305,41,7127,2,0,P|330:30|362:29,2,60,0|2|0,0:0|0:0|0:0,0:0:0:0:
230,80,8360,1,0,0:0:0:0:
302,122,8771,6,0,P|338:167|335:226,1,120
270,280,10004,1,2,0:0:0:0:
126,172,10415,1,0,0:0:0:0:
292,101,10826,1,0,0:0:0:0:
292,101,11237,6,0,P|348:116|409:113,2,120,4|0|0,0:0|0:0|0:0,0:0:0:0:
143,180,12469,2,0,P|83:183|25:169,2,120,2|0|0,0:0|0:0|0:0,0:0:0:0:
277,283,13702,6,0,P|255:334|210:385,2,120,4|0|0,0:0|0:0|0:0,2:0:0:0:
412,182,14935,2,0,P|436:130|479:80,2,120,2|0|0,0:0|0:0|0:0,2:0:0:0:
250,135,16168,38,0,P|198:113|148:68,2,120,4|0|0,0:0|0:0|0:0,2:0:0:0:
336,280,17401,2,0,P|391:304|438:347,2,120,2|0|0,0:0|0:0|0:0,2:0:0:0:
167,276,18634,6,0,P|97:229|87:139,1,180,4|0,0:0|0:0,0:0:0:0:
326,56,19867,1,8,0:0:0:0:
326,56,20072,1,8,0:0:0:0:
326,56,20278,2,0,P|352:70|375:90,1,60,2|2,0:0|0:0,0:0:0:0:
411,207,20689,2,0,P|384:193|362:173,1,60,2|2,0:0|0:0,0:0:0:0:
282,143,21100,38,0,P|256:154|225:162,1,60,2|0,0:0|0:0,0:0:0:0:
204,160,21716,1,0,0:0:0:0:
183,156,21921,1,0,0:0:0:0:
122,214,22332,2,0,L|110:272,1,60,2|0,0:0|0:0,0:0:0:0:
183,316,23154,1,0,0:0:0:0:
264,294,23565,6,0,P|273:322|273:352,2,60,2|0|0,0:0|0:0|0:0,0:0:0:0:
328,239,24798,1,2,0:0:0:0:
403,202,25209,2,0,L|434:211,2,30
360,129,26031,38,0,P|382:110|398:82,2,60,2|0|0,0:0|0:0|0:0,0:0:0:0:
276,138,27264,2,0,L|215:130,1,60,2|0,0:0|0:0,0:0:0:0:
133,117,28086,1,0,0:0:0:0:
80,182,28497,6,0,P|71:239|88:297,1,120,2|0,0:0|0:0,0:0:0:0:
164,334,29730,1,2,0:0:0:0:
240,299,30141,2,0,P|272:296|300:303,1,60
379,278,30963,38,0,L|393:219,1,60,2|0,0:0|0:0,0:0:0:0:
400,199,31579,1,0,0:0:0:0:
405,115,31990,1,0,0:0:0:0:
386,107,32195,1,2,0:0:0:0:
365,101,32401,1,0,0:0:0:0:
345,94,32606,1,2,0:0:0:0:
324,87,32812,1,0,0:0:0:0:
303,81,33017,1,2,0:0:0:0:
219,74,33428,5,2,0:0:0:0:
203,88,33634,1,0,0:0:0:0:
186,101,33839,2,0,P|156:101|126:105,1,60
84,177,34661,37,2,0:0:0:0:
84,177,34867,1,0,0:0:0:0:
84,177,35072,2,0,P|80:205|67:237,1,60,2|0,0:0|0:0,0:0:0:0:
74,318,35894,6,0,P|127:341|188:338,1,120,2|0,0:0|0:0,0:0:0:0:
266,304,37127,2,0,P|295:302|324:309,1,60,2|0,0:0|0:0,0:0:0:0:
394,356,37949,1,0,0:0:0:0:
431,217,38360,5,8,0:0:0:0:
431,217,38565,1,8,0:0:0:0:
431,217,38976,2,0,L|441:157,1,60,2|2,0:0|0:0,0:0:0:0:
371,109,39593,2,0,L|337:108,3,30,8|0|0|0,0:0|3:0|3:0|3:0,0:0:0:0:
298,105,40004,2,0,L|268:104,3,30,0|0|0|0,3:0|3:0|3:0|3:0,0:0:0:0:
225,101,40415,1,8,0:0:0:0:
105,218,40826,6,0,P|131:272|183:300,1,120,4|2,0:0|0:0,0:0:0:0:
264,319,41442,1,8,0:0:0:0:
347,310,41647,2,0,L|395:273,1,60,2|2,0:0|0:0,0:0:0:0:
442,201,42058,2,0,P|463:146|455:87,2,120,4|2|8,0:0|0:0|0:0,0:0:0:0:
294,122,43291,38,0,P|238:101|180:112,1,120,4|2,0:0|0:0,0:0:0:0:
99,138,43908,1,8,0:0:0:0:
67,215,44113,2,0,L|57:278,1,60,2|2,0:0|0:0,0:0:0:0:
100,346,44524,2,0,P|157:360|216:350,1,120,4|8,0:0|0:0,0:0:0:0:
254,330,45038,2,0,L|276:310,3,30,0|0|0|0,3:0|3:0|3:0|3:0,0:0:0:0:
305,280,45449,2,0,L|323:256,2,30,0|0|0,3:0|3:0|3:0,0:0:0:0:
349,222,45757,6,0,P|361:164|350:106,1,120,4|2,0:0|0:0,0:0:0:0:
292,45,46374,1,8,0:0:0:0:
242,113,46579,2,0,P|214:123|184:124,1,60,2|2,0:0|0:0,0:0:0:0:
100,124,46990,2,0,P|48:151|29:207,1,120,4|8,0:0|0:0,0:0:0:0:
37,290,47606,2,0,P|21:316|-1:336,1,60,2|8,0:0|0:0,0:0:0:0:
144,251,48223,37,8,0:0:0:0:
144,251,48428,2,0,L|237:287,1,100,8|2,0:0|0:0,0:0:0:0:
315,317,48976,1,2,0:0:0:0:
416,149,49456,2,0,P|382:105|316:88,1,120,2|8,0:0|0:0,0:0:0:0:
280,90,49969,2,0,L|249:91,3,30,0|0|0|0,3:0|3:0|3:0|3:0,0:0:0:0:
226,126,50380,2,0,L|239:153,2,30,0|0|0,3:0|3:0|3:0,0:0:0:0:
184,115,50689,6,0,P|129:136|95:184,1,120,4|2,0:0|0:0,0:0:0:0:
86,268,51305,1,8,0:0:0:0:
141,331,51510,2,0,L|198:347,1,60,2|2,0:0|0:0,0:0:0:0:
281,362,51921,2,0,P|337:364|397:344,2,120,4|2|8,0:0|0:0|0:0,0:0:0:0:
157,247,53154,38,0,P|129:195|150:141,1,120,4|2,0:0|0:0,0:0:0:0:
218,193,53771,2,0,P|245:244|224:298,1,120,8|8,0:0|0:0,0:0:0:0:
289,352,54387,2,0,L|406:378,2,120,4|2|8,0:0|0:0|0:0,0:0:0:0:
146,262,55620,6,0,P|124:215|136:149,1,120,4|2,0:0|0:0,0:0:0:0:
175,75,56237,1,8,0:0:0:0:
259,88,56442,2,0,P|286:94|320:97,1,60,2|2,0:0|0:0,0:0:0:0:
402,93,56853,2,0,P|451:124|466:180,1,120,4|2,0:0|0:0,0:0:0:0:
434,258,57469,1,8,0:0:0:0:
359,296,57675,2,0,L|300:307,1,60,2|2,0:0|0:0,0:0:0:0:
132,292,58086,38,0,P|97:247|93:185,1,120,4|2,0:0|0:0,0:0:0:0:
154,96,58702,1,8,0:0:0:0:
261,84,58908,2,0,P|290:89|319:101,1,60,0|2,0:0|0:0,0:0:0:0:
392,179,59319,2,0,P|420:190|450:196,1,60,8|2,0:0|0:0,0:0:0:0:
503,289,59730,2,0,P|463:332|406:344,1,120,2|0,0:0|0:0,0:0:0:0:
78,265,60552,6,0,P|68:207|95:154,1,120,4|2,0:0|0:0,0:0:0:0:
159,98,61168,1,8,0:0:0:0:
243,102,61373,2,0,P|271:115|299:121,1,60,2|2,0:0|0:0,0:0:0:0:
383,116,61784,2,0,P|413:121|439:134,2,60,0|2|8,0:0|0:0|0:0,0:0:0:0:
232,191,62606,1,2,0:0:0:0:
232,191,63017,38,0,P|173:200|121:173,1,120,4|2,0:0|0:0,0:0:0:0:
75,102,63634,1,8,0:0:0:0:
24,168,63839,2,0,P|27:197|40:224,1,60,2|2,0:0|0:0,0:0:0:0:
114,264,64250,2,0,P|143:260|170:247,1,60,4|0,0:0|0:0,0:0:0:0:
187,165,64661,1,2,0:0:0:0:
259,208,64867,1,2,0:0:0:0:
335,173,65072,1,2,0:0:0:0:
335,173,65483,6,0,P|346:228|389:272,2,120,4|2|2,0:0|0:0|0:0,0:0:0:0:
292,100,66510,1,2,0:0:0:0:
207,97,66716,2,0,P|187:115|159:134,1,60,8|0,0:0|0:0,0:0:0:0:
124,210,67127,2,0,P|99:220|66:228,2,60,2|2|2,0:0|0:0|0:0,0:0:0:0:
246,325,67949,38,0,P|299:345|360:338,1,120,2|8,0:0|0:0,0:0:0:0:
419,277,68565,1,2,0:0:0:0:
419,277,68771,1,4,0:0:0:0:
423,105,69182,2,0,P|375:86|307:86,1,120,2|8,0:0|0:0,0:0:0:0:
266,97,69695,2,0,L|226:115,2,40,0|0|0,3:0|3:0|3:0,0:0:0:0:
348,260,70415,6,0,P|338:318|290:351,1,120,4|2,0:0|0:0,0:0:0:0:
265,271,71031,1,8,0:0:0:0:
291,191,71237,2,0,P|317:178|347:174,1,60,2|2,0:0|0:0,0:0:0:0:
429,152,71647,2,0,P|466:108|459:50,1,120,4|8,0:0|0:0,0:0:0:0:
382,84,72264,1,2,0:0:0:0:
314,34,72469,1,8,0:0:0:0:
257,96,72675,1,2,0:0:0:0:
257,96,72880,38,0,P|240:151|195:193,1,120,4|2,0:0|0:0,0:0:0:0:
131,137,73497,2,0,P|148:82|192:39,1,120,8|2,0:0|0:0,0:0:0:0:
275,28,74113,2,0,P|326:50|389:51,2,120,4|2|2,0:0|0:0|0:0,0:0:0:0:
113,75,75346,6,0,L|97:193,1,120,4|2,0:0|0:0,0:0:0:0:
90,277,75963,1,8,0:0:0:0:
170,305,76168,2,0,P|199:299|228:302,1,60,2|2,0:0|0:0,0:0:0:0:
312,315,76579,2,0,P|366:308|418:272,2,120,4|2|2,0:0|0:0|0:0,0:0:0:0:
150,267,77812,38,0,L|81:170,1,120,4|2,0:0|0:0,0:0:0:0:
27,103,78428,1,8,0:0:0:0:
27,103,78634,1,2,0:0:0:0:
194,106,79045,5,8,0:0:0:0:
351,166,79456,1,8,0:0:0:0:
221,272,79867,1,8,0:0:0:0:
256,192,81510,12,0,86031,0:0:0:0:
