osu file format v12

[General]
AudioFilename: gosick.mp3
AudioLeadIn: 1000
PreviewTime: 40112
Countdown: 0
SampleSet: Soft
StackLeniency: 0.7
Mode: 0
LetterboxInBreaks: 0
WidescreenStoryboard: 0

[Editor]
DistanceSpacing: 1
BeatDivisor: 4
GridSize: 4

[Metadata]
Title:unity (TV Size)
TitleUnicode:unity (TV Size)
Artist:Komine Lisa
ArtistUnicode:コミネリサ
Creator:Kawayi Rika
Version:Hard
Source:GOSICK -ゴシック-
Tags:ending ed2 alacat kodora loli moe original soundtrack second season
BeatmapID:352197
BeatmapSetID:141138

[Difficulty]
HPDrainRate:6
CircleSize:4
OverallDifficulty:6
ApproachRate:8
SliderMultiplier:1.8
SliderTickRate:1

[Events]
//Background and Video events
Video,-600,"gosick.avi"
0,0,"BG.jpg",0,0
//Break Periods
//Storyboard Layer 0 (Background)
//Storyboard Layer 1 (Fail)
//Storyboard Layer 2 (Pass)
//Storyboard Layer 3 (Foreground)
//Storyboard Sound Samples
//Background Colour Transformations
3,100,163,162,255

[TimingPoints]
1380,410.958904109589,3,2,1,60,1,0
13708,-100,3,2,1,50,0,0
18640,-200,3,2,1,60,0,0
19873,-100,3,1,1,40,0,0
20489,-100,3,1,1,30,0,0
21105,-100,3,2,1,50,0,0
38366,-100,3,1,1,50,0,0
40832,-100,3,2,1,60,0,1
44941,-100,3,2,1,40,0,1
45763,-100,3,2,1,60,0,1
49873,-100,3,2,1,40,0,1
50695,-100,3,2,1,60,0,1
58092,-100,3,2,1,40,0,1
58503,-100,3,2,1,50,0,1
58914,-100,3,2,1,60,0,1
59325,-100,3,2,1,70,0,1
59736,-100,3,2,1,60,0,0
60558,-100,3,2,1,65,0,1
62201,-100,3,2,1,50,0,1
63023,-100,3,2,1,65,0,1
69188,-100,3,2,1,50,0,1
70421,-100,3,2,1,65,0,1
74119,-100,3,2,1,45,0,1
75352,-100,3,2,1,70,0,1
79051,-100,3,2,1,65,0,0
79873,-133.333333333333,3,2,1,65,0,0
79975,-133.333333333333,3,2,1,5,0,0
81516,-100,3,2,1,25,0,0
82338,-100,3,2,1,20,0,0
83160,-100,3,2,1,15,0,0
83982,-100,3,2,1,10,0,0
84804,-100,3,2,1,5,0,0

[Colours]
Combo1 : 169,104,234
Combo2 : 141,152,163
Combo3 : 94,89,247
Combo4 : 157,146,158

[HitObjects]
460,56,969,1,0,0:0:0:0:
427,322,1380,2,0,P|424:277|440:236,1,90,2|0,0:0|0:0,0:0:0:0:
368,180,1791,2,0,L|272:196,1,90
32,240,2202,2,0,P|81:312|167:326,1,180,0|2,0:0|0:0,0:0:0:0:
244,280,2818,1,0,0:0:0:0:
176,220,3023,1,0,0:0:0:0:
56,88,3434,5,0,0:0:0:0:
232,52,3845,2,0,B|328:76|328:76|352:36|396:24,1,180,2|0,0:0|0:0,0:0:0:0:
476,188,4667,1,0,0:0:0:0:
423,119,5078,2,0,P|459:147|475:188,1,90,2|0,0:0|0:0,0:0:0:0:
504,276,5489,1,0,0:0:0:0:
256,320,5900,5,0,0:0:0:0:
116,208,6311,2,0,P|36:176|12:88,1,180,2|0,0:0|0:0,0:0:0:0:
204,52,7133,1,0,0:0:0:0:
116,208,7544,1,2,0:0:0:0:
256,336,7955,1,0,0:0:0:0:
348,164,8366,1,0,0:0:0:0:
440,196,8777,6,0,P|295:252|280:97,1,360,2|0,0:0|0:0,0:0:0:0:
456,60,10010,1,2,0:0:0:0:
256,360,10421,1,0,0:0:0:0:
56,60,10832,1,0,0:0:0:0:
256,192,11243,5,4,0:0:0:0:
256,192,11345,12,2,12476,0:0:0:0:
424,168,12886,6,0,P|432:124|464:88,2,90
360,336,13708,2,0,B|300:336|300:336|244:304|244:304|188:304,1,180,4|0,0:0|0:0,0:0:0:0:
108,344,14325,1,0,0:0:0:0:
108,256,14530,1,0,0:0:0:0:
28,96,14941,1,2,0:0:0:0:
208,96,15352,1,0,0:0:0:0:
256,20,15558,1,0,0:0:0:0:
304,96,15763,1,0,0:0:0:0:
484,96,16174,5,4,0:0:0:0:
332,200,16585,1,0,0:0:0:0:
500,272,16996,1,0,0:0:0:0:
352,372,17407,1,2,0:0:0:0:
188,296,17818,2,0,P|148:272|124:232,1,90
100,148,18229,1,0,0:0:0:0:
232,236,18640,6,0,B|132:184|176:48|300:76,1,270,4|0,0:0|0:0,0:0:0:0:
348,192,20078,1,0,0:0:0:0:
388,312,20284,1,0,0:0:0:0:
452,200,20489,1,0,0:0:0:0:
388,312,20695,1,0,0:0:0:0:
512,284,20900,1,0,0:0:0:0:
388,312,21106,6,0,P|344:320|304:348,1,90,2|0,0:0|0:0,0:0:0:0:
40,232,21516,2,0,P|75:259|117:273,1,90
148,360,21928,2,0,P|212:300|192:216,1,180,0|2,0:0|0:0,0:0:0:0:
92,68,22750,1,0,0:0:0:0:
92,68,22955,1,0,0:0:0:0:
92,68,23160,2,0,L|296:28,1,180,0|2,0:0|0:0,0:0:0:0:
342,285,23982,6,0,P|326:244|332:200,1,90
484,178,24393,2,0,P|456:213|416:232,1,90
223,178,24804,2,0,L|400:144,1,180,2|0,0:0|0:0,0:0:0:0:
448,316,25626,1,0,0:0:0:0:
268,336,26037,2,0,P|184:356|96:324,1,180,2|0,0:0|0:0,0:0:0:0:
16,360,26654,1,0,0:0:0:0:
24,272,26859,1,0,0:0:0:0:
44,92,27270,6,0,B|92:92|92:92|140:108,1,90,2|0,0:0|0:0,0:0:0:0:
278,176,27681,2,0,L|188:176,1,90
332,248,28092,2,0,P|376:172|324:96,1,180,0|2,0:0|0:0,0:0:0:0:
500,32,28914,2,0,L|408:32,2,90
500,352,29736,1,2,0:0:0:0:
256,284,30147,5,0,0:0:0:0:
12,352,30558,1,0,0:0:0:0:
256,284,30969,2,0,L|256:100,1,180,2|0,0:0|0:0,0:0:0:0:
256,104,31585,1,0,0:0:0:0:
492,192,31996,1,0,0:0:0:0:
492,192,32202,1,2,0:0:0:0:
452,112,32407,6,0,P|436:72|444:24,2,90
404,188,33023,2,0,P|392:280|324:336,1,180,0|2,0:0|0:0,0:0:0:0:
256,280,33640,1,0,0:0:0:0:
183,334,33845,2,0,P|117:275|108:188,1,180
32,40,34667,2,0,P|76:60|112:112,1,90,2|0,0:0|0:0,0:0:0:0:
196,116,35078,2,0,P|199:71|180:31,2,90
280,144,35695,1,0,0:0:0:0:
332,72,35900,6,0,L|524:44,1,180,2|0,0:0|0:0,0:0:0:0:
500,136,36517,1,0,0:0:0:0:
500,136,36722,2,0,P|448:212|456:304,1,180,0|2,0:0|0:0,0:0:0:0:
284,360,37544,1,0,0:0:0:0:
104,340,37955,1,0,0:0:0:0:
68,164,38366,5,0,0:0:0:0:
68,164,38571,2,0,L|245:194,1,180
376,72,39393,1,0,0:0:0:0:
304,124,39599,1,0,0:0:0:0:
280,152,39702,1,0,0:0:0:0:
276,188,39804,1,0,0:0:0:0:
292,220,39907,1,0,0:0:0:0:
332,240,40010,2,0,L|352:280,3,45
372,320,40421,6,0,P|300:368|208:364,1,180,0|4,0:0|0:0,0:0:0:0:
120,348,41037,2,0,L|72:160,1,180,0|8,0:0|0:0,0:0:0:0:
52,88,41654,1,0,0:0:0:0:
140,108,41859,1,8,0:0:0:0:
140,108,42065,2,0,P|212:60|304:64,1,180,0|0,0:0|0:0,0:0:0:0:
480,44,42886,6,0,P|432:120|452:204,1,180,8|0,0:0|0:0,0:0:0:0:
432,328,43503,2,0,P|420:284|388:248,2,90,8|0|8,0:0|0:0|0:0,0:0:0:0:
340,324,44119,2,0,B|252:340|252:340|212:312|160:312,1,180,0|8,0:0|0:0,0:0:0:0:
16,212,44941,1,8,0:0:0:0:
28,248,45044,1,8,0:0:0:0:
40,280,45147,1,8,0:0:0:0:
52,312,45250,1,8,0:0:0:0:
64,344,45352,1,8,0:0:0:0:
172,136,45763,6,0,L|100:200,1,90,4|0,0:0|0:0,0:0:0:0:
84,112,46174,2,0,L|51:28,1,90,0|8,0:0|0:0,0:0:0:0:
148,56,46585,2,0,L|236:72,1,90,0|8,0:0|0:0,0:0:0:0:
304,132,46996,2,0,P|368:180|464:172,1,180,0|8,0:0|0:0,0:0:0:0:
492,88,47613,1,0,0:0:0:0:
492,88,47818,2,0,L|435:261,1,180,8|8,0:0|0:0,0:0:0:0:
408,344,48434,1,8,0:0:0:0:
220,348,48777,2,0,P|176:356|132:348,1,90,8|8,0:0|0:0,0:0:0:0:
68,144,49462,6,0,P|29:239|80:264,1,180,8|8,0:0|0:0,0:0:0:0:
116,260,49976,1,8,0:0:0:0:
136,228,50078,1,8,0:0:0:0:
168,212,50181,1,8,0:0:0:0:
204,212,50284,1,8,0:0:0:0:
236,228,50386,1,8,0:0:0:0:
260,256,50489,1,8,0:0:0:0:
276,344,50695,6,0,B|324:340|348:288|348:288|440:288,1,180,4|0,0:0|0:0,0:0:0:0:
500,348,51311,2,0,B|544:280|488:220|488:220|504:168,1,180,8|8,0:0|0:0,0:0:0:0:
480,96,51928,2,0,P|444:68|396:56,1,90
253,72,52339,2,0,P|289:99|331:111,1,90
176,28,52750,1,8,0:0:0:0:
108,192,53160,6,0,P|40:252|20:336,1,180,8|0,0:0|0:0,0:0:0:0:
20,336,53777,1,8,0:0:0:0:
200,332,54188,1,8,0:0:0:0:
200,332,54393,2,0,P|236:308|284:300,1,90
368,328,54804,2,0,P|408:348|452:352,1,90,0|0,0:0|0:0,0:0:0:0:
500,276,55215,1,8,0:0:0:0:
508,96,55626,6,0,P|468:76|424:72,1,90,8|0,0:0|0:0,0:0:0:0:
348,120,56037,2,0,P|264:152|176:136,1,180,0|8,0:0|0:0,0:0:0:0:
112,72,56654,1,8,0:0:0:0:
76,156,56859,1,8,0:0:0:0:
8,324,57270,1,0,0:0:0:0:
192,312,57681,1,8,0:0:0:0:
368,340,58092,5,8,0:0:0:0:
368,340,58297,1,8,0:0:0:0:
468,296,58503,1,8,0:0:0:0:
468,296,58708,1,8,0:0:0:0:
492,172,58914,1,8,0:0:0:0:
492,172,59119,1,8,0:0:0:0:
380,80,59325,2,0,L|412:48,2,45,8|8|8,0:0|0:0|0:0,0:0:0:0:
220,100,59736,6,0,P|124:96|56:48,1,180,0|8,0:0|0:0,0:0:0:0:
40,136,60352,1,0,0:0:0:0:
40,136,60558,2,0,P|0:208|16:300,1,180,4|0,0:0|0:0,0:0:0:0:
92,352,61174,2,0,B|160:392|228:352|228:352|272:364,1,180,8|8,0:0|0:0,0:0:0:0:
352,372,61791,1,0,0:0:0:0:
512,296,62202,2,0,L|484:260,3,45,8|8|8|8,0:0|0:0|0:0|0:0,0:0:0:0:
464,232,62613,1,8,0:0:0:0:
488,52,63023,6,0,B|452:61|452:61|384:21|316:61,1,180,4|0,0:0|0:0,0:0:0:0:
248,120,63640,2,0,P|165:153|79:133,1,180,8|0,0:0|0:0,0:0:0:0:
0,112,64256,2,0,P|24:72|64:56,2,90,8|0|0,0:0|0:0|0:0,0:0:0:0:
0,292,65078,1,0,0:0:0:0:
164,368,65489,6,0,L|372:324,1,180,8|0,0:0|0:0,0:0:0:0:
512,336,66106,2,0,L|423:353,1,90,8|0,0:0|0:0,0:0:0:0:
404,264,66517,1,0,0:0:0:0:
475,157,66722,2,0,P|492:200|492:244,2,90,8|0|0,0:0|0:0|0:0,0:0:0:0:
388,176,67339,1,0,0:0:0:0:
412,88,67544,2,0,B|364:56|364:56|320:88|240:84,1,180,0|8,0:0|0:0,0:0:0:0:
60,80,68366,2,0,P|96:56|144:48,1,90,8|8,0:0|0:0,0:0:0:0:
32,192,68982,5,8,0:0:0:0:
72,292,69188,2,0,P|44:308|20:336,2,60,8|8|8,0:0|0:0|0:0,0:0:0:0:
140,320,69599,2,0,P|128:348|132:380,2,60,8|8|8,0:0|0:0|0:0,0:0:0:0:
208,292,70010,6,0,B|260:304|296:276|296:276|396:284,1,180,8|4,0:0|0:0,0:0:0:0:
424,364,70626,2,0,P|472:304|440:212,1,180,0|8,0:0|0:0,0:0:0:0:
376,152,71243,1,0,0:0:0:0:
508,28,71654,1,0,0:0:0:0:
476,36,72065,1,8,0:0:0:0:
444,44,72476,1,0,0:0:0:0:
264,68,72886,1,8,0:0:0:0:
264,68,73092,2,0,L|80:52,1,180,8|8,0:0|0:0,0:0:0:0:
32,164,74119,6,8,L|56:208,3,45
28,240,74530,2,8,L|72:260,3,45
60,304,74941,2,8,L|104:320,3,45
144,332,75352,6,0,P|236:344|316:312,1,180,4|0,0:0|0:0,0:0:0:0:
400,344,75969,2,0,P|452:268|456:176,1,180,8|0,0:0|0:0,0:0:0:0:
460,92,76585,2,0,P|412:103|380:135,1,90
308,180,76996,2,0,P|292:140|308:80,1,90,8|0,0:0|0:0,0:0:0:0:
372,40,77407,1,0,0:0:0:0:
284,12,77613,1,0,0:0:0:0:
284,12,77818,2,0,B|224:28|212:84|212:84|140:108,1,180,4|0,0:0|0:0,0:0:0:0:
16,236,78640,5,8,0:0:0:0:
52,244,79051,1,8,0:0:0:0:
88,252,79462,1,8,0:0:0:0:
124,264,79873,2,0,P|220:344|316:260,1,270.000010299683,8|0,0:0|0:0,0:0:0:0:
256,192,81517,12,0,86037,0:0:0:0:
