osu file format v7

[General]
AudioFilename: Komine Lisa - 01 - Uchuu ni Saku.mp3
AudioLeadIn: 0
PreviewTime: -1
Countdown: 1
SampleSet: Soft
StackLeniency: 0.7
Mode: 0
LetterboxInBreaks: 1

[Editor]
Bookmarks: 22990,25108,29836,35155,44267,52590,65002,68695,72094,75640,76526,79186,84210,93370
DistanceSpacing: 1
BeatDivisor: 4
GridSize: 8

[Metadata]
Title:Sora ni Saku
Artist:Komine Lisa
Creator:NyaKun
Version:Hard
Source:Rental Magica
Tags:

[Difficulty]
HPDrainRate:6
CircleSize:6
OverallDifficulty:7
SliderMultiplier:1.5
SliderTickRate:0.5

[Events]
//Background and Video events
0,0,"bg.jpg"
//Break Periods
//Storyboard Layer 0 (Background)
//Storyboard Layer 1 (Fail)
//Storyboard Layer 2 (Pass)
//Storyboard Layer 3 (Foreground)
//Storyboard Sound Samples
//Background Colour Transformations
3,100,255,0,0

[TimingPoints]
4772,1176.47058823529,3,2,0,41,1,0
15800,591.016548463357,4,2,0,90,1,0
34121,-200,4,2,0,90,0,0
34712,-100,4,2,0,90,0,0
58205,-100,4,2,0,90,0,1
58500,-200,4,2,0,90,0,1
59387,-100,4,2,0,90,0,1
59682,-200,4,2,0,90,0,1
60569,-100,4,2,0,90,0,1
60865,-200,4,2,0,90,0,1
61751,-100,4,2,0,90,0,0
61751,-100,4,2,0,90,0,1
64558,-100,4,2,0,90,0,0
100906,591.016548463357,4,2,0,90,1,0

[HitObjects]
56,88,4771,2,0,B|48:24|112:64,1,75,0|8
144,112,5948,2,0,B|152:176|88:136,1,75,0|8
144,200,7124,5,0
216,200,7713,1,8
288,200,8301,1,0
360,200,8889,1,8
360,128,9477,6,0,B|352:64|416:104,1,75,0|8
448,152,10654,2,0,B|456:216|392:176,1,75,0|8
328,184,11830,6,0,B|288:160|248:192,1,75,0|8
256,264,13007,2,0,B|216:288|176:256,1,75,0|8
48,40,15800,6,0,B|240:40,1,187.5,0|0
272,40,16686,1,8
312,40,16834,1,0
352,40,16982,2,0,B|392:136|352:224,1,187.5,8|0
312,224,17868,6,0,B|272:224,1,37.5,8|0
272,264,18164,2,0,B|232:264,1,37.5,8|0
200,264,18459,1,0
168,240,18607,1,8
136,264,18755,1,0
104,240,18902,1,8
72,264,19050,1,0
40,240,19198,1,8
72,216,19346,6,0,B|48:144|88:72,1,112.5
112,104,19937,1,0
144,80,20084,1,8
176,104,20232,1,0
208,80,20380,1,8
240,104,20528,2,0,B|296:128|328:192,1,112.5
320,216,21119,6,0,B|320:256,1,37.5,0|8
344,280,21414,2,0,B|344:320,1,37.5,0|8
344,352,21710,2,0,B|256:352|216:320,1,112.5,0|8
200,312,22301,1,0
200,272,22448,1,8
160,272,22596,1,0
160,224,22744,1,8
120,224,22892,1,0
120,176,23039,5,8
136,160,23138,1,0
152,144,23236,1,0
168,128,23335,1,0
192,144,23433,1,0
208,160,23532,1,0
224,176,23630,1,8
248,160,23729,1,0
264,144,23827,1,0
280,128,23925,2,0,B|464:128|464:256|280:256,1,300,8|0
248,256,25404,6,0,B|200:256,1,37.5
208,216,25699,2,0,L|440:216|440:192|208:192,1,487.5
208,152,27768,6,0,B|160:152,1,37.5
176,192,28063,2,0,L|352:192|352:216|176:216,1,375
104,216,29836,5,8
104,288,30132,1,0
136,272,30279,1,8
168,288,30427,1,0
224,288,30723,1,0
256,264,30870,1,8
288,288,31018,1,0
320,264,31166,1,8
352,288,31314,2,0,L|432:288,1,75,0|8
432,248,31757,5,0
456,216,31905,1,0
432,184,32052,1,8
456,152,32200,1,0
432,120,32348,1,0
408,152,32496,1,0
368,152,32643,5,8
336,128,32791,2,0,L|256:128,1,75
232,152,33234,1,8
200,128,33382,2,0,L|160:128,1,37.5
128,152,33678,2,0,L|128:232,1,75,8|0
128,248,34121,2,0,L|224:248,1,75
240,248,34860,2,0,L|280:248,1,37.5,0|8
280,208,35155,2,0,L|200:208,1,75
168,208,35599,5,8
136,184,35746,2,0,L|96:184,1,37.5,0|8
64,208,36042,1,0
32,184,36190,1,0
64,160,36337,2,0,L|64:120,1,37.5,8|0
96,96,36633,1,0
128,120,36781,1,8
160,96,36928,1,0
192,120,37076,2,0,L|256:120,1,37.5,8|0
256,88,37372,2,0,L|304:88,1,37.5,0|8
320,120,37667,5,0
360,120,37815,2,0,L|480:120|480:304|408:304,1,375,8|0
368,304,39440,1,8
336,280,39588,1,0
304,304,39736,1,0
272,280,39883,2,0,L|224:280,1,37.5,0|8
208,304,40179,5,0
176,280,40327,1,8
144,304,40474,1,0
112,280,40622,2,0,L|112:240,1,37.5,0|8
112,168,41065,2,0,L|176:128|240:168,1,150
312,168,41952,6,0,L|360:168,1,37.5,0|8
352,208,42247,2,0,L|312:208,1,37.5,0|0
312,248,42543,2,0,L|352:248,1,37.5,0|8
352,288,42839,2,0,L|312:288,1,37.5,0|8
272,288,43134,2,0,L|232:288,1,37.5,0|0
208,256,43430,1,8
256,40,44316,6,0,L|184:40|184:192|264:192,1,300
448,328,46680,6,0,L|376:288|336:192|256:304,1,300
64,328,49044,6,0,L|136:288|176:192|256:304,1,300
240,72,51408,6,0,L|280:112|240:152|280:192|240:232,1,225
240,304,52590,6,0,L|320:304,1,75
312,264,53034,2,0,L|192:264,1,112.5
128,264,53772,2,0,L|128:144|256:40|352:40,1,375
400,48,56136,2,0,L|400:168|272:272|176:272,1,375
56,192,58205,6,0,L|56:136,1,37.5
88,128,58500,2,0,L|88:72,1,37.5
112,56,58944,2,0,L|160:56,1,37.5
176,24,59387,2,0,L|216:24,1,37.5
240,56,59682,2,0,L|280:56,1,37.5
304,88,60126,2,0,L|304:128,1,37.5
336,152,60569,6,0,L|336:192,1,37.5
304,216,60865,2,0,L|304:256,1,37.5
272,280,61308,2,0,L|224:280,1,37.5
208,312,61751,2,0,L|168:312,1,37.5
136,312,62047,2,0,L|136:216|256:216|256:96,1,300,0|0
256,96,63376,1,0
328,96,63672,5,0
344,112,63745,1,0
328,128,63819,1,0
344,144,63893,1,0
328,160,63967,1,0
344,176,64041,1,0
328,192,64115,1,0
344,208,64189,1,0
328,224,64263,1,0
344,240,64337,1,0
328,256,64411,1,0
176,256,65002,6,0,L|136:256,1,37.5
112,224,65297,2,0,L|64:224,1,37.5
40,224,65593,2,0,B|40:104|200:104,1,225
232,80,66627,6,0,B|280:80,1,37.5
296,112,66922,2,0,B|336:112,1,37.5
360,144,67218,2,0,B|360:192,1,37.5
328,208,67513,2,0,B|288:208,1,37.5
256,232,67809,1,0
224,208,67957,2,0,B|24:136|72:312,1,225
88,304,68991,6,0,B|136:304,1,37.5
160,280,69286,1,0
192,304,69434,1,0
224,280,69582,1,0
256,304,69730,1,0
288,280,69878,1,0
256,256,70025,1,0
256,216,70173,1,0
256,176,70321,2,0,B|144:176|128:88|184:24,1,225
216,24,71355,6,0,B|264:24,1,37.5
256,64,71651,2,0,B|256:104,1,37.5
296,104,71946,2,0,B|336:104,1,37.5
360,136,72242,1,0
336,168,72389,1,0
360,200,72537,1,0
336,232,72685,2,0,B|288:232,1,37.5
264,216,72980,2,0,B|224:216,1,37.5
192,232,73276,2,0,B|152:232,1,37.5
120,216,73571,2,0,B|48:136|152:64,1,150
56,56,74458,6,0,B|168:24|280:56,1,225
280,128,75640,2,0,B|160:160|56:128,1,225
32,160,76674,6,0,B|32:200,1,37.5
64,224,76970,2,0,B|112:224,1,37.5
136,200,77265,1,0
168,224,77413,1,0
200,200,77561,2,0,B|248:200,1,37.5
272,176,77856,2,0,B|272:128,1,37.5
304,112,78152,2,0,B|360:112,1,37.5
368,144,78447,1,0
408,144,78595,2,0,B|408:248|360:304|256:304,1,225
248,280,79629,6,0,B|200:280,1,37.5
176,304,79925,2,0,B|136:304,1,37.5
104,280,80220,2,0,B|104:224,1,37.5
136,216,80516,2,0,B|136:176,1,37.5
104,152,80811,2,0,B|104:112,1,37.5
136,88,81107,2,0,B|184:88,1,37.5
208,112,81402,1,0
240,88,81550,1,0
272,112,81698,2,0,B|312:112,1,37.5
344,136,81993,2,0,B|384:136,1,37.5
408,168,82289,2,0,B|408:224,1,37.5
376,232,82584,2,0,B|336:232,1,37.5
304,208,82880,1,0
272,232,83028,2,0,B|192:232,1,75
256,344,84505,6,0,L|328:344|328:192|248:192,1,300
64,56,86869,6,0,L|136:96|176:192|256:80,1,300
448,56,89233,6,0,L|376:96|336:192|256:80,1,300
272,312,91597,6,0,L|232:272|272:232|232:192|272:152,1,225
344,152,92779,1,0
392,96,93075,1,0
440,152,93370,1,0
392,208,93666,1,0
392,280,93961,2,0,L|256:216|104:280,1,300
120,104,96326,2,0,L|256:168|408:104,1,300
256,208,99281,12,0,100463
464,344,100980,6,0,B|272:344,1,187.5,0|0
240,344,101866,1,8
200,344,102014,1,0
160,344,102162,2,0,B|120:248|160:160,1,187.5,8|0
200,160,103048,6,0,B|240:160,1,37.5,8|0
240,120,103344,2,0,B|280:120,1,37.5,8|0
312,120,103639,1,0
344,144,103787,1,8
376,120,103935,1,0
408,144,104082,1,8
440,120,104230,1,0
472,144,104378,1,8
440,168,104526,6,0,B|464:240|424:312,1,112.5
400,280,105117,1,0
368,304,105264,1,8
336,280,105412,1,0
304,304,105560,1,8
272,280,105708,2,0,B|216:256|184:192,1,112.5
192,168,106299,6,0,B|192:128,1,37.5,0|8
168,104,106594,2,0,B|168:64,1,37.5,0|8
168,32,106890,2,0,B|256:32|296:64,1,112.5,0|8
312,72,107481,1,0
312,112,107628,1,8
352,112,107776,1,0
352,160,107924,1,8
392,160,108072,1,0
392,208,108220,5,8
376,224,108319,1,0
360,240,108417,1,0
344,256,108516,1,0
320,240,108614,1,0
304,224,108713,1,0
288,208,108811,1,8
264,224,108910,1,0
248,240,109008,1,0
232,256,109106,2,0,B|48:256|48:128|232:128,1,300,8|0
