osu file format v13

[General]
AudioFilename: Komatsu Mikako - TRICK BOX (TV Size).mp3
AudioLeadIn: 0
PreviewTime: 49836
Countdown: 0
SampleSet: Soft
StackLeniency: 0.7
Mode: 0
LetterboxInBreaks: 0
WidescreenStoryboard: 0

[Editor]
DistanceSpacing: 0.7
BeatDivisor: 6
GridSize: 4
TimelineZoom: 2.599999

[Metadata]
Title:TRICK BOX
TitleUnicode:TRICK BOX
Artist:Komatsu Mikako
ArtistUnicode:小松未可子
Creator:Trust
Version:Insane
Source:Nisekoi
Tags:Gero HabiHolic captin1 Giralda ニセコイ ending false fake love 鶫誠士郎 Tsugumi Seishirou
BeatmapID:436522
BeatmapSetID:181960

[Difficulty]
HPDrainRate:6.5
CircleSize:4
OverallDifficulty:7.5
ApproachRate:9
SliderMultiplier:1.85
SliderTickRate:2

[Events]
//Background and Video events
Video,850,"ED.avi"
0,0,"ntsubg.jpg",0,0
//Break Periods
//Storyboard Layer 0 (Background)
//Storyboard Layer 1 (Fail)
//Storyboard Layer 2 (Pass)
//Storyboard Layer 3 (Foreground)
//Storyboard Sound Samples

[TimingPoints]
1354,357.142857142857,4,2,1,60,1,0
12782,-100,4,2,1,35,0,0
14746,-100,4,2,1,32,0,0
15639,-100,4,2,1,60,0,0
37068,-133.333333333333,4,2,1,60,0,0
44211,-111.111111111111,4,2,1,65,0,0
49925,-90.9090909090909,4,2,1,85,0,1
61353,-90.9090909090909,4,2,1,80,0,1
61532,-90.9090909090909,4,2,1,85,0,1
67068,-100,4,2,1,75,0,0
67425,-100,4,2,1,55,0,0
67603,-100,4,2,1,75,0,0
68853,-100,4,2,1,55,0,0
69032,-100,4,2,1,75,0,0
72782,-100,4,2,1,65,0,0
82603,-100,4,2,1,50,0,0
82782,-100,4,2,1,65,0,0
84389,-100,4,2,1,30,0,0
85639,-100,4,2,1,15,0,0
89568,-100,4,2,1,5,0,0

[Colours]
Combo1 : 233,158,48
Combo2 : 226,118,235
Combo3 : 83,181,253
Combo4 : 97,231,100

[HitObjects]
232,208,996,6,0,L|140:228,1,92.5,8|0,0:0|0:0,0:0:0:0:
312,268,1354,6,0,P|328:240|316:160,1,92.5,4|0,0:0|0:0,0:0:0:0:
239,99,1711,1,8,0:0:0:0:
128,148,1889,2,0,B|136:220|136:220|116:276|116:276|128:356,1,185,4|2,0:0|0:0,0:0:0:0:
245,372,2425,1,8,0:0:0:0:
333,264,2603,6,0,L|453:284,1,92.5,4|0,0:0|0:0,0:0:0:0:
212,288,2961,2,0,P|207:238|249:177,1,92.5,2|8,0:0|0:0,0:0:0:0:
400,116,3318,1,2,0:0:0:0:
400,116,3407,1,0,0:0:0:0:
400,116,3496,1,2,0:0:0:0:
253,143,3675,1,2,0:0:0:0:
216,136,3764,1,0,0:0:0:0:
183,116,3854,1,2,0:0:0:0:
166,83,3943,1,0,0:0:0:0:
166,46,4032,1,0,0:0:0:0:
116,204,4211,6,0,L|104:300,1,92.5,4|0,0:0|0:0,0:0:0:0:
24,236,4568,1,8,0:0:0:0:
200,256,4746,2,0,B|268:264|268:264|312:248|312:248|400:260,1,185,4|2,0:0|0:0,0:0:0:0:
318,332,5282,1,8,0:0:0:0:
256,184,5461,2,8,P|232:104|288:16,1,185,4|2,0:0|0:0,0:0:0:0:
384,172,5996,2,0,P|379:235|332:280,1,92.5,8|2,0:0|0:0,0:0:0:0:
256,184,6354,1,8,0:0:0:0:
356,96,6532,5,2,0:0:0:0:
396,92,6621,1,8,0:0:0:0:
436,108,6711,1,8,0:0:0:0:
460,144,6800,1,8,0:0:0:0:
464,184,6889,1,2,0:0:0:0:
448,224,6979,1,0,0:0:0:0:
416,248,7068,6,0,P|388:308|400:360,1,92.5,6|0,0:0|0:0,0:0:0:0:
484,316,7425,1,8,0:0:0:0:
311,356,7604,2,0,P|246:363|208:248,1,185,4|2,0:0|0:0,0:0:0:0:
273,135,8139,1,8,0:0:0:0:
324,260,8318,6,0,L|444:244,1,92.5,4|0,0:0|0:0,0:0:0:0:
273,135,8675,1,2,0:0:0:0:
204,284,8854,1,8,0:0:0:0:
156,132,9032,1,2,0:0:0:0:
156,132,9121,1,8,0:0:0:0:
156,132,9211,1,2,0:0:0:0:
204,284,9389,1,2,0:0:0:0:
273,135,9568,1,8,0:0:0:0:
307,122,9657,1,8,0:0:0:0:
343,120,9746,1,2,0:0:0:0:
378,132,9836,1,2,0:0:0:0:
402,159,9925,6,0,L|516:148,1,92.5,4|0,0:0|0:0,0:0:0:0:
272,252,10282,2,0,L|379:238,1,92.5,8|0,0:0|0:0,0:0:0:0:
212,184,10639,1,8,0:0:0:0:
244,340,10818,1,2,0:0:0:0:
364,240,10996,1,8,0:0:0:0:
176,268,11175,6,0,P|120:208|148:112,1,185,4|2,0:0|0:0,0:0:0:0:
172,88,11621,1,8,0:0:0:0:
172,88,11711,1,8,0:0:0:0:
280,103,11889,1,2,0:0:0:0:
212,184,12068,2,0,P|264:208|320:196,2,92.5,0|2|0,1:0|0:0|1:0,0:0:0:0:
237,34,12604,1,2,0:0:0:0:
148,244,12782,6,0,P|95:260|55:259,1,92.5,2|0,0:0|0:0,0:0:0:0:
58,124,13139,2,0,P|104:125|148:140,1,92.5,2|0,0:0|0:0,0:0:0:0:
256,256,13496,2,0,L|280:348,1,92.5,2|0,0:0|0:0,0:0:0:0:
256,128,13854,2,0,L|280:36,1,92.5,2|0,0:0|0:0,0:0:0:0:
364,244,14211,2,0,P|417:260|457:259,1,92.5,2|0,0:0|0:0,0:0:0:0:
454,124,14568,2,0,P|408:125|364:140,1,92.5,2|0,0:0|1:0,0:0:0:0:
256,256,14925,1,2,0:0:0:0:
256,128,15104,1,0,1:0:0:0:
256,344,15282,1,4,3:0:0:0:
184,184,15639,6,0,P|112:184|80:292,1,185,4|8,0:0|0:0,0:0:0:0:
256,256,16175,1,0,0:0:0:0:
284,156,16354,2,0,L|256:60,1,92.5,2|2,0:0|0:0,0:0:0:0:
184,184,16711,1,8,0:0:0:0:
256,256,16889,6,0,B|323:264|323:264|362:290|362:290|453:305,1,185,0|0,0:0|0:0,0:0:0:0:
284,344,17425,2,0,L|177:330,2,92.5,8|8|0,0:0|0:0|0:0,0:0:0:0:
388,272,17961,1,2,0:0:0:0:
203,246,18139,2,0,L|95:234,1,92.5,8|0,0:0|0:0,0:0:0:0:
282,180,18496,6,0,P|301:124|276:71,1,92.5,2|0,0:0|0:0,0:0:0:0:
204,246,18854,2,0,P|184:301|209:354,1,92.5,8|0,0:0|0:0,0:0:0:0:
213,127,19211,2,0,L|113:110,1,92.5,2|2,0:0|0:0,0:0:0:0:
204,246,19568,6,0,L|390:278,2,185,8|2|8,0:0|0:0|0:0,0:0:0:0:
60,208,20461,1,8,0:0:0:0:
144,184,20639,1,0,0:0:0:0:
205,246,20818,1,2,0:0:0:0:
87,121,20996,2,0,P|72:57|96:11,1,92.5,8|0,0:0|0:0,0:0:0:0:
291,148,21354,6,0,L|282:246,1,92.5,2|0,0:0|0:0,0:0:0:0:
197,103,21711,2,0,L|206:5,1,92.5,8|0,0:0|0:0,0:0:0:0:
383,100,22068,2,0,P|397:163|373:209,2,92.5,2|2|8,0:0|0:0|0:0,0:0:0:0:
278,235,22603,6,0,B|343:254|343:254|377:286|377:286|465:314,1,185,0|2,0:0|0:0,0:0:0:0:
209,294,23139,2,0,L|308:326,2,92.5,8|8|0,0:0|0:0|0:0,0:0:0:0:
102,257,23675,1,2,0:0:0:0:
252,348,23854,2,0,L|351:380,1,92.5,8|0,0:0|0:0,0:0:0:0:
456,255,24211,5,0,0:0:0:0:
480,161,24389,1,0,0:0:0:0:
391,187,24568,1,8,0:0:0:0:
457,255,24746,1,0,0:0:0:0:
480,161,24925,2,0,L|506:61,1,92.5,2|2,0:0|0:0,0:0:0:0:
369,106,25282,2,0,L|356:3,1,92.5,8|0,0:0|0:0,0:0:0:0:
209,207,25639,6,0,P|162:232|104:237,1,92.5,2|0,0:0|0:0,0:0:0:0:
51,172,25996,1,8,0:0:0:0:
303,207,26175,2,0,P|350:232|408:237,1,92.5,8|0,0:0|0:0,0:0:0:0:
461,172,26532,1,2,0:0:0:0:
257,117,26711,1,12,0:0:0:0:
257,117,27068,6,0,P|196:197|94:177,1,185,4|8,0:0|0:0,0:0:0:0:
69,116,27604,1,0,0:0:0:0:
97,289,27782,2,0,L|116:394,1,92.5,2|2,0:0|0:0,0:0:0:0:
119,194,28139,1,8,0:0:0:0:
154,109,28318,6,0,P|223:28|314:55,1,185
233,221,28854,1,8,0:0:0:0:
247,121,29032,1,8,0:0:0:0:
328,184,29211,2,0,L|435:239,1,92.5,0|2,0:0|0:0,0:0:0:0:
247,121,29568,2,0,L|295:30,1,92.5,8|0,0:0|0:0,0:0:0:0:
233,221,29925,5,2,0:0:0:0:
328,184,30104,1,0,0:0:0:0:
247,121,30282,2,0,P|196:121|152:159,1,92.5,8|0,0:0|0:0,0:0:0:0:
328,184,30639,2,0,P|349:135|320:64,1,92.5,0|2,0:0|0:0,0:0:0:0:
272,28,30996,1,8,0:0:0:0:
272,28,31354,6,0,L|156:40,1,92.5
237,192,31711,1,8,0:0:0:0:
139,225,31889,1,8,0:0:0:0:
41,259,32068,1,0,0:0:0:0:
222,287,32246,1,2,0:0:0:0:
65,153,32425,2,0,L|34:28,1,92.5,8|0,0:0|0:0,0:0:0:0:
236,192,32782,6,0,L|267:317,1,92.5,2|0,0:0|0:0,0:0:0:0:
296,56,33139,1,8,0:0:0:0:
392,176,33318,1,0,0:0:0:0:
236,192,33496,2,0,P|192:226|197:348,1,185,2|8,0:0|0:0,0:0:0:0:
316,232,34032,1,0,0:0:0:0:
208,112,34211,6,0,L|115:118,1,92.5,2|0,0:0|0:0,0:0:0:0:
296,56,34568,1,8,0:0:0:0:
236,192,34746,1,8,0:0:0:0:
144,72,34925,2,0,L|52:79,1,92.5,0|2,0:0|0:0,0:0:0:0:
144,200,35282,2,0,L|236:193,1,92.5,8|0,0:0|0:0,0:0:0:0:
296,56,35639,5,2,0:0:0:0:
392,116,35818,2,0,P|400:176|376:227,1,92.5,0|8,0:0|0:0,0:0:0:0:
301,159,36175,1,0,0:0:0:0:
421,38,36354,2,0,L|533:54,1,92.5,2|2,0:0|0:0,0:0:0:0:
301,159,36711,2,0,P|289:204|301:248,1,92.5,8|0,0:0|0:0,0:0:0:0:
371,306,37068,6,0,L|284:340,1,69.3750026464463,4|0,0:0|0:0,0:0:0:0:
283,341,37336,1,0,1:0:0:0:
260,351,37425,1,0,1:0:0:0:
116,232,37604,1,2,0:0:0:0:
176,292,37782,2,0,L|261:261,1,69.3750026464463,8|0,0:0|3:0,0:0:0:0:
212,144,38139,1,0,1:0:0:0:
212,144,38229,1,2,0:0:0:0:
212,144,38318,1,0,3:0:0:0:
116,232,38496,6,0,P|88:160|124:96,1,138.750005292893,4|2,0:0|0:0,0:0:0:0:
400,108,39032,1,0,0:0:0:0:
256,334,39211,1,2,0:0:0:0:
256,60,39568,1,4,0:0:0:0:
131,109,40104,6,0,L|44:92,2,69.3750026464463,0|8|0,0:0|0:0|3:0,0:0:0:0:
221,133,40639,1,0,0:0:0:0:
310,157,40818,1,0,3:0:0:0:
245,223,40996,1,0,3:0:0:0:
221,133,41175,1,2,0:0:0:0:
393,125,41354,6,0,B|386:161|405:191|405:191|387:222|392:258,1,138.750005292893,4|0,0:0|0:0,0:0:0:0:
156,199,41889,2,0,B|90:176|90:226|11:197,1,138.750005292893,2|0,0:0|0:0,0:0:0:0:
222,133,42425,2,0,P|247:195|225:259,1,138.750005292893,4|0,0:0|0:0,0:0:0:0:
131,113,42961,1,8,0:0:0:0:
196,43,43139,2,0,L|284:29,1,69.3750026464463,8|0,0:0|0:0,0:0:0:0:
369,168,43496,5,8,0:0:0:0:
345,192,43586,1,0,0:0:0:0:
315,207,43675,1,0,0:0:0:0:
281,210,43764,1,0,0:0:0:0:
248,200,43854,1,0,0:0:0:0:
183,95,44032,1,2,0:0:0:0:
136,240,44211,6,0,P|95:249|55:240,1,83.2499974594117,6|0,0:0|0:0,0:0:0:0:
247,199,44568,2,0,P|257:240|248:280,1,83.2499974594117,2|0,0:0|0:0,0:0:0:0:
208,88,44925,2,0,P|248:78|288:87,1,83.2499974594117,2|0,0:0|0:0,0:0:0:0:
92,128,45282,2,0,P|82:87|91:47,1,83.2499974594117,2|0,0:0|0:0,0:0:0:0:
256,167,45639,6,0,B|319:183|319:183|357:173|357:173|417:187,1,166.499994918823,2|2,0:0|0:0,0:0:0:0:
418,187,46175,1,0,0:0:0:0:
256,256,46354,2,0,B|194:263|194:263|161:285|161:285|97:292,1,166.499994918823,2|2,0:0|0:0,0:0:0:0:
256,167,46889,1,0,0:0:0:0:
340,296,47068,6,0,L|359:400,1,83.2499974594117,2|0,0:0|0:0,0:0:0:0:
172,296,47425,2,0,L|153:400,1,83.2499974594117,2|0,0:0|0:0,0:0:0:0:
94,110,47782,2,0,P|130:89|172:88,1,83.2499974594117,2|0,0:0|0:0,0:0:0:0:
172,296,48139,2,0,P|130:294|95:274,1,83.2499974594117,2|0,0:0|0:0,0:0:0:0:
174,190,48496,6,0,B|336:110|336:281|492:192,1,332.999989837647,4|8,0:0|0:0,0:0:0:0:
256,296,49389,1,2,0:0:0:0:
352,65,49925,6,0,P|256:35|142:78,1,203.500006210327,4|8,0:0|0:0,0:0:0:0:
106,171,50461,1,0,0:0:0:0:
193,267,50639,2,0,L|310:313,1,101.750003105164,2|2,0:0|0:0,0:0:0:0:
105,171,50996,1,8,0:0:0:0:
131,345,51175,1,0,0:0:0:0:
102,216,51354,6,0,P|113:137|190:41,1,203.500006210327,2|8,0:0|0:0,0:0:0:0:
281,335,51889,1,0,0:0:0:0:
180,204,52068,2,0,P|187:162|236:103,1,101.750003105164,2|2,0:0|0:0,0:0:0:0:
412,144,52425,2,0,P|422:214|390:276,1,101.750003105164,8|2,0:0|0:0,0:0:0:0:
220,294,52782,6,0,P|192:257|242:98,1,203.500006210327,2|8,0:0|0:0,0:0:0:0:
392,88,53318,1,0,0:0:0:0:
271,30,53496,2,0,P|211:15|146:53,1,101.750003105164,2|2,0:0|0:0,0:0:0:0:
392,195,53854,1,8,0:0:0:0:
245,179,54032,6,0,B|147:135|146:223|38:170,1,203.500006210327,2|0,0:0|0:0,0:0:0:0:
195,255,54568,2,0,P|203:304|186:352,1,101.750003105164,8|8,0:0|0:0,0:0:0:0:
103,99,54925,2,0,P|95:50|112:2,1,101.750003105164,2|2,0:0|0:0,0:0:0:0:
182,146,55282,1,8,0:0:0:0:
99,188,55461,1,0,0:0:0:0:
182,57,55639,6,0,P|250:89|268:138,1,101.750003105164,4|0,0:0|0:0,0:0:0:0:
316,278,55996,1,8,0:0:0:0:
371,110,56175,1,0,0:0:0:0:
227,214,56354,1,2,0:0:0:0:
405,214,56532,1,2,0:0:0:0:
262,110,56711,1,8,0:0:0:0:
316,278,56889,1,0,0:0:0:0:
371,110,57068,6,0,P|477:126|507:217,1,203.500006210327,2|8,0:0|0:0,0:0:0:0:
355,244,57604,1,0,0:0:0:0:
305,340,57782,2,0,P|354:353|403:341,1,101.750003105164,2|2,0:0|0:0,0:0:0:0:
463,244,58139,1,8,0:0:0:0:
400,153,58318,1,0,0:0:0:0:
290,153,58496,2,0,P|221:121|206:75,1,101.750003105164,2|0,0:0|0:0,0:0:0:0:
173,318,58854,6,0,P|244:292|269:243,1,101.750003105164,8|0,0:0|0:0,0:0:0:0:
211,102,59211,1,2,0:0:0:0:
88,227,59389,1,2,0:0:0:0:
210,199,59568,2,0,P|224:150|210:102,1,101.750003105164,8|0,0:0|0:0,0:0:0:0:
89,227,59925,5,2,0:0:0:0:
228,324,60104,1,8,0:0:0:0:
228,324,60193,1,8,0:0:0:0:
228,324,60282,2,0,L|296:316,1,50.8750015525818,8|0,0:3|0:0,0:0:0:0:
412,296,60461,2,0,L|342:306,1,50.8750015525818,8|0,0:3|0:0,0:0:0:0:
152,336,60639,5,12,0:0:0:0:
136,340,60996,1,12,0:0:0:0:
120,344,61354,6,0,P|216:343|247:252,1,203.500006210327,4|8,0:0|0:0,0:0:0:0:
208,144,61889,1,0,0:0:0:0:
268,44,62068,2,0,P|348:42|401:65,1,101.750003105164,2|2,0:0|0:0,0:0:0:0:
208,144,62425,2,0,P|128:146|75:123,1,101.750003105164,8|0,0:0|0:0,0:0:0:0:
268,44,62782,6,0,P|312:96|288:224,1,203.500006210327,2|8,0:0|0:0,0:0:0:0:
191,264,63318,1,0,0:0:0:0:
95,184,63496,2,0,L|115:68,1,101.750003105164,2|2,0:0|0:0,0:0:0:0:
191,264,63854,2,0,L|171:384,1,101.750003105164,8|0,0:0|0:0,0:0:0:0:
213,192,64211,2,0,P|272:250|191:264,1,203.500006210327,2|8,0:0|0:0,0:0:0:0:
229,108,64746,2,0,P|278:115|320:144,2,101.750003105164,0|2|2,0:0|0:0|0:0,0:0:0:0:
128,228,65282,1,8,0:0:0:0:
256,318,65461,6,0,B|354:362|355:274|463:327,1,203.500006210327,2|0,0:0|0:0,0:0:0:0:
310,250,65996,2,0,P|292:203|305:154,1,101.750003105164,8|0,0:0|0:0,0:0:0:0:
257,318,66354,2,0,P|206:329|156:317,1,101.750003105164,2|2,0:0|0:0,0:0:0:0:
207,155,66711,2,0,P|256:143|305:154,1,101.750003105164,8|0,0:0|0:0,0:0:0:0:
394,197,67068,5,4,0:0:0:0:
310,250,67246,1,2,0:0:0:0:
305,155,67425,1,8,3:0:0:0:
397,290,67603,2,0,L|425:330,2,46.25,2|2|2,0:0|0:0|0:0,0:0:0:0:
305,155,67961,1,0,0:0:0:0:
256,318,68139,1,8,0:0:0:0:
207,155,68318,1,0,0:0:0:0:
118,197,68496,5,2,0:0:0:0:
202,250,68674,1,2,0:0:0:0:
207,155,68853,1,8,3:0:0:0:
115,290,69032,2,0,L|87:330,2,46.25,2|2|2,0:0|0:0|0:0,0:0:0:0:
207,155,69389,1,0,0:0:0:0:
256,318,69567,1,8,0:0:0:0:
303,155,69746,1,0,0:0:0:0:
202,250,69925,6,0,B|159:253|127:211|127:211|60:229,2,138.75,4|0|0,0:0|0:0|0:0,0:0:0:0:
310,250,70639,2,0,B|353:253|385:211|385:211|452:229,2,138.75,4|0|0,0:0|0:0|0:0,0:0:0:0:
204,154,71354,5,4,0:0:0:0:
307,155,71532,1,8,0:0:0:0:
256,318,71711,2,0,L|256:368,2,46.25,2|0|2,0:0|0:0|0:0,0:0:0:0:
204,154,72068,2,0,P|153:102|112:93,1,92.5,4|0,0:0|0:0,0:0:0:0:
307,154,72425,2,0,P|348:107|394:94,1,92.5,4|0,0:0|0:0,0:0:0:0:
180,269,72782,6,8,B|136:278|136:278|89:268,1,92.5,4|0,0:0|0:0,0:0:0:0:
332,269,73139,2,0,B|376:278|376:278|423:268,1,92.5,8|0,0:0|0:0,0:0:0:0:
307,154,73496,1,8,0:0:0:0:
256,318,73675,1,2,0:0:0:0:
205,154,73854,1,8,0:0:0:0:
256,318,74032,1,2,0:0:0:0:
354,86,74211,6,0,P|385:135|369:205,1,92.5,8|0,0:0|0:0,0:0:0:0:
126,168,74568,2,0,P|130:122|158:86,1,92.5,8|0,0:0|0:0,0:0:0:0:
256,220,74925,1,8,0:0:0:0:
159,270,75104,1,2,0:0:0:0:
353,270,75282,1,8,0:0:0:0:
256,220,75461,1,2,0:0:0:0:
130,288,75639,6,0,P|86:296|16:279,1,92.5,4|0,0:0|0:0,0:0:0:0:
209,142,75996,2,0,P|253:134|323:151,1,92.5,8|0,0:0|0:0,0:0:0:0:
472,288,76354,2,0,P|427:296|382:288,1,92.5,8|0,0:0|0:0,0:0:0:0:
345,88,76711,6,0,P|379:42|419:23,1,92.5,8|0,0:0|0:0,0:0:0:0:
256,220,77068,2,0,L|256:312,1,92.5,8|0,0:0|0:0,0:0:0:0:
167,88,77425,2,0,P|133:42|93:23,1,92.5,8|0,0:0|0:0,0:0:0:0:
0,128,77782,5,8,0:0:0:0:
40,252,77961,1,2,0:0:0:0:
68,284,78050,1,2,0:0:0:0:
108,300,78139,1,2,0:0:0:0:
148,304,78229,1,0,0:0:0:0:
188,292,78318,1,0,0:0:0:0:
224,268,78407,1,0,0:0:0:0:
248,232,78496,6,0,P|296:204|368:196,1,92.5,4|0,0:0|0:0,0:0:0:0:
144,76,78854,2,0,P|192:104|264:112,1,92.5,8|0,0:0|0:0,0:0:0:0:
40,252,79211,2,8,P|88:224|160:216,1,92.5,8|2,0:0|0:0,0:0:0:0:
0,92,79568,1,8,0:0:0:0:
184,160,79746,6,2,B|224:176|224:176|252:164|252:164|320:196|392:144,1,185,2|2,0:0|0:0,0:0:0:0:
224,52,80282,1,8,0:0:0:0:
88,140,80461,1,2,0:0:0:0:
180,272,80639,2,0,P|167:346|154:364,1,92.5,8|2,0:0|0:0,0:0:0:0:
21,277,80996,1,2,0:0:0:0:
21,277,81086,1,0,0:0:0:0:
21,277,81175,1,0,0:0:0:0:
188,80,81354,1,4,0:1:0:0:
424,272,82068,5,0,0:0:0:0:
428,240,82157,1,0,0:0:0:0:
432,208,82246,1,0,0:0:0:0:
436,176,82335,1,0,0:0:0:0:
440,144,82424,1,4,0:3:0:0:
256,48,82604,1,4,0:1:0:0:
256,292,83318,6,0,L|256:336,3,30.8333333333333,0|0|0|8,0:0|0:0|0:0|0:0,0:0:0:0:
188,176,83675,1,2,0:0:0:0:
324,176,83853,1,2,0:0:0:0:
256,292,84032,1,0,0:0:0:0:
256,48,84211,1,4,0:1:0:0:
256,192,84389,12,0,89568,0:0:0:0:
