osu file format v12

[General]
AudioFilename: Komatsu Mikako - TRICK BOX (TV Size).mp3
AudioLeadIn: 1000
PreviewTime: 49926
Countdown: 0
SampleSet: Normal
StackLeniency: 0.3
Mode: 0
LetterboxInBreaks: 0
WidescreenStoryboard: 0

[Editor]
DistanceSpacing: 1.1
BeatDivisor: 4
GridSize: 4
TimelineZoom: 1

[Metadata]
Title:TRICK BOX (TV Size)
TitleUnicode:TRICK BOX (TV Size)
Artist:Komatsu Mikako
ArtistUnicode:小松未可子
Creator:Andrea
Version:Insane
Source:Nisekoi
Tags:osuplayer111 Momochikun Umi Samah Kenezz ニセコイ False Fake Love Ending Seishirou Tsugumi
BeatmapID:409033
BeatmapSetID:168576

[Difficulty]
HPDrainRate:7
CircleSize:4
OverallDifficulty:8
ApproachRate:9
SliderMultiplier:1.8
SliderTickRate:1

[Events]
//Background and Video events
0,0,"BG.jpg",0,0
Video,830,"ED.avi"
//Break Periods
//Storyboard Layer 0 (Background)
//Storyboard Layer 1 (Fail)
//Storyboard Layer 2 (Pass)
//Storyboard Layer 3 (Foreground)
//Storyboard Sound Samples
//Background Colour Transformations
3,100,163,162,255

[TimingPoints]
1355,357.142857142857,4,1,1,60,1,0
12962,-100,4,2,1,60,0,0
14747,-100,4,1,1,60,0,0
49390,-200,4,1,1,60,0,0
49747,-200,4,1,1,5,0,0
49926,-100,4,1,1,60,0,1
61265,-100,4,1,1,60,0,0
61354,-100,4,1,1,60,0,1
72783,-100,4,1,1,60,0,0
84301,-100,4,1,1,50,0,0
85640,-100,4,1,1,40,0,0
87069,-100,4,1,1,30,0,0
88497,-100,4,1,1,20,0,0
89212,-100,4,1,1,10,0,0
89926,-100,4,2,1,5,0,0

[Colours]
Combo1 : 170,82,207
Combo2 : 98,176,255
Combo3 : 255,134,13
Combo4 : 102,231,24
Combo5 : 234,224,45

[HitObjects]
108,264,997,5,8,0:0:0:0:
40,192,1176,1,2,2:0:0:0:
180,332,1355,2,0,P|272:332|336:276,1,180,4|8,0:0|0:0,0:0:0:0:
464,52,1890,2,0,P|372:52|308:108,1,180,4|0,0:0|0:0,0:0:0:0:
256,192,2426,1,8,0:0:0:0:
48,52,2604,6,0,P|140:52|204:108,1,180,4|0,0:0|0:0,0:0:0:0:
256,192,3140,1,8,0:0:0:0:
192,268,3319,2,0,L|164:304,2,45
256,344,3676,1,0,0:0:0:0:
320,268,3854,2,0,L|348:304,2,45,8|0|0,0:0|0:0|0:0,0:0:0:0:
384,192,4212,5,4,0:0:0:0:
168,92,4390,1,0,0:0:0:0:
344,92,4569,1,8,0:0:0:0:
128,192,4747,2,0,P|84:260|128:340,1,180,4|0,0:0|0:0,0:0:0:0:
256,268,5283,1,8,0:0:0:0:
384,339,5462,6,0,P|428:265|384:192,1,180,4|0,0:0|0:0,0:0:0:0:
320,116,5997,1,8,0:0:0:0:
156,32,6176,1,0,0:0:0:0:
356,32,6354,1,8,0:0:0:0:
192,116,6533,1,0,0:0:0:0:
172,136,6622,1,0,0:0:0:0:
152,156,6712,1,8,0:0:0:0:
132,176,6801,1,0,0:0:0:0:
112,196,6890,1,0,0:0:0:0:
92,216,6979,1,0,0:0:0:0:
72,236,7069,6,0,L|4:300,1,90,4|0,0:0|0:0,0:0:0:0:
84,360,7426,1,8,0:0:0:0:
156,292,7604,2,0,P|248:292|316:344,1,180,4|0,0:0|0:0,0:0:0:0:
468,192,8140,1,8,0:0:0:0:
468,192,8319,6,0,P|376:192|308:140,1,180,4|0,0:0|0:0,0:0:0:0:
256,56,8854,1,8,0:0:0:0:
204,140,9033,2,0,L|160:140,2,45
76,192,9390,1,0,0:0:0:0:
159,244,9569,2,0,L|204:244,2,45,8|0|0,0:0|0:0|0:0,0:0:0:0:
256,328,9926,5,4,0:0:0:0:
464,40,10283,1,8,0:0:0:0:
48,40,10640,1,0,0:0:0:0:
48,243,10819,1,0,0:0:0:0:
48,141,10997,1,8,0:0:0:0:
48,344,11176,6,0,B|112:344|112:344|152:368|152:368|224:368,1,180,4|0,0:0|0:0,0:0:0:0:
244,352,11622,1,0,0:0:0:0:
268,336,11712,1,8,0:0:0:0:
292,320,11801,1,0,0:0:0:0:
316,304,11890,1,0,0:0:0:0:
340,288,11979,1,0,0:0:0:0:
364,272,12069,2,0,L|440:216,1,90
472,36,12426,2,0,L|396:92,1,90,8|0,0:0|0:0,0:0:0:0:
320,148,12783,1,0,0:0:0:0:
256,72,12962,5,2,0:0:0:0:
100,192,13319,1,2,0:0:0:0:
256,312,13676,1,2,0:0:0:0:
412,192,14033,1,2,0:0:0:0:
100,72,14390,1,2,0:0:0:0:
412,312,14747,2,0,P|335:351|256:312,1,180,8|8,0:0|0:0,0:0:0:0:
100,72,15283,6,0,P|177:33|256:72,1,180,4|4,0:3|0:0,0:0:0:0:
256,192,15819,1,0,0:0:0:0:
255,312,15997,2,0,P|177:351|100:312,1,180,8|0,0:0|0:0,0:0:0:0:
40,232,16533,1,0,0:0:0:0:
88,148,16712,1,8,0:0:0:0:
136,64,16890,2,0,P|228:64|296:12,1,180
376,72,17426,2,0,L|444:132,1,90,8|8,0:0|0:0,0:0:0:0:
452,324,17783,2,0,L|384:264,1,90
304,208,18140,6,0,P|212:208|148:264,1,180,8|0,0:0|0:0,0:0:0:0:
76,204,18676,1,0,0:0:0:0:
0,268,18854,1,8,0:0:0:0:
76,328,19033,1,0,0:0:0:0:
0,140,19212,2,0,P|60:72|144:72,1,180,0|8,0:0|0:0,0:0:0:0:
256,36,19747,1,0,0:0:0:0:
512,140,19926,6,0,P|452:72|368:72,1,180,0|8,0:0|0:0,0:0:0:0:
304,148,20462,1,8,0:0:0:0:
208,236,20640,1,0,0:0:0:0:
304,236,20819,1,0,0:0:0:0:
208,148,20997,6,0,P|116:148|44:100,2,180,8|0|8,0:0|0:0|0:0,0:0:0:0:
304,148,21890,2,0,L|380:88,1,90
304,236,22247,2,0,L|228:296,1,90,0|8,0:0|0:0,0:0:0:0:
152,348,22604,2,0,P|60:348|12:280,1,180
16,184,23140,1,8,0:0:0:0:
100,48,23319,1,8,0:0:0:0:
184,184,23497,1,0,0:0:0:0:
16,64,23676,1,0,0:0:0:0:
100,208,23854,1,8,0:0:0:0:
184,64,24033,6,0,P|276:64|344:120,1,180
388,204,24569,2,0,L|432:288,1,90,8|0,0:0|0:0,0:0:0:0:
328,364,24926,2,0,L|284:280,1,90
240,196,25283,1,8,0:0:0:0:
164,260,25462,1,0,0:0:0:0:
88,196,25640,2,0,P|88:104|144:40,1,180,0|8,0:0|0:0,0:0:0:0:
244,36,26176,2,0,P|288:36|328:60,1,90,8|0,0:0|0:0,0:0:0:0:
400,128,26533,1,0,0:0:0:0:
472,196,26712,6,0,P|472:288|416:352,1,180,12|4,0:0|0:0,0:0:0:0:
256,320,27247,1,0,0:0:0:0:
95,351,27426,2,0,P|38:284|40:196,1,180,8|0,0:0|0:0,0:0:0:0:
92,112,27962,1,0,0:0:0:0:
168,48,28140,1,8,0:0:0:0:
244,112,28319,2,0,P|336:112|400:168,1,180,0|0,0:0|0:0,0:0:0:0:
448,252,28854,2,0,L|496:336,1,90,8|8,0:0|0:0,0:0:0:0:
328,280,29212,2,0,L|280:196,1,90
244,112,29569,6,0,P|152:112|88:168,1,180,8|0,0:0|0:0,0:0:0:0:
40,252,30104,1,0,0:0:0:0:
212,320,30283,1,8,0:0:0:0:
112,320,30462,1,0,0:0:0:0:
284,252,30640,2,0,P|376:252|440:196,1,180,0|8,0:0|0:0,0:0:0:0:
380,36,31176,5,0,0:0:0:0:
380,36,31354,2,0,P|288:36|224:92,1,180,0|8,0:0|0:0,0:0:0:0:
164,168,31890,1,8,0:0:0:0:
164,320,32069,1,0,0:0:0:0:
100,244,32247,1,0,0:0:0:0:
228,244,32426,6,0,B|312:244|312:296|400:296,2,180,8|0|8,0:0|0:0|0:0,0:0:0:0:
164,168,33319,2,0,P|120:168|80:148,1,90
172,36,33676,2,0,P|216:36|256:56,1,90,0|8,0:0|0:0,0:0:0:0:
332,120,34033,1,0,0:0:0:0:
396,196,34212,2,0,L|456:264,1,90
392,376,34569,2,0,L|332:308,1,90,8|8,0:0|0:0,0:0:0:0:
180,308,34926,1,0,0:0:0:0:
256,244,35104,1,0,0:0:0:0:
104,244,35283,6,0,P|60:168|104:96,1,180,8|0,0:0|0:0,0:0:0:0:
188,48,35819,1,0,0:0:0:0:
324,48,35997,1,8,0:0:0:0:
256,120,36176,1,0,0:0:0:0:
408,96,36354,6,0,P|452:170|408:244,2,180,0|8|4,0:0|0:0|0:0,0:0:0:0:
324,48,37247,1,0,0:0:0:0:
324,48,37337,1,0,0:0:0:0:
324,48,37426,1,8,0:0:0:0:
188,232,37604,1,0,0:0:0:0:
324,232,37783,1,0,0:0:0:0:
188,48,37962,1,0,0:0:0:0:
188,48,38051,1,0,0:0:0:0:
188,48,38140,2,0,P|144:48|104:72,1,90,8|0,0:0|0:0,0:0:0:0:
28,132,38497,6,0,P|28:224|80:292,1,180,4|8,0:0|0:0,0:0:0:0:
164,344,39033,1,0,0:0:0:0:
348,344,39212,1,0,0:0:0:0:
256,304,39390,1,0,0:0:0:0:
432,291,39569,6,0,P|485:220|484:132,1,180,4|0,0:0|0:0,0:0:0:0:
400,80,40104,2,0,L|324:32,1,90,0|8,0:0|0:0,0:0:0:0:
112,80,40462,2,0,L|188:32,1,90
256,104,40819,1,0,0:0:0:0:
256,280,40997,1,8,0:0:0:0:
192,192,41176,1,0,0:0:0:0:
320,192,41354,6,0,P|412:192|480:244,1,180,4|8,0:0|0:0,0:0:0:0:
256,280,41890,2,0,P|164:280|96:228,1,180,4|0,0:0|0:0,0:0:0:0:
96,52,42426,2,0,P|188:52|256:104,1,180,12|0,0:0|0:0,0:0:0:0:
320,192,42962,1,8,0:0:0:0:
255,280,43140,2,0,P|184:333|96:332,1,180,8|8,0:0|0:0,0:0:0:0:
76,312,43587,1,0,0:0:0:0:
56,292,43676,1,0,0:0:0:0:
36,272,43765,1,0,0:0:0:0:
16,252,43854,1,0,0:0:0:0:
88,180,44033,1,0,0:0:0:0:
16,112,44212,6,0,P|88:52|172:52,1,180,4|2,0:0|2:0,0:0:0:0:
256,100,44747,1,0,0:0:0:0:
496,112,44926,2,0,P|424:52|340:52,1,180,0|2,0:0|2:0,0:0:0:0:
256,192,45462,5,0,0:0:0:0:
256,192,45640,2,0,P|348:192|412:248,1,180,0|2,0:0|2:0,0:0:0:0:
256,344,46176,1,0,0:0:0:0:
256,344,46354,2,0,P|164:344|100:288,1,180,0|2,0:0|2:0,0:0:0:0:
52,108,46890,5,0,0:0:0:0:
52,108,47069,2,0,P|148:108|212:60,1,180,0|2,0:0|2:0,0:0:0:0:
460,108,47604,1,0,0:0:0:0:
460,108,47783,2,0,P|364:108|300:60,1,180,0|2,0:0|2:0,0:0:0:0:
256,328,48319,5,0,0:0:0:0:
256,328,48497,2,0,L|256:148,1,180,4|2,0:0|2:0,0:0:0:0:
256,48,49033,1,0,0:0:0:0:
460,108,49212,5,8,0:0:0:0:
460,108,49390,2,0,P|388:108|336:76,1,135,8|4,0:0|0:0,0:0:0:0:
136,76,50283,6,0,L|72:144,1,90,8|0,0:0|0:0,0:0:0:0:
56,316,50640,2,0,L|120:248,1,90
196,312,50997,1,8,0:0:0:0:
256,232,51176,1,0,0:0:0:0:
316,312,51354,2,0,P|404:312|479:264,1,180,0|8,0:0|0:0,0:0:0:0:
464,40,51890,5,0,0:0:0:0:
464,40,52069,2,0,P|375:39|300:87,1,180,0|8,0:0|0:0,0:0:0:0:
48,40,52604,1,0,0:0:0:0:
48,40,52783,2,0,P|136:39|211:87,1,180,0|8,0:0|0:0,0:0:0:0:
148,164,53319,2,0,L|84:232,1,90
140,360,53676,2,0,L|204:292,1,90,0|8,0:0|0:0,0:0:0:0:
268,220,54033,2,0,B|332:220|332:220|376:244|376:244|444:244,1,180
408,152,54569,2,0,P|408:108|384:68,1,90,8|8,0:0|0:0,0:0:0:0:
202,49,54926,2,0,P|202:93|226:133,1,90
224,132,55283,6,0,B|144:132|144:180|52:180,2,180,8|4|8,0:0|0:0|0:0,0:0:0:0:
324,132,56176,2,0,P|368:132|412:156,1,90
368,328,56533,2,0,P|324:328|280:304,1,90,0|8,0:0|0:0,0:0:0:0:
196,264,56890,1,0,0:0:0:0:
112,212,57069,2,0,P|112:120|172:64,1,180,0|8,0:0|0:0,0:0:0:0:
256,180,57604,1,0,0:0:0:0:
400,172,57783,2,0,P|400:264|340:320,1,180,0|8,0:0|0:0,0:0:0:0:
244,352,58319,1,0,0:0:0:0:
148,324,58497,6,0,P|60:292|24:216,1,180,0|8,0:0|0:0,0:0:0:0:
24,120,59033,1,0,0:0:0:0:
192,48,59212,1,0,0:0:0:0:
92,48,59390,1,0,0:0:0:0:
260,120,59569,2,0,P|352:120|424:168,1,180,8|0,0:0|0:0,0:0:0:0:
484,244,60104,1,8,0:0:0:0:
464,264,60194,1,0,0:0:0:0:
444,284,60283,2,0,L|380:348,1,90,8|0,0:0|0:0,0:0:0:0:
200,344,60640,2,0,L|264:280,1,90,4|0,0:0|2:0,0:0:0:0:
260,120,60997,6,0,P|168:120|96:168,2,180,4|4|8,0:0|0:0|0:0,0:0:0:0:
360,120,61890,2,0,P|404:120|444:144,1,90
464,320,62247,2,0,P|420:320|380:296,1,90,0|8,0:0|0:0,0:0:0:0:
308,232,62605,1,0,0:0:0:0:
204,232,62783,2,0,P|112:232|40:184,1,180,0|8,0:0|0:0,0:0:0:0:
92,28,63319,5,0,0:0:0:0:
92,28,63497,2,0,P|184:28|256:76,1,180,0|8,0:0|0:0,0:0:0:0:
288,168,64033,1,0,0:0:0:0:
324,260,64212,2,0,P|398:308|487:307,1,180,0|8,0:0|0:0,0:0:0:0:
492,208,64747,2,0,L|440:132,1,90
237,93,65104,2,0,L|289:169,1,90,0|8,0:0|0:0,0:0:0:0:
324,260,65462,6,0,P|249:308|160:307,1,180
92,236,65998,1,8,0:0:0:0:
92,76,66176,1,8,0:0:0:0:
32,156,66355,1,0,0:0:0:0:
152,156,66533,1,0,0:0:0:0:
212,76,66712,6,0,P|304:76|376:24,2,180,8|4|8,0:0|0:0|0:0,0:0:0:0:
152,156,67605,1,0,0:0:0:0:
168,180,67694,1,8,0:0:0:0:
184,204,67783,2,0,L|236:280,1,90
288,364,68141,1,8,0:0:0:0:
464,252,68319,5,0,0:0:0:0:
448,228,68408,1,8,0:0:0:0:
432,204,68497,2,0,L|380:128,1,90
324,48,68855,1,8,0:0:0:0:
160,48,69033,5,0,0:0:0:0:
136,64,69122,1,8,0:0:0:0:
112,80,69212,2,0,L|32:132,1,90
36,320,69569,2,0,L|116:268,1,90,8|0,0:0|0:0,0:0:0:0:
312,224,69926,6,0,P|312:292|348:348,2,135,4|2|0,0:0|2:0|0:0,0:0:0:0:
200,224,70640,2,0,P|200:292|164:348,2,135,4|2|0,0:0|2:0|0:0,0:0:0:0:
476,320,71354,2,0,L|396:268,1,90,4|8,0:0|0:0,0:0:0:0:
376,256,71622,1,0,0:0:0:0:
352,240,71712,1,8,0:0:0:0:
328,224,71801,1,0,0:0:0:0:
304,208,71891,1,0,0:0:0:0:
212,36,72069,5,12,0:0:0:0:
140,104,72248,1,0,0:0:0:0:
120,124,72337,1,0,0:0:0:0:
100,144,72426,1,12,0:0:0:0:
32,216,72604,1,0,0:0:0:0:
112,276,72783,6,0,L|180:336,1,90,12|0,0:0|2:0,0:0:0:0:
400,108,73140,2,0,L|332:48,1,90,8|0,0:0|2:0,0:0:0:0:
332,336,73497,2,0,L|400:276,1,90,8|0,0:0|2:0,0:0:0:0:
180,48,73854,2,0,L|112:108,1,90,8|0,0:0|2:0,0:0:0:0:
464,231,74212,6,0,P|482:192|464:152,1,90,8|0,0:0|2:0,0:0:0:0:
47,152,74569,2,0,P|29:192|48:232,1,90,8|0,0:0|2:0,0:0:0:0:
216,360,74926,2,0,P|255:378|295:360,1,90,8|0,0:0|2:0,0:0:0:0:
295,23,75283,2,0,P|255:5|216:23,1,90,8|0,0:0|2:0,0:0:0:0:
128,84,75640,5,12,0:0:0:0:
128,84,75819,1,0,2:0:0:0:
384,300,75997,1,8,0:0:0:0:
384,300,76176,1,0,2:0:0:0:
384,84,76354,5,8,0:0:0:0:
384,84,76533,1,0,2:0:0:0:
128,300,76712,1,8,0:0:0:0:
128,300,76890,1,0,2:0:0:0:
420,192,77069,6,0,L|516:192,1,90,8|0,0:0|2:0,0:0:0:0:
92,192,77426,2,0,L|-4:192,1,90,8|0,0:0|2:0,0:0:0:0:
256,36,77783,1,8,0:0:0:0:
256,136,77962,1,0,0:0:0:0:
256,164,78051,1,0,0:0:0:0:
256,192,78140,1,8,0:0:0:0:
256,220,78229,1,0,0:0:0:0:
256,248,78319,1,0,0:0:0:0:
256,276,78408,1,0,0:0:0:0:
256,304,78497,6,0,P|212:304|172:280,1,90,12|0,0:0|2:0,0:0:0:0:
8,168,78854,2,0,P|52:168|92:192,1,90,8|0,0:0|2:0,0:0:0:0:
256,35,79212,2,0,P|300:36|338:58,1,90,8|0,0:0|2:0,0:0:0:0:
504,172,79569,2,0,P|459:171|421:149,1,90,8|0,0:0|2:0,0:0:0:0:
446,326,79926,6,0,P|402:326|364:304,1,90,8|0,0:0|2:0,0:0:0:0:
65,326,80283,2,0,P|109:326|148:303,1,90,8|0,0:0|2:0,0:0:0:0:
65,57,80640,2,0,P|109:57|148:80,1,90,8|0,0:0|2:0,0:0:0:0:
446,57,80997,2,0,P|402:57|364:80,1,90,8|0,0:0|2:0,0:0:0:0:
256,192,81354,1,4,0:0:0:0:
256,220,82069,5,8,0:3:0:0:
256,248,82158,1,8,0:3:0:0:
256,276,82247,1,8,0:3:0:0:
256,304,82337,1,8,0:3:0:0:
256,332,82426,1,8,0:3:0:0:
155,179,82604,6,0,P|255:103|355:179,1,270,4|0,0:0|0:0,0:0:0:0:
356,332,83319,1,8,0:3:0:0:
356,332,83408,1,8,0:3:0:0:
356,332,83497,1,8,0:0:0:0:
156,180,83676,1,8,0:3:0:0:
356,180,83854,1,8,0:3:0:0:
156,332,84033,1,8,0:3:0:0:
256,28,84212,1,4,0:0:0:0:
256,192,84301,12,0,89926,0:0:0:0:
