osu file format v13

[General]
AudioFilename: Nisekoi ED3 Single - TRICK BOX [New Komatsu Mikako].mp3
AudioLeadIn: 0
PreviewTime: 109483
Countdown: 0
SampleSet: Normal
StackLeniency: 0.7
Mode: 0
LetterboxInBreaks: 1
WidescreenStoryboard: 0

[Editor]
DistanceSpacing: 0.9
BeatDivisor: 4
GridSize: 8
TimelineZoom: 3.699999

[Metadata]
Title:TRICK BOX (Full Ver.)
TitleUnicode:TRICK BOX (Full Ver.)
Artist:Komatsu Mikako
ArtistUnicode:小松未可子
Creator:mikimari
Version:Insane
Source:Nisekoi
Tags:ニセコイ False Fake Love Ending Seishirou Tsugumi
BeatmapID:442702
BeatmapSetID:185047

[Difficulty]
HPDrainRate:7
CircleSize:4
OverallDifficulty:8
ApproachRate:9
SliderMultiplier:1.8
SliderTickRate:2

[Events]
//Background and Video events
0,0,"nisekoi.jpg",0,0
//Break Periods
2,142897,156026
//Storyboard Layer 0 (Background)
//Storyboard Layer 1 (Fail)
//Storyboard Layer 2 (Pass)
//Storyboard Layer 3 (Foreground)
//Storyboard Sound Samples
//Background Colour Transformations
3,100,163,162,255

[TimingPoints]
14841,357.142857142856,4,1,1,60,1,0
36358,-100,4,1,2,60,0,0
36537,-100,4,1,1,60,0,0
37073,-100,4,1,2,60,0,0
37251,-100,4,1,1,60,0,0
42876,-100,4,1,1,50,0,0
43055,-100,4,1,1,60,0,0
43233,-100,4,1,1,50,0,0
43412,-100,4,1,1,60,0,0
43769,-100,4,1,1,20,0,0
44126,-100,4,1,1,30,0,0
44483,-100,4,1,1,40,0,0
44840,-100,4,1,1,50,0,0
45198,-100,4,1,1,60,0,0
49126,-100,4,1,1,60,0,1
68590,-100,4,1,1,50,0,1
68769,-100,4,1,1,60,0,1
72162,-100,4,1,1,60,0,0
74662,-100,4,1,1,60,0,0
109126,-100,4,1,1,60,0,1
137519,-100,4,1,1,60,0,0
142876,-100,4,1,1,60,0,0
179662,-100,4,1,1,60,0,1
213412,-100,4,1,1,60,0,0

[HitObjects]
128,192,14842,5,4,0:0:0:0:
392,192,15198,1,2,0:0:0:0:
256,192,15555,1,0,0:0:0:0:
256,192,15733,1,0,0:0:0:0:
192,104,15912,1,8,0:0:0:0:
328,280,16090,1,0,0:0:0:0:
376,192,16448,1,0,0:0:0:0:
288,64,16626,1,8,0:0:0:0:
432,112,16983,2,0,P|464:192|408:288,1,180,0|8,0:0|0:0,0:0:0:0:
280,200,17698,6,0,P|240:256|256:296,1,90,4|0,0:0|0:0,0:0:0:0:
424,272,18055,2,0,P|456:232|440:184,1,90,8|8,0:0|0:0,0:0:0:0:
160,192,18412,1,2,0:0:0:0:
344,192,18769,1,8,0:0:0:0:
416,264,19126,2,0,P|320:352|256:352,1,180,0|8,0:0|0:0,0:0:0:0:
256,264,19662,1,0,0:0:0:0:
96,264,19840,2,0,P|192:352|256:352,1,180,0|8,0:0|0:0,0:0:0:0:
256,192,20555,5,4,0:0:0:0:
256,88,20912,1,8,0:0:0:0:
128,136,21269,1,0,0:0:0:0:
376,136,21448,1,8,0:0:0:0:
168,264,21805,2,0,L|352:264,1,180,0|0,0:0|0:0,0:0:0:0:
168,264,22340,1,8,0:0:0:0:
344,264,22698,2,0,L|144:264,1,180,0|8,0:0|0:0,0:0:0:0:
168,144,23590,5,0,0:0:0:0:
304,104,23769,1,8,0:0:0:0:
208,280,23948,1,8,0:0:0:0:
344,240,24126,1,8,0:0:0:0:
80,160,24483,2,0,P|104:80|200:56,1,180,0|8,0:0|0:0,0:0:0:0:
256,56,25198,1,2,0:0:0:0:
336,56,25376,1,0,0:0:0:0:
200,192,25555,5,8,0:0:0:0:
227,175,25644,1,8,0:0:0:0:
257,168,25733,1,8,0:0:0:0:
288,169,25822,1,8,0:0:0:0:
319,176,25912,1,0,0:0:0:0:
350,182,26001,1,0,0:0:0:0:
381,181,26090,1,0,0:0:0:0:
411,172,26179,1,0,0:0:0:0:
439,157,26269,1,4,0:0:0:0:
328,248,26626,5,8,0:0:0:0:
184,248,26983,1,0,0:0:0:0:
80,248,27162,1,0,0:0:0:0:
128,152,27340,2,0,L|312:152,1,180,8|0,0:0|0:0,0:0:0:0:
128,152,27876,1,2,0:0:0:0:
304,152,28055,2,0,L|120:152,1,180,8|0,0:0|0:0,0:0:0:0:
304,152,28590,1,2,0:0:0:0:
256,72,28769,2,0,L|440:72,1,180,8|0,0:0|0:0,0:0:0:0:
464,216,29305,5,0,0:0:0:0:
368,296,29483,1,8,0:0:0:0:
416,104,29662,1,8,0:0:0:0:
320,184,29840,1,2,0:0:0:0:
184,192,30198,2,0,P|264:144|328:192,4,180,8|0|8|0|8,0:0|0:0|0:0|0:0|0:0,0:0:0:0:
256,40,31983,5,0,0:0:0:0:
72,320,32340,1,8,0:0:0:0:
432,320,32698,1,4,0:0:0:0:
256,144,33233,1,8,0:0:0:0:
72,144,33412,1,0,0:0:0:0:
160,224,33590,1,0,0:0:0:0:
256,296,33769,1,8,0:0:0:0:
352,224,33948,1,0,0:0:0:0:
440,144,34126,2,2,P|400:64|304:56,1,180,8|0,0:0|0:0,0:0:0:0:
320,216,35019,5,8,0:0:0:0:
392,120,35198,1,0,0:0:0:0:
296,48,35376,1,0,0:0:0:0:
216,136,35555,2,0,P|168:184|240:272,1,180,2|0,0:0|0:0,0:0:0:0:
360,96,36269,2,0,P|408:184|320:232,1,180,8|0,0:0|0:0,0:0:0:0:
152,96,36983,2,0,P|96:176|168:256,1,180,8|0,0:0|0:0,0:0:0:0:
256,272,37698,2,2,L|256:72,2,180,0|8|0,0:0|0:0|0:0,0:0:0:0:
256,88,38769,1,4,0:0:0:0:
344,272,39305,5,0,0:0:0:0:
256,192,39483,1,8,0:0:0:0:
168,112,39662,1,8,0:0:0:0:
72,160,39840,2,0,L|72:352,1,180,0|8,0:0|0:0,0:0:0:0:
160,336,40555,2,0,L|160:152,1,180,0|8,0:0|0:0,0:0:0:0:
240,336,41090,2,8,L|240:144,1,180,0|8,0:0|0:0,0:0:0:0:
320,336,41626,1,4,0:0:0:0:
400,184,42162,5,8,0:0:0:0:
232,264,42340,1,8,0:0:0:0:
360,304,42519,1,8,0:0:0:0:
272,144,42698,1,8,0:0:0:0:
256,112,42787,1,8,0:0:0:0:
229,88,42876,1,8,0:0:0:0:
197,72,42965,1,8,0:0:0:0:
161,64,43054,1,0,0:0:0:0:
126,65,43144,1,0,0:0:0:0:
91,76,43233,1,0,0:0:0:0:
61,95,43322,1,0,0:0:0:0:
36,121,43412,1,4,0:0:0:0:
328,320,43769,5,8,0:0:0:0:
392,256,43948,1,8,0:0:0:0:
184,64,44126,1,8,0:0:0:0:
120,128,44305,1,8,0:0:0:0:
232,304,44483,1,8,0:0:0:0:
368,160,44662,1,8,0:0:0:0:
144,224,44840,1,8,0:0:0:0:
280,80,45019,1,8,0:0:0:0:
256,192,45198,5,8,0:0:0:0:
256,192,45376,1,8,0:0:0:0:
328,256,45555,1,0,0:0:0:0:
176,128,45733,1,8,0:0:0:0:
64,56,45912,1,0,0:0:0:0:
104,56,46001,1,0,0:0:0:0:
136,64,46090,1,8,0:0:0:0:
168,80,46180,1,8,0:0:0:0:
192,112,46269,6,0,L|136:192,1,90,4|8,0:0|0:0,0:0:0:0:
160,264,46626,2,0,L|264:320,1,90,0|8,0:0|0:0,0:0:0:0:
320,272,46983,2,0,L|376:192,1,90,0|8,0:0|0:0,0:0:0:0:
352,120,47340,2,8,L|248:64,1,90,0|0,0:0|0:0,0:0:0:0:
80,72,47698,5,0,0:0:0:0:
64,104,47787,1,0,0:0:0:0:
48,136,47876,1,8,0:0:0:0:
32,168,47965,1,8,0:0:0:0:
64,216,48055,1,0,0:0:0:0:
88,184,48144,1,0,0:0:0:0:
104,160,48233,1,8,0:0:0:0:
128,128,48323,1,8,0:0:0:0:
144,104,48412,6,0,P|224:64|312:120,1,180,8|2,0:0|0:0,0:0:0:0:
360,160,48948,1,8,0:0:0:0:
64,320,49126,1,4,0:0:0:0:
48,120,49483,2,8,P|104:40|200:64,1,180,2|0,0:0|0:0,0:0:0:0:
256,88,50019,1,0,0:0:0:0:
352,192,50198,1,8,0:0:0:0:
256,288,50376,1,8,0:0:0:0:
160,192,50555,1,0,0:0:0:0:
160,88,50912,5,8,0:0:0:0:
352,88,51090,1,0,0:0:0:0:
72,192,51269,2,0,P|88:264|136:288,1,90,2|0,0:0|0:0,0:0:0:0:
448,192,51626,2,0,P|432:272|400:296,1,90,2|0,0:0|0:0,0:0:0:0:
256,304,51983,2,0,L|256:96,1,180,4|8,0:0|0:0,0:0:0:0:
256,304,52519,5,0,0:0:0:0:
176,192,52698,1,0,0:0:0:0:
328,192,52876,1,0,0:0:0:0:
176,64,53055,2,0,P|120:80|112:136,1,90,10|0,0:0|0:0,0:0:0:0:
176,184,53412,2,0,P|216:176|224:128,1,90,0|0,0:0|0:0,0:0:0:0:
256,264,53769,2,0,P|296:240|304:192,1,90,8|0,0:0|0:0,0:0:0:0:
360,320,54126,2,0,P|400:296|400:248,1,90,0|2,0:0|0:0,0:0:0:0:
336,120,54483,5,8,0:0:0:0:
301,91,54572,1,8,0:0:0:0:
258,80,54661,1,8,0:0:0:0:
214,88,54750,1,8,0:0:0:0:
178,114,54840,1,4,0:0:0:0:
72,192,55198,2,0,P|40:224|88:264,1,90,8|8,0:0|0:0,0:0:0:0:
136,288,55555,2,0,P|168:256|144:200,1,90,8|8,0:0|0:0,0:0:0:0:
424,288,55912,1,0,0:0:0:0:
424,88,56090,1,8,0:0:0:0:
256,192,56269,5,0,0:0:0:0:
320,120,56448,1,8,0:0:0:0:
320,264,56626,1,0,0:0:0:0:
184,120,56805,2,8,P|128:96|96:40,1,90,0|8,0:0|0:0,0:0:0:0:
360,192,57162,2,0,L|456:192,1,90,8|2,0:0|0:0,0:0:0:0:
184,264,57519,2,0,P|152:320|88:328,1,90,2|4,0:0|0:0,0:0:0:0:
96,192,57876,1,8,0:0:0:0:
432,192,58055,1,0,0:0:0:0:
256,192,58233,1,0,0:0:0:0:
176,104,58412,6,2,P|256:56|320:136,2,180,0|8|0,0:0|0:0|0:0,0:0:0:0:
160,144,59215,1,0,0:0:0:0:
152,176,59305,1,8,0:0:0:0:
224,288,59483,1,2,0:0:0:0:
264,272,59573,1,0,0:0:0:0:
304,256,59662,1,8,0:0:0:0:
416,192,59840,5,2,0:0:0:0:
400,152,59930,1,0,0:0:0:0:
376,112,60019,1,8,0:0:0:0:
344,80,60108,1,8,0:0:0:0:
312,56,60198,1,2,0:0:0:0:
272,40,60287,1,0,0:0:0:0:
232,32,60376,1,8,0:0:0:0:
192,32,60465,1,8,0:0:0:0:
152,40,60555,1,4,0:0:0:0:
344,320,60912,6,0,P|400:344|424:296,1,90,2|8,0:0|0:0,0:0:0:0:
168,88,61269,2,0,P|120:64|72:96,1,90,2|8,0:0|0:0,0:0:0:0:
192,256,61626,1,0,0:0:0:0:
320,128,61805,1,8,0:0:0:0:
256,192,61983,1,8,0:0:0:0:
272,56,62340,5,0,0:0:0:0:
504,80,62519,1,8,0:0:0:0:
464,208,62698,1,0,0:0:0:0:
384,112,62876,1,8,0:0:0:0:
344,232,63055,1,8,0:0:0:0:
312,256,63144,1,8,0:0:0:0:
272,272,63233,1,0,0:0:0:0:
232,272,63323,1,0,0:0:0:0:
192,264,63412,1,4,0:0:0:0:
128,80,63769,5,8,0:0:0:0:
56,200,63948,1,2,0:0:0:0:
56,200,64037,1,0,0:0:0:0:
56,200,64126,2,0,P|64:264|88:288,1,90,8|0,0:0|0:0,0:0:0:0:
208,176,64483,1,8,0:0:0:0:
360,64,64662,5,0,0:0:0:0:
424,176,64840,1,2,0:0:0:0:
296,224,65019,1,0,0:0:0:0:
344,352,65198,1,2,0:0:0:0:
184,304,65376,1,0,0:0:0:0:
80,200,65555,2,0,P|104:128|112:128,1,90,2|0,0:0|0:0,0:0:0:0:
184,72,65912,1,2,0:0:0:0:
256,192,66090,1,2,0:0:0:0:
288,168,66180,1,0,0:0:0:0:
320,144,66269,1,4,0:0:0:0:
328,72,66626,6,0,L|400:136,1,90,2|0,0:0|0:0,0:0:0:0:
192,312,66983,1,8,0:0:0:0:
120,248,67162,1,8,0:0:0:0:
184,72,67340,2,0,L|112:136,1,90,2|0,0:0|0:0,0:0:0:0:
320,312,67698,1,8,0:0:0:0:
392,248,67876,1,8,0:0:0:0:
256,192,68055,1,0,0:0:0:0:
256,192,68233,1,0,0:0:0:0:
288,72,68412,5,8,0:0:0:0:
319,72,68501,1,8,0:0:0:0:
350,78,68590,1,8,0:0:0:0:
379,89,68679,1,8,0:0:0:0:
406,105,68769,1,0,0:0:0:0:
430,125,68858,1,0,0:0:0:0:
450,149,68947,1,0,0:0:0:0:
466,177,69036,1,0,0:0:0:0:
476,207,69126,1,4,0:0:0:0:
256,192,69305,5,2,0:0:0:0:
160,48,69483,2,0,P|96:56|80:104,1,90,8|0,0:0|0:0,0:0:0:0:
328,112,69840,1,0,0:0:0:0:
184,272,70019,1,8,0:0:0:0:
360,328,70198,2,0,P|424:320|424:264,1,90,8|0,0:0|0:0,0:0:0:0:
408,104,70555,5,0,0:0:0:0:
328,208,70733,1,8,0:0:0:0:
192,288,70912,1,0,0:0:0:0:
160,264,71001,1,0,0:0:0:0:
136,232,71090,1,8,0:0:0:0:
256,56,71269,5,8,0:0:0:0:
230,81,71358,1,8,0:0:0:0:
216,114,71447,1,0,0:0:0:0:
222,148,71536,1,0,0:0:0:0:
242,179,71626,1,8,0:0:0:0:
265,206,71715,1,8,0:0:0:0:
284,237,71804,1,8,0:0:0:0:
291,271,71893,1,8,0:0:0:0:
277,304,71983,1,4,0:0:0:0:
256,192,72340,12,0,74481,0:0:0:0:
256,192,74840,5,0,0:0:0:0:
368,272,75198,1,0,0:0:0:0:
320,80,75555,1,0,0:0:0:0:
424,144,75733,2,0,P|472:208|480:248,1,90
144,272,76090,5,0,0:0:0:0:
352,80,76448,1,0,0:0:0:0:
424,184,76626,1,0,0:0:0:0:
184,88,76983,1,0,0:0:0:0:
80,192,77340,1,0,0:0:0:0:
408,256,77698,6,0,P|432:200|424:160,1,90
104,128,78055,2,0,P|80:184|88:224,1,90
256,72,78412,1,0,0:0:0:0:
256,304,78769,1,0,0:0:0:0:
440,136,79126,6,0,P|400:72|272:48,1,180
256,136,79662,1,0,0:0:0:0:
72,136,79840,2,0,P|112:72|240:48,1,180
192,64,80555,5,0,0:0:0:0:
320,64,80912,1,0,0:0:0:0:
128,192,81269,1,0,0:0:0:0:
384,192,81448,1,0,0:0:0:0:
168,304,81805,2,0,L|352:304,1,180
168,304,82340,1,0,0:0:0:0:
344,304,82698,2,0,L|160:304,1,180
96,136,83590,5,0,0:0:0:0:
224,232,83769,1,0,0:0:0:0:
248,72,83948,1,0,0:0:0:0:
96,136,84126,1,0,0:0:0:0:
408,56,84483,6,0,P|424:112|408:152,1,90
416,240,84840,1,0,0:0:0:0:
320,336,85019,1,0,0:0:0:0:
184,344,85198,1,0,0:0:0:0:
88,264,85376,1,0,0:0:0:0:
64,136,85555,5,0,0:0:0:0:
82,105,85644,1,0,0:0:0:0:
106,78,85733,1,0,0:0:0:0:
135,57,85822,1,0,0:0:0:0:
168,42,85912,1,0,0:0:0:0:
203,34,86001,1,0,0:0:0:0:
239,33,86090,1,0,0:0:0:0:
274,40,86179,1,0,0:0:0:0:
307,54,86269,1,0,0:0:0:0:
256,296,86626,5,0,0:0:0:0:
176,80,86983,1,0,0:0:0:0:
336,80,87162,1,0,0:0:0:0:
168,192,87340,2,0,L|376:192,1,180
168,192,87876,1,0,0:0:0:0:
352,280,88055,2,0,L|144:280,1,180
352,280,88590,1,0,0:0:0:0:
328,112,88769,2,0,P|224:72|160:128,1,180
144,288,89305,5,0,0:0:0:0:
368,288,89483,1,0,0:0:0:0:
368,96,89662,1,0,0:0:0:0:
144,96,89840,1,0,0:0:0:0:
184,192,90198,2,0,P|256:152|344:208,4,180,0|0|0|0|0,0:0|0:0|0:0|0:0|0:0,0:0:0:0:
256,328,91983,5,0,0:0:0:0:
64,48,92340,1,0,0:0:0:0:
448,48,92698,1,0,0:0:0:0:
256,192,93233,1,0,0:0:0:0:
424,192,93412,1,0,0:0:0:0:
344,112,93590,1,0,0:0:0:0:
256,32,93769,1,0,0:0:0:0:
168,112,93948,1,0,0:0:0:0:
88,192,94126,2,0,P|104:296|168:336,1,180
160,256,94840,5,0,0:0:0:0:
352,128,95019,1,0,0:0:0:0:
328,280,95198,1,0,0:0:0:0:
184,104,95376,1,0,0:0:0:0:
256,192,95555,1,0,0:0:0:0:
232,336,95912,1,0,0:0:0:0:
432,272,96269,6,0,P|464:192|416:96,1,180
80,272,96983,2,0,P|48:192|96:96,1,180
256,272,97698,2,0,L|256:72,2,180,0|0|0,0:0|0:0|0:0,0:0:0:0:
256,88,98769,1,0,0:0:0:0:
152,112,99305,5,0,0:0:0:0:
240,192,99483,1,0,0:0:0:0:
336,272,99662,1,0,0:0:0:0:
424,224,99840,2,0,L|424:40,1,180
336,40,100555,2,0,L|336:232,1,180
256,40,101090,2,0,L|256:224,1,180
176,40,101626,1,0,0:0:0:0:
240,192,102162,5,0,0:0:0:0:
152,40,102340,1,0,0:0:0:0:
112,152,102519,1,0,0:0:0:0:
280,80,102698,1,0,0:0:0:0:
315,87,102787,1,0,0:0:0:0:
348,101,102876,1,0,0:0:0:0:
377,122,102965,1,0,0:0:0:0:
403,147,103055,1,0,0:0:0:0:
423,177,103144,1,0,0:0:0:0:
436,210,103233,1,0,0:0:0:0:
444,245,103322,1,0,0:0:0:0:
444,281,103412,1,0,0:0:0:0:
200,120,103769,5,0,0:0:0:0:
312,264,103948,1,0,0:0:0:0:
160,168,104126,1,0,0:0:0:0:
352,216,104305,1,0,0:0:0:0:
160,216,104483,5,0,0:0:0:0:
352,168,104662,1,0,0:0:0:0:
200,264,104840,1,0,0:0:0:0:
312,120,105019,1,0,0:0:0:0:
256,192,105198,5,0,0:0:0:0:
256,192,105376,1,0,0:0:0:0:
256,328,105555,1,0,0:0:0:0:
256,328,105733,1,0,0:0:0:0:
160,88,105912,5,0,0:0:0:0:
192,64,106001,1,0,0:0:0:0:
232,56,106090,1,0,0:0:0:0:
272,56,106180,1,0,0:0:0:0:
312,72,106269,2,0,P|344:104|368:144,1,90
200,312,106626,2,0,P|168:280|144:240,1,90
176,104,106983,5,0,0:0:0:0:
344,272,107162,1,0,0:0:0:0:
224,216,107340,1,0,0:0:0:0:
112,304,107519,1,0,0:0:0:0:
320,136,107698,5,0,0:0:0:0:
344,104,107787,1,0,0:0:0:0:
368,72,107876,1,0,0:0:0:0:
392,40,107965,1,0,0:0:0:0:
424,72,108055,1,0,0:0:0:0:
416,104,108144,1,0,0:0:0:0:
400,144,108233,1,0,0:0:0:0:
384,176,108323,1,0,0:0:0:0:
368,208,108412,6,0,P|304:264|192:264,1,180,0|0,0:0|0:0,0:0:0:0:
120,152,108948,1,0,0:0:0:0:
424,304,109126,1,0,0:0:0:0:
320,88,109483,5,0,0:0:0:0:
264,240,109662,1,0,0:0:0:0:
424,208,109840,1,0,0:0:0:0:
184,120,110019,1,0,0:0:0:0:
144,272,110198,1,0,0:0:0:0:
304,224,110376,1,0,0:0:0:0:
88,144,110555,2,0,P|128:64|216:64,1,180
344,120,111090,5,0,0:0:0:0:
176,304,111269,1,0,0:0:0:0:
328,264,111448,1,0,0:0:0:0:
104,128,111626,1,0,0:0:0:0:
136,104,111715,1,0,0:0:0:0:
168,88,111805,1,0,0:0:0:0:
208,72,111894,1,0,0:0:0:0:
248,64,111983,2,0,P|336:96|424:184,1,180
256,192,112519,5,0,0:0:0:0:
88,296,112698,1,0,0:0:0:0:
112,144,112876,1,0,0:0:0:0:
264,232,113055,1,0,0:0:0:0:
168,256,113233,1,0,0:0:0:0:
224,96,113412,1,0,0:0:0:0:
352,176,113590,1,0,0:0:0:0:
304,320,113769,5,0,0:0:0:0:
304,320,113948,1,0,0:0:0:0:
264,56,114126,1,0,0:0:0:0:
264,56,114305,1,0,0:0:0:0:
104,120,114483,5,0,0:0:0:0:
75,154,114572,1,0,0:0:0:0:
58,195,114661,1,0,0:0:0:0:
56,240,114750,1,0,0:0:0:0:
69,283,114840,1,0,0:0:0:0:
424,184,115198,6,0,P|368:216|336:200,1,90,0|0,0:0|0:0,0:0:0:0:
88,200,115555,2,0,P|144:168|176:184,1,90
256,80,115912,1,0,0:0:0:0:
296,208,116090,1,0,0:0:0:0:
296,208,116180,1,0,0:0:0:0:
296,208,116269,1,0,0:0:0:0:
376,104,116626,5,0,0:0:0:0:
216,128,116805,1,0,0:0:0:0:
152,264,116983,1,0,0:0:0:0:
178,288,117072,1,0,0:0:0:0:
209,306,117161,1,0,0:0:0:0:
243,317,117250,1,0,0:0:0:0:
280,320,117340,1,0,0:0:0:0:
315,318,117429,1,0,0:0:0:0:
349,307,117518,1,0,0:0:0:0:
380,289,117607,1,0,0:0:0:0:
407,265,117697,1,0,0:0:0:0:
104,176,118055,5,0,0:0:0:0:
152,48,118233,1,0,0:0:0:0:
296,56,118412,1,0,0:0:0:0:
330,66,118501,1,0,0:0:0:0:
361,84,118590,1,0,0:0:0:0:
387,109,118679,1,0,0:0:0:0:
406,139,118769,1,0,0:0:0:0:
416,173,118858,1,0,0:0:0:0:
419,209,118947,1,0,0:0:0:0:
412,245,119036,1,0,0:0:0:0:
400,280,119126,2,0,L|296:328,1,90
256,280,119483,2,0,L|152:320,1,90
256,192,119840,2,0,P|216:152|208:208,1,135
240,232,120198,1,0,0:0:0:0:
256,192,120555,5,0,0:0:0:0:
160,128,120912,1,0,0:0:0:0:
352,128,121090,1,0,0:0:0:0:
352,256,121269,1,0,0:0:0:0:
160,256,121448,1,0,0:0:0:0:
256,72,121626,1,0,0:0:0:0:
256,312,121805,1,0,0:0:0:0:
184,192,121983,6,0,P|264:152|344:216,1,180
128,104,122519,1,0,0:0:0:0:
232,224,122698,1,0,0:0:0:0:
368,152,122876,1,0,0:0:0:0:
358,117,122965,1,0,0:0:0:0:
340,86,123054,1,0,0:0:0:0:
315,60,123143,1,0,0:0:0:0:
284,42,123233,1,0,0:0:0:0:
249,33,123322,1,0,0:0:0:0:
208,32,123412,2,0,P|103:56|46:125,1,180
112,280,123948,5,0,0:0:0:0:
224,112,124126,1,0,0:0:0:0:
320,296,124305,1,0,0:0:0:0:
232,224,124483,1,0,0:0:0:0:
384,88,124662,1,0,0:0:0:0:
176,96,124840,1,0,0:0:0:0:
176,96,124930,1,0,0:0:0:0:
176,96,125019,1,0,0:0:0:0:
320,208,125198,1,0,0:0:0:0:
320,208,125287,1,0,0:0:0:0:
320,208,125376,1,0,0:0:0:0:
368,96,125555,5,0,0:0:0:0:
332,97,125644,1,0,0:0:0:0:
297,107,125733,1,0,0:0:0:0:
268,129,125822,1,0,0:0:0:0:
248,158,125912,1,0,0:0:0:0:
232,190,126001,1,0,0:0:0:0:
215,222,126090,1,0,0:0:0:0:
187,244,126179,1,0,0:0:0:0:
152,264,126269,2,0,L|168:392,1,90
320,192,126626,6,0,L|424:200,1,90
256,128,126983,2,0,L|264:32,1,90
184,184,127340,2,0,L|80:168,1,90
336,288,127698,1,0,0:0:0:0:
336,288,127876,1,0,0:0:0:0:
160,88,128055,1,0,0:0:0:0:
160,88,128233,1,0,0:0:0:0:
448,32,128412,5,0,0:0:0:0:
408,40,128501,1,0,0:0:0:0:
368,48,128590,1,0,0:0:0:0:
328,64,128680,1,0,0:0:0:0:
336,96,128769,1,0,0:0:0:0:
352,136,128858,1,0,0:0:0:0:
368,176,128948,1,0,0:0:0:0:
384,216,129037,1,0,0:0:0:0:
392,248,129126,2,0,L|288:248,1,90
128,96,129483,2,0,L|224:96,1,90
136,264,129840,5,0,0:0:0:0:
312,48,130019,1,0,0:0:0:0:
184,88,130198,1,0,0:0:0:0:
208,99,130287,1,0,0:0:0:0:
228,117,130376,1,0,0:0:0:0:
242,140,130465,1,0,0:0:0:0:
248,160,130555,2,0,P|299:134|252:192,1,180
168,80,131269,2,0,P|104:96|72:136,1,90
344,304,131626,2,0,P|408:288|440:248,1,90
296,96,131983,6,0,P|360:152|400:248,1,180
384,328,132519,1,0,0:0:0:0:
216,288,132698,2,0,P|152:232|112:136,1,180
112,48,133233,1,0,0:0:0:0:
344,48,133412,2,0,P|408:104|448:200,1,180,0|0,0:0|0:0,0:0:0:0:
448,280,133948,1,0,0:0:0:0:
168,336,134126,2,0,P|104:280|64:184,1,180,0|0,0:0|0:0,0:0:0:0:
56,96,134662,1,0,0:0:0:0:
160,96,134840,5,0,0:0:0:0:
160,96,135198,1,0,0:0:0:0:
128,192,135376,1,0,0:0:0:0:
360,272,135555,1,0,0:0:0:0:
360,272,135912,1,0,0:0:0:0:
392,192,136090,1,0,0:0:0:0:
216,192,136269,2,0,P|248:160|232:232,1,180
256,239,136805,1,0,0:0:0:0:
352,112,136983,5,0,0:0:0:0:
160,280,137340,1,0,0:0:0:0:
256,192,137698,12,0,142697,0:0:0:0:
256,192,156626,5,0,0:0:0:0:
352,104,156983,1,0,0:0:0:0:
440,192,157340,1,0,0:0:0:0:
352,288,157698,1,0,0:0:0:0:
160,104,158055,1,0,0:0:0:0:
72,192,158412,1,0,0:0:0:0:
160,288,158769,1,0,0:0:0:0:
328,104,159126,6,0,P|232:64|168:120,1,180
96,192,159662,1,0,0:0:0:0:
184,280,159840,2,0,P|280:320|344:264,1,180
416,192,160376,1,0,0:0:0:0:
256,192,160555,6,0,L|256:8,1,180
256,192,161090,1,0,0:0:0:0:
120,192,161269,1,0,0:0:0:0:
400,192,161448,1,0,0:0:0:0:
336,288,161626,1,0,0:0:0:0:
302,317,161715,1,0,0:0:0:0:
259,328,161804,1,0,0:0:0:0:
216,316,161893,1,0,0:0:0:0:
183,286,161983,1,0,0:0:0:0:
152,64,162340,6,0,P|232:88|280:128,1,135,0|0,0:0|0:0,0:0:0:0:
296,144,162698,1,0,0:0:0:0:
168,152,163055,2,0,P|144:208|184:256,1,90
352,232,163412,2,0,P|376:176|336:128,1,90
112,128,163769,2,0,P|144:72|192:64,1,90
400,256,164126,2,0,P|384:320|352:352,1,90
256,200,164483,2,0,P|232:160|240:104,1,90
168,72,164840,5,0,0:0:0:0:
64,184,165019,1,0,0:0:0:0:
216,216,165198,1,0,0:0:0:0:
216,216,165376,1,0,0:0:0:0:
344,304,165555,1,0,0:0:0:0:
456,216,165733,1,0,0:0:0:0:
304,168,165912,1,0,0:0:0:0:
304,168,166090,1,0,0:0:0:0:
176,88,166269,1,0,0:0:0:0:
328,88,166448,1,0,0:0:0:0:
256,192,166626,5,0,0:0:0:0:
256,192,166805,1,0,0:0:0:0:
384,240,166983,1,0,0:0:0:0:
272,328,167162,1,0,0:0:0:0:
172,148,167340,1,0,0:0:0:0:
140,179,167429,1,0,0:0:0:0:
124,221,167518,1,0,0:0:0:0:
129,265,167607,1,0,0:0:0:0:
152,304,167697,1,0,0:0:0:0:
416,248,168055,6,0,P|432:184|416:112,1,135
392,88,168412,1,0,0:0:0:0:
256,72,168769,6,0,P|168:72|144:88,1,90
168,152,169126,2,0,P|256:152|280:136,1,90,0|0,0:0|0:0,0:0:0:0:
256,240,169483,2,0,P|168:240|144:256,1,90
168,320,169840,2,0,P|256:320|280:304,1,90,0|0,0:0|0:0,0:0:0:0:
384,192,170198,5,0,0:0:0:0:
384,192,170376,1,0,0:0:0:0:
136,192,170555,1,0,0:0:0:0:
136,192,170733,1,0,0:0:0:0:
256,64,170912,1,0,0:0:0:0:
256,336,171090,1,0,0:0:0:0:
256,192,171269,1,0,0:0:0:0:
256,192,171448,1,0,0:0:0:0:
136,64,171626,1,0,0:0:0:0:
376,328,171805,1,0,0:0:0:0:
256,192,171983,1,0,0:0:0:0:
256,192,172162,1,0,0:0:0:0:
128,320,172340,5,0,0:0:0:0:
376,64,172519,1,0,0:0:0:0:
352,192,172698,1,0,0:0:0:0:
168,192,172876,1,0,0:0:0:0:
184,88,173055,1,0,0:0:0:0:
216,72,173144,1,0,0:0:0:0:
256,64,173233,1,0,0:0:0:0:
296,72,173323,1,0,0:0:0:0:
328,88,173412,1,0,0:0:0:0:
408,192,173590,5,0,0:0:0:0:
328,288,173769,1,0,0:0:0:0:
296,304,173858,1,0,0:0:0:0:
256,320,173948,1,0,0:0:0:0:
216,304,174037,1,0,0:0:0:0:
176,288,174126,1,0,0:0:0:0:
96,192,174305,5,0,0:0:0:0:
32,88,174483,1,0,0:0:0:0:
72,70,174572,1,0,0:0:0:0:
117,69,174661,1,0,0:0:0:0:
159,86,174750,1,0,0:0:0:0:
190,118,174840,1,0,0:0:0:0:
408,192,175019,5,0,0:0:0:0:
480,296,175198,1,0,0:0:0:0:
439,313,175287,1,0,0:0:0:0:
394,314,175376,1,0,0:0:0:0:
352,297,175465,1,0,0:0:0:0:
321,265,175555,1,0,0:0:0:0:
256,192,175733,5,0,0:0:0:0:
360,72,175912,1,0,0:0:0:0:
160,72,176090,1,0,0:0:0:0:
144,192,176269,2,0,L|176:136,2,45,0|0|0,0:0|0:0|0:0,0:0:0:0:
368,192,176626,2,0,L|336:144,2,45,0|0|0,0:0|0:0|0:0,0:0:0:0:
256,72,176983,5,0,0:0:0:0:
233,100,177072,1,0,0:0:0:0:
226,134,177161,1,0,0:0:0:0:
239,168,177250,1,0,0:0:0:0:
255,200,177340,1,0,0:0:0:0:
262,235,177429,1,0,0:0:0:0:
255,270,177518,1,0,0:0:0:0:
237,301,177607,1,0,0:0:0:0:
216,328,177698,2,0,P|112:256|56:192,1,180
144,80,178412,5,0,0:0:0:0:
170,49,178501,1,0,0:0:0:0:
205,30,178590,1,0,0:0:0:0:
245,23,178679,1,0,0:0:0:0:
285,30,178769,1,0,0:0:0:0:
320,51,178858,1,0,0:0:0:0:
345,82,178947,1,0,0:0:0:0:
360,112,179037,2,0,P|400:232|336:288,1,225
208,264,179662,5,0,0:0:0:0:
144,96,179840,1,0,0:0:0:0:
304,40,180019,1,0,0:0:0:0:
384,200,180198,1,0,0:0:0:0:
256,160,180376,1,0,0:0:0:0:
328,312,180555,2,0,P|368:288|408:224,1,90
200,80,180912,2,0,P|136:104|112:136,1,90
168,272,181269,5,0,0:0:0:0:
336,120,181448,1,0,0:0:0:0:
216,120,181626,1,0,0:0:0:0:
220,164,181715,1,0,0:0:0:0:
243,202,181804,1,0,0:0:0:0:
280,227,181893,1,0,0:0:0:0:
324,234,181983,1,0,0:0:0:0:
432,192,182340,5,0,0:0:0:0:
400,336,182519,1,0,0:0:0:0:
272,256,182698,1,0,0:0:0:0:
120,216,182876,1,0,0:0:0:0:
208,96,183055,1,0,0:0:0:0:
56,80,183233,1,0,0:0:0:0:
256,192,183412,5,0,0:0:0:0:
192,248,183590,1,0,0:0:0:0:
256,192,183769,1,0,0:0:0:0:
320,136,183948,1,0,0:0:0:0:
256,192,184126,1,0,0:0:0:0:
128,296,184305,1,0,0:0:0:0:
256,192,184483,1,0,0:0:0:0:
384,88,184662,1,0,0:0:0:0:
160,104,184840,6,0,P|240:64|344:112,1,180
224,200,185376,1,0,0:0:0:0:
424,240,185555,1,0,0:0:0:0:
312,192,185733,1,0,0:0:0:0:
336,312,185912,2,0,P|288:336|240:344,1,90
176,112,186269,1,0,0:0:0:0:
352,128,186448,1,0,0:0:0:0:
272,32,186626,1,0,0:0:0:0:
256,216,186805,1,0,0:0:0:0:
448,208,186983,5,0,0:0:0:0:
432,240,187072,1,0,0:0:0:0:
410,268,187161,1,0,0:0:0:0:
382,291,187250,1,0,0:0:0:0:
350,306,187340,1,0,0:0:0:0:
314,313,187429,1,0,0:0:0:0:
279,312,187518,1,0,0:0:0:0:
244,303,187607,1,0,0:0:0:0:
208,280,187698,2,0,P|144:200|136:112,1,180
280,216,188233,1,0,0:0:0:0:
216,64,188412,5,0,0:0:0:0:
181,73,188501,1,0,0:0:0:0:
149,89,188590,1,0,0:0:0:0:
120,112,188679,1,0,0:0:0:0:
97,139,188769,1,0,0:0:0:0:
79,170,188858,1,0,0:0:0:0:
68,204,188947,1,0,0:0:0:0:
63,240,189036,1,0,0:0:0:0:
64,280,189126,6,0,L|176:280,1,90,0|0,0:0|0:0,0:0:0:0:
256,296,189483,1,0,0:0:0:0:
256,248,189573,1,0,0:0:0:0:
256,200,189662,1,0,0:0:0:0:
368,120,189840,2,0,P|408:232|352:304,1,180
344,336,190376,1,0,0:0:0:0:
256,192,190555,1,0,0:0:0:0:
256,32,190912,5,0,0:0:0:0:
192,96,191090,1,0,0:0:0:0:
280,176,191269,1,0,0:0:0:0:
312,256,191448,1,0,0:0:0:0:
216,336,191626,1,0,0:0:0:0:
352,320,191805,1,0,0:0:0:0:
432,200,191983,2,0,P|416:96|360:56,1,180
256,192,192519,5,0,0:0:0:0:
184,296,192698,1,0,0:0:0:0:
352,272,192876,1,0,0:0:0:0:
368,112,193055,1,0,0:0:0:0:
343,74,193144,1,0,0:0:0:0:
305,50,193233,1,0,0:0:0:0:
261,45,193322,1,0,0:0:0:0:
218,58,193412,1,0,0:0:0:0:
104,160,193590,5,0,0:0:0:0:
136,240,193769,1,0,0:0:0:0:
200,160,193948,1,0,0:0:0:0:
168,320,194126,1,0,0:0:0:0:
288,160,194305,1,0,0:0:0:0:
256,328,194483,1,0,0:0:0:0:
328,240,194662,1,0,0:0:0:0:
352,328,194840,1,0,0:0:0:0:
400,104,195019,5,0,0:0:0:0:
256,192,195198,1,0,0:0:0:0:
96,288,195376,1,0,0:0:0:0:
144,80,195555,1,0,0:0:0:0:
150,115,195644,1,0,0:0:0:0:
165,147,195733,1,0,0:0:0:0:
191,172,195822,1,0,0:0:0:0:
224,186,195912,1,0,0:0:0:0:
259,195,196001,1,0,0:0:0:0:
293,206,196090,1,0,0:0:0:0:
324,225,196179,1,0,0:0:0:0:
347,252,196269,1,0,0:0:0:0:
320,136,196448,5,0,0:0:0:0:
192,136,196626,1,0,0:0:0:0:
192,248,196805,1,0,0:0:0:0:
320,248,196983,1,0,0:0:0:0:
368,72,197162,5,0,0:0:0:0:
136,80,197340,1,0,0:0:0:0:
136,304,197519,1,0,0:0:0:0:
368,304,197698,1,0,0:0:0:0:
192,192,197876,1,0,0:0:0:0:
320,192,198055,1,0,0:0:0:0:
256,192,198233,1,0,0:0:0:0:
296,112,198412,6,0,L|200:112,1,90
184,272,198769,1,0,0:0:0:0:
224,288,198858,1,0,0:0:0:0:
264,296,198948,1,0,0:0:0:0:
304,288,199037,1,0,0:0:0:0:
344,272,199126,1,0,0:0:0:0:
408,152,199305,5,0,0:0:0:0:
384,120,199394,1,0,0:0:0:0:
256,56,199662,1,0,0:0:0:0:
256,320,199840,1,0,0:0:0:0:
136,240,200019,1,0,0:0:0:0:
112,208,200108,1,0,0:0:0:0:
256,192,200376,5,0,0:0:0:0:
112,64,200555,1,0,0:0:0:0:
400,64,200733,1,0,0:0:0:0:
112,320,200912,1,0,0:0:0:0:
392,320,201090,1,0,0:0:0:0:
120,200,201269,5,0,0:0:0:0:
151,181,201358,1,0,0:0:0:0:
185,172,201447,1,0,0:0:0:0:
220,177,201536,1,0,0:0:0:0:
253,193,201626,1,0,0:0:0:0:
284,210,201715,1,0,0:0:0:0:
319,220,201804,1,0,0:0:0:0:
354,214,201893,1,0,0:0:0:0:
386,199,201983,1,0,0:0:0:0:
448,80,202162,5,0,0:0:0:0:
312,72,202340,2,0,P|248:64|192:80,1,90
80,120,202698,1,0,0:0:0:0:
56,256,202876,1,0,0:0:0:0:
208,304,203055,2,0,P|272:320|320:296,1,90
440,248,203412,5,0,0:0:0:0:
408,96,203590,1,0,0:0:0:0:
256,48,203769,2,0,P|184:24|144:48,1,90
72,120,204126,1,0,0:0:0:0:
107,126,204215,1,0,0:0:0:0:
139,142,204304,1,0,0:0:0:0:
167,164,204393,1,0,0:0:0:0:
189,193,204483,1,0,0:0:0:0:
203,226,204572,1,0,0:0:0:0:
209,261,204661,1,0,0:0:0:0:
206,297,204750,1,0,0:0:0:0:
192,336,204840,5,0,0:0:0:0:
336,312,205019,1,0,0:0:0:0:
400,200,205198,2,0,L|400:104|400:96,1,90
264,64,205555,1,0,0:0:0:0:
112,80,205733,1,0,0:0:0:0:
64,216,205912,2,0,P|88:264|128:272,1,90
264,296,206269,5,0,0:0:0:0:
416,224,206448,1,0,0:0:0:0:
384,72,206626,2,0,P|336:48|272:72,1,90
336,176,206983,1,0,0:0:0:0:
310,150,207072,1,0,0:0:0:0:
279,132,207161,1,0,0:0:0:0:
245,121,207250,1,0,0:0:0:0:
209,119,207340,1,0,0:0:0:0:
174,126,207429,1,0,0:0:0:0:
141,141,207518,1,0,0:0:0:0:
113,164,207607,1,0,0:0:0:0:
88,192,207698,2,0,L|128:280,1,90
416,200,208055,6,0,L|368:120,1,90
224,336,208412,2,0,L|328:296,1,90
256,48,208769,2,0,L|136:80,1,90
200,192,209126,5,0,0:0:0:0:
312,192,209305,1,0,0:0:0:0:
256,112,209483,1,0,0:0:0:0:
256,264,209662,1,0,0:0:0:0:
360,48,209840,1,0,0:0:0:0:
382,76,209929,1,0,0:0:0:0:
399,107,210018,1,0,0:0:0:0:
410,142,210107,1,0,0:0:0:0:
415,177,210197,1,0,0:0:0:0:
414,213,210286,1,0,0:0:0:0:
407,248,210375,1,0,0:0:0:0:
393,282,210464,1,0,0:0:0:0:
374,312,210554,1,0,0:0:0:0:
232,176,211269,5,0,0:0:0:0:
200,144,211358,1,0,0:0:0:0:
157,134,211447,1,0,0:0:0:0:
115,148,211536,1,0,0:0:0:0:
86,182,211626,1,0,0:0:0:0:
168,304,211805,2,0,P|240:328|280:312,1,90
344,304,212162,6,0,P|416:272|432:240,1,90
280,184,212519,1,0,0:0:0:0:
168,120,212698,1,0,0:0:0:0:
191,82,212787,1,0,0:0:0:0:
228,57,212876,1,0,0:0:0:0:
272,50,212965,1,0,0:0:0:0:
315,61,213055,1,0,0:0:0:0:
424,152,213233,5,0,0:0:0:0:
160,248,213412,1,0,0:0:0:0:
