osu file format v13

[General]
AudioFilename: 02. Dazzling192.mp3
AudioLeadIn: 0
PreviewTime: 65614
Countdown: 0
SampleSet: Soft
StackLeniency: 0.7
Mode: 0
LetterboxInBreaks: 0
WidescreenStoryboard: 1

[Editor]
Bookmarks: 15264,27493,39722,51952,65710,77939,90168,102398,116156,128385,140614,152843,166601,178831,194117
DistanceSpacing: 1
BeatDivisor: 4
GridSize: 4
TimelineZoom: 1.6

[Metadata]
Title:Dazzling
TitleUnicode:Dazzling
Artist:Komatsu Mikako & Ishihara Kaori
ArtistUnicode:小松未可子&石原夏織
Creator:P A N
Version:Normal Collab
Source:凪のあすから
Tags:xinely kshr xXCrystalMoonAnimeXx hinsvar momochikun nagi no asukara kanari Nagiasu A lull in the Sea p_a_n
BeatmapID:394023
BeatmapSetID:160595

[Difficulty]
HPDrainRate:3
CircleSize:3
OverallDifficulty:3.5
ApproachRate:4.5
SliderMultiplier:0.999999999999999
SliderTickRate:1

[Events]
//Background and Video events
0,0,"Bgggg.jpg",0,0
//Break Periods
2,140813,151583
//Storyboard Layer 0 (Background)
//Storyboard Layer 1 (Fail)
//Storyboard Layer 2 (Pass)
//Storyboard Layer 3 (Foreground)
Sprite,Foreground,Centre,"Name\pan.png",320,240 F,0,2652,3035,0,1 M,0,3035,,548,421 F,0,3035,14882,1 F,0,14882,15264,1,0 F,0,15264,65327,0 F,0,65327,65710,0,1 F,0,65710,77557,1 F,0,77557,77939,1,0 F,0,77939,89786,0 F,0,89786,90168,0,1 F,0,90168,102015,1 F,0,102015,102398,1,0
Sprite,Foreground,Centre,"Name\Xinely.png",320,240 F,0,14882,15264,0,1 M,0,15264,,85,436 F,0,15264,27111,1,0.9947644 F,0,27111,27493,0.9947644,0 F,0,27493,39340,0 F,0,39340,39722,0,1 F,0,39722,51570,1 F,0,51570,51952,1,0 F,0,51952,77557,0 F,0,77557,77939,0,1 F,0,77939,89786,1 F,0,89786,90168,1,0 F,0,90168,115773,0,0.0128961 F,0,115773,116156,0.0128961,1 F,0,116156,128003,1 F,0,128003,128385,1,0
Sprite,Foreground,Centre,"Name\KSHR.png",320,240 F,0,27111,27493,0,1 M,0,27493,,75,228 F,0,27493,39340,1,0.997464 F,0,39340,39722,0.997464,0 F,0,39722,51570,0 F,0,51570,51952,0,1 F,0,51952,65327,1 F,0,65327,65710,1,0 F,0,65710,102015,0 F,0,102015,102398,0,0.8146214 F,0,102398,115773,0.8146214,1 F,0,115773,116156,1,0 F,0,116156,128003,0 F,0,128003,128385,0,1 F,0,128385,140232,1 F,0,140232,140614,1,0
Sprite,Foreground,Centre,"Name\Hinsvar.png",320,240 F,0,152461,152843,0,1 M,0,152843,,530,423 F,0,152843,208257,1 F,0,208257,208640,1,0
//Storyboard Sound Samples
//Background Colour Transformations
3,100,163,162,255

[TimingPoints]
3035,382.165605095541,4,2,1,60,1,0
15264,-100,4,2,2,80,0,0
27493,-100,4,2,2,80,0,0
27589,-100,4,2,2,70,0,0
28449,-100,4,2,2,60,0,0
28544,-100,4,2,2,70,0,0
29404,-100,4,2,2,50,0,0
29499,-100,4,2,2,70,0,0
30168,-100,4,2,2,50,0,0
30264,-100,4,2,2,70,0,0
31506,-100,4,2,2,60,0,0
31601,-100,4,2,2,70,0,0
32461,-100,4,2,2,50,0,0
32557,-100,4,2,2,70,0,0
33226,-100,4,2,2,50,0,0
33321,-100,4,2,2,70,0,0
33512,-100,4,2,2,60,0,0
33703,-100,4,2,2,70,0,0
34563,-100,4,2,2,60,0,0
34659,-100,4,2,2,70,0,0
36283,-100,4,2,2,45,0,0
36378,-100,4,2,2,70,0,0
37047,-100,4,2,2,50,0,0
37143,-100,4,2,2,70,0,0
37812,-100,4,2,2,50,0,0
37907,-100,4,2,2,70,0,0
39245,-100,4,2,2,80,0,0
39722,-100,4,2,1,60,0,0
39722,-100,4,2,2,80,0,0
51952,-100,4,2,1,40,0,0
62557,-100,4,2,2,50,0,0
62748,-100,4,2,2,60,0,0
63417,-100,4,2,2,50,0,0
63608,-100,4,2,2,60,0,0
64181,-100,4,2,2,80,0,0
64563,-100,4,2,2,45,0,0
65710,-100,4,2,1,80,0,1
65805,-100,4,2,1,60,0,0
68767,-100,4,2,1,60,0,1
71442,-100,4,2,1,60,0,0
71824,-100,4,2,1,60,0,1
77939,-100,4,2,2,80,0,0
90168,-100,4,2,1,60,0,0
90168,-100,4,2,1,80,0,0
102206,-100,4,2,2,60,0,0
113003,-100,4,2,2,50,0,0
113194,-100,4,2,2,60,0,0
114722,-100,4,2,2,45,0,0
116156,-100,4,2,1,80,0,1
116156,-100,4,2,1,80,0,1
116251,-100,4,2,1,80,0,0
119213,-100,4,2,1,80,0,1
121888,-100,4,2,1,80,0,0
122270,-100,4,2,1,80,0,1
128385,-100,4,2,1,80,0,0
128576,-100,4,2,2,70,0,0
130296,-100,4,2,2,60,0,0
130487,-100,4,2,2,70,0,0
136697,-100,4,2,2,60,0,0
136888,-100,4,2,2,70,0,0
140614,-100,4,2,2,60,0,0
152843,-100,4,2,1,60,0,0
166601,-100,4,2,1,80,0,1
166697,-100,4,2,1,80,0,0
169659,-100,4,2,1,80,0,1
172334,-100,4,2,1,80,0,0
172716,-100,4,2,1,80,0,1
178449,-100,4,2,1,80,0,0
178831,-100,4,2,1,80,0,1
178926,-100,4,2,1,80,0,0
181888,-100,4,2,1,80,0,1
184563,-100,4,2,1,80,0,0
184945,-100,4,2,1,80,0,1
194117,-100,4,2,1,70,0,0
206347,480,4,2,2,70,1,0
206587,705.882352941176,4,2,2,60,1,0
206939,882.352941176471,4,2,2,50,1,0
207380,789.473684210526,4,2,2,40,1,0
207774,857.142857142857,4,2,2,30,1,0
208202,967.741935483871,4,2,2,20,1,0
208685,-100,4,2,0,10,0,0

[Colours]
Combo1 : 164,255,219
Combo2 : 255,223,0
Combo3 : 255,128,0
Combo4 : 128,128,255

[HitObjects]
256,321,3035,5,4,0:0:0:0:
202,236,3417,2,0,B|153:271|156:332|156:332|115:372|61:345,1,200,8|8,0:0|0:0,0:0:0:0:
78,250,4563,1,2,0:0:0:0:
131,165,4945,2,0,P|217:134|298:201,1,200,8|8,0:0|0:0,0:0:0:0:
354,277,6092,37,2,0:0:0:0:
452,261,6474,2,0,B|433:208|452:172|452:172|441:141|441:141|459:99|435:57,1,200,8|8,0:0|0:0,0:0:0:0:
347,103,7620,1,2,0:0:0:0:
259,56,8003,2,0,B|206:76|159:57|159:57|103:37|42:59,1,200,8|8,0:0|0:0,0:0:0:0:
86,149,9149,6,0,B|96:215|59:240|59:240|107:265|108:318|108:318|160:294|210:316,1,300,4|8,0:0|3:0,0:0:0:0:
307,315,10678,2,0,B|354:294|406:318|406:318|407:265|455:240|455:240|418:215|428:149,1,300,0|8,0:0|3:0,0:0:0:0:
408,51,12206,22,0,B|337:71|319:150|339:216|339:216|277:203|237:262,1,300,2|8,0:0|3:0,0:0:0:0:
324,312,13735,2,0,P|266:342|183:175,1,300,2|8,0:0|3:0,0:0:0:0:
244,112,15264,38,0,B|292:128|348:104|348:104|408:136,1,150,4|2,0:0|0:0,0:0:0:0:
424,216,16219,1,0,0:0:0:0:
374,300,16601,2,0,B|326:284|270:308|270:308|232:288,1,150,4|8,0:0|0:0,0:0:0:0:
144,240,17557,2,0,P|131:293|144:344,1,99.9999999999999,2|8,0:0|0:0,0:0:0:0:
232,288,18321,22,0,P|252:216|236:144,1,150,4|2,0:0|0:0,0:0:0:0:
152,84,19277,1,0,0:0:0:0:
236,144,19659,2,0,B|296:120|368:192|368:192|420:188|464:116,1,250,4|2,0:0|0:0,0:0:0:0:
372,68,20996,1,10,0:0:0:0:
276,40,21378,6,0,B|206:39|206:39|171:70|110:69,1,150,4|2,0:0|0:0,0:0:0:0:
64,144,22334,1,0,0:0:0:0:
124,224,22716,2,0,B|180:196|180:196|228:240|284:196|284:196|352:236,1,250,2|0,0:0|0:0,0:0:0:0:
408,312,24054,1,8,0:0:0:0:
460,228,24436,6,0,P|480:156|464:80,2,150,4|2|8,0:0|0:0|0:0,0:0:0:0:
408,312,25964,2,0,L|332:308,1,50,2|10,0:0|0:0,0:0:0:0:
256,320,26538,2,0,B|200:332|200:332|144:324|136:264,1,150,2|8,0:0|0:0,0:0:0:0:
200,196,27493,22,0,P|88:188|48:312,1,250,4|2,0:0|0:0,0:0:0:0:
124,360,28831,2,0,P|196:340|268:360,1,150,2|8,0:0|0:0,0:0:0:0:
308,328,29595,2,0,P|379:347|450:327,1,150,2|8,0:0|0:0,0:0:0:0:
496,236,30550,38,0,B|448:172|464:92|464:92|424:124|372:120,1,250,2|2,0:0|0:0,0:0:0:0:
304,48,31888,2,0,P|276:112|304:192,1,150,2|8,0:0|0:0,0:0:0:0:
340,212,32652,2,0,P|356:283|322:348,1,150,2|8,0:0|0:0,0:0:0:0:
224,368,33608,6,0,B|152:332|80:368|80:368|44:340|52:276,1,250,4|2,0:0|0:0,0:0:0:0:
140,228,34945,2,0,B|176:156|132:84|132:84|180:64,1,200,2|2,0:0|0:0,0:0:0:0:
268,104,36092,2,0,L|336:77,1,50,0|8,0:0|0:0,0:0:0:0:
352,52,36474,38,0,P|372:124|444:160,1,150,2|8,0:0|0:0,0:0:0:0:
484,156,37238,2,0,P|500:232|476:300,1,150,2|8,0:0|0:0,0:0:0:0:
388,344,38194,2,0,B|336:356|292:328|292:328|248:300|196:312,1,200,2|10,0:0|0:0,0:0:0:0:
112,364,39340,1,8,0:0:0:0:
60,280,39722,38,0,P|40:216|64:128,2,150,4|2|2,0:0|0:0|0:0,0:0:0:0:
136,344,41251,2,0,P|184:364|304:312,2,150,2|2|2,0:0|0:0|0:0,0:0:0:0:
96,252,42780,38,0,L|88:128,2,99.9999999999999,2|0|2,0:0|0:0|0:0,0:0:0:0:
184,304,43926,1,0,0:0:0:0:
212,208,44308,2,0,P|280:172|356:196,1,150,2|2,0:0|0:0,0:0:0:0:
424,260,45264,2,0,P|348:293|281:267,1,150,2|2,0:0|0:0,0:0:0:0:
212,208,46219,6,0,P|192:160|240:52,1,150,0|2,0:0|0:0,0:0:0:0:
288,144,47175,2,0,P|388:160|468:88,1,200,2|2,0:0|0:0,0:0:0:0:
348,8,48512,1,0,0:0:0:0:
292,92,48894,38,0,L|284:248,2,150,2|2|0,0:0|0:0|0:0,0:0:0:0:
196,60,50423,2,0,B|144:76|144:76|152:152|75:202,1,200,2|2,0:0|0:0,0:0:0:0:
0,256,51570,1,0,0:0:0:0:
92,300,51952,37,12,0:0:0:0:
48,100,52716,1,8,0:0:0:0:
240,160,53480,2,0,B|324:176|372:108|372:108|400:184,1,200,8|8,0:0|0:0,0:0:0:0:
344,348,55009,37,8,0:0:0:0:
176,240,55773,1,8,0:0:0:0:
352,148,56538,1,8,0:0:0:0:
184,48,57302,2,0,P|136:48|80:72,1,99.9999999999999,8|8,0:0|0:0,0:0:0:0:
52,160,58066,22,0,B|104:176|148:148|148:148|184:188|176:240,1,200,12|2,0:0|0:0,0:0:0:0:
104,312,59213,1,0,1:0:0:0:
200,340,59595,2,0,B|256:352|296:324|296:324|340:292|396:304,1,200,10|2,0:0|0:0,0:0:0:0:
464,372,60742,1,0,1:0:0:0:
504,280,61124,6,0,P|516:232|512:180,1,99.9999999999999,10|4,0:0|0:0,0:0:0:0:
420,220,61888,2,0,P|416:170|428:122,1,99.9999999999999,10|4,0:0|0:0,0:0:0:0:
508,60,62652,2,0,P|428:120|332:108,1,200,4|2,0:0|0:0,0:0:0:0:
280,24,63799,1,8,0:0:0:0:
196,84,64181,22,0,L|96:100,2,99.9999999999999,2|2|2,0:0|0:0|0:0,0:0:0:0:
256,168,65327,1,2,0:0:0:0:
188,240,65710,6,0,P|260:264|332:232,1,150,4|2,0:0|0:0,0:0:0:0:
360,144,66665,1,2,0:0:0:0:
328,48,67047,2,0,P|256:24|184:52,1,150,6|8,0:0|0:0,0:0:0:0:
144,140,68003,2,0,L|152:240,1,99.9999999999999,2|8,0:0|0:0,0:0:0:0:
120,336,68767,22,0,P|168:344|216:320,1,99.9999999999999,4|8,0:0|0:0,0:0:0:0:
264,236,69531,2,0,P|308:214|357:222,1,99.9999999999999,2|8,0:0|0:0,0:0:0:0:
432,288,70296,1,2,0:0:0:0:
476,200,70678,2,0,P|484:152|468:96,1,99.9999999999999,8|2,0:0|0:0,0:0:0:0:
396,40,71442,1,8,0:0:0:0:
332,116,71824,38,0,P|360:180|324:260,1,150,6|2,0:0|0:0,0:0:0:0:
256,184,72780,1,2,0:0:0:0:
180,252,73162,2,0,P|152:188|188:108,1,150,2|8,0:0|0:0,0:0:0:0:
256,52,74117,1,2,0:0:0:0:
356,52,74499,1,8,0:0:0:0:
432,116,74882,22,0,P|458:184|430:251,1,150,6|0,0:0|0:0,0:0:0:0:
348,308,75837,1,2,0:0:0:0:
260,264,76219,2,0,P|200:236|120:272,1,150,0|8,0:0|0:0,0:0:0:0:
80,356,77175,2,0,P|40:328|24:272,1,99.9999999999999,2|8,0:0|0:0,0:0:0:0:
56,188,77939,6,0,B|104:204|160:180|160:180|220:212,1,150,4|2,0:0|0:0,0:0:0:0:
276,260,78894,1,0,0:0:0:0:
356,312,79276,2,0,B|384:256|356:208|356:208|380:162,1,150,2|8,0:0|0:0,0:0:0:0:
432,88,80232,2,0,P|379:75|328:88,1,99.9999999999999,0|8,0:0|0:0,0:0:0:0:
252,140,80996,22,0,P|276:212|240:284,1,150,2|2,0:0|0:0,0:0:0:0:
180,208,81952,1,0,0:0:0:0:
252,140,82334,2,0,B|320:124|368:184|368:184|432:180|464:112,1,250,2|2,0:0|0:0,0:0:0:0:
400,40,83671,1,10,0:0:0:0:
300,44,84053,38,0,B|230:43|230:43|195:74|134:73,1,150,4|2,0:0|0:0,0:0:0:0:
64,112,85009,1,0,0:0:0:0:
92,208,85391,2,0,B|160:220|196:280|196:280|272:272,1,200,2|8,0:0|0:0,0:0:0:0:
412,304,86729,1,8,0:0:0:0:
452,212,87111,38,0,B|476:160|476:160|488:128|476:88|456:64,2,150,4|2|8,0:0|0:0|0:0,0:0:0:0:
392,292,88639,2,0,L|332:316,1,50,2|10,0:0|0:0,0:0:0:0:
244,312,89213,2,0,L|184:288,1,50,0|2,0:0|0:0,0:0:0:0:
112,240,89786,1,0,3:0:0:0:
16,264,90168,38,0,P|24:192|88:144,1,150,6|8,0:0|0:0,0:0:0:0:
180,152,91124,1,2,0:0:0:0:
228,236,91506,2,0,P|280:248|332:228,2,99.9999999999999,0|0|8,0:0|0:0|0:0,0:0:0:0:
180,152,92652,2,0,P|168:128|168:100,1,50,2|8,0:0|0:0,0:0:0:0:
244,40,93226,38,0,L|356:44,1,99.9999999999999,2|8,0:0|0:0,0:0:0:0:
392,32,93799,2,0,P|384:80|400:128,1,99.9999999999999,8|2,0:0|0:0,0:0:0:0:
476,192,94563,1,8,0:0:0:0:
399,256,94945,2,0,P|384:303|392:352,1,99.9999999999999,2|8,0:0|0:0,0:0:0:0:
292,332,95710,2,0,L|224:336,1,50,2|8,0:0|0:0,0:0:0:0:
164,272,96283,38,0,P|124:256|64:276,1,99.9999999999999,2|8,0:0|0:0,0:0:0:0:
28,300,96856,2,0,L|36:180,1,99.9999999999999,8|0,0:0|0:0,0:0:0:0:
124,156,97620,2,0,P|188:148|264:204,1,150,2|8,0:0|0:0,0:0:0:0:
276,240,98385,1,8,0:0:0:0:
364,292,98767,38,0,P|312:336|228:328,2,150,2|2|8,0:0|0:0|0:0,0:0:0:0:
428,156,100487,1,2,0:0:0:0:
376,72,100869,2,0,L|208:76,1,150,8|0,0:0|0:0,0:0:0:0:
176,76,101633,2,0,P|128:64|72:92,1,99.9999999999999,2|2,0:0|0:0,0:0:0:0:
136,168,102398,37,12,0:0:0:0:
60,352,103162,1,8,0:0:0:0:
260,324,103926,1,8,0:0:0:0:
79,251,104691,2,0,P|35:165|83:82,1,200,8|8,0:0|0:0,0:0:0:0:
276,24,106219,37,8,0:0:0:0:
136,168,106984,1,8,0:0:0:0:
328,112,107748,1,8,0:0:0:0:
260,184,108130,2,0,P|260:208|264:240,1,50,10|10,0:0|0:0,0:0:0:0:
296,272,108512,38,0,B|352:280|388:244|388:244|444:220|492:252,1,200,4|8,0:0|0:0,0:0:0:0:
436,336,109659,1,0,1:0:0:0:
336,360,110041,2,0,P|288:276|316:180,1,200,2|0,0:0|0:0,0:0:0:0:
404,136,111187,1,0,1:0:0:0:
320,80,111570,38,0,P|272:88|232:120,1,99.9999999999999,2|12,0:0|0:0,0:0:0:0:
240,220,112334,2,0,P|192:212|152:180,1,99.9999999999999,2|12,0:0|0:0,0:0:0:0:
136,80,113098,2,0,P|58:137|69:236,1,200,4|8,0:0|0:0,0:0:0:0:
156,272,114245,1,8,0:0:0:0:
240,220,114627,38,0,B|244:196|236:172|236:172|228:144|232:120,2,99.9999999999999,2|2|2,0:0|0:0|0:0,0:0:0:0:
256,320,115773,1,2,0:0:0:0:
164,364,116156,6,0,B|112:340|112:340|72:320|60:264,1,150,4|2,0:0|0:0,0:0:0:0:
68,168,117111,1,2,0:0:0:0:
160,212,117493,2,0,P|220:220|273:202,1,99.9999999999999,6|0,0:0|0:0,0:0:0:0:
284,168,118066,2,0,L|308:284,1,99.9999999999999,8|2,0:0|0:0,0:0:0:0:
360,348,118831,1,8,0:0:0:0:
444,292,119213,22,0,B|484:224|484:224|424:184|420:108,2,200,6|2|2,0:0|0:0|0:0,0:0:0:0:
360,348,121124,1,8,0:0:0:0:
276,296,121506,2,0,P|268:248|284:184,1,99.9999999999999,2|8,0:0|0:0,0:0:0:0:
300,100,122270,38,0,B|240:100|240:100|200:120|188:176,1,150,4|2,0:0|0:0,0:0:0:0:
204,268,123225,1,2,0:0:0:0:
288,212,123607,2,0,P|348:203|401:221,1,99.9999999999999,2|0,0:0|0:0,0:0:0:0:
420,248,124180,2,0,P|404:200|412:148,1,99.9999999999999,8|2,0:0|0:0,0:0:0:0:
456,60,124945,1,8,0:0:0:0:
356,68,125327,22,0,L|184:68,2,150,6|2|8,0:0|0:0|0:0,0:0:0:0:
332,164,126856,2,0,L|212:164,2,99.9999999999999,2|8|2,0:0|0:0|0:0,0:0:0:0:
420,120,128003,1,8,0:0:0:0:
504,172,128385,6,0,P|520:248|500:316,1,150,4|2,0:0|0:0,0:0:0:0:
404,288,129340,1,2,0:0:0:0:
316,336,129722,2,0,B|266:323|236:280|236:280|212:272|184:288,1,150,2|8,0:0|0:0,0:0:0:0:
136,372,130678,2,0,P|88:376|36:364,1,99.9999999999999,0|10,0:0|0:0,0:0:0:0:
0,272,131442,22,0,B|28:236|24:176|24:176|72:200,1,150,4|2,0:0|0:0,0:0:0:0:
140,264,132398,1,2,0:0:0:0:
236,236,132780,2,0,P|260:168|244:92,1,150,10|8,0:0|0:0,0:0:0:0:
160,40,133735,2,0,L|108:48,2,50,8|2|8,0:0|0:0|0:0,0:0:0:0:
244,93,134499,6,0,B|281:90|314:64|314:64|347:38|384:36,1,150,4|2,0:0|0:0,0:0:0:0:
472,84,135455,1,2,0:0:0:0:
388,140,135837,2,0,P|379:213|418:277,1,150,10|8,0:0|0:0,0:0:0:0:
504,328,136792,1,8,0:0:0:0:
416,380,137175,1,10,0:0:0:0:
328,328,137557,22,0,P|276:328|232:344,1,99.9999999999999,4|8,0:0|0:0,0:0:0:0:
200,384,138130,2,0,P|224:324|188:236,1,150,0|8,0:0|0:0,0:0:0:0:
96,240,139085,2,0,P|146:155|254:160,2,200,2|2|2,0:0|0:0|0:0,0:0:0:0:
308,220,152843,54,0,P|264:204|212:216,1,99.9999999999999,2|0,0:0|0:0,0:0:0:0:
172,304,153608,1,2,0:0:0:0:
260,352,153990,1,0,0:0:0:0:
356,320,154372,2,0,P|412:264|388:148,1,200,2|2,0:0|0:0,0:0:0:0:
320,84,155519,1,0,0:0:0:0:
236,140,155901,6,0,P|140:152|84:72,1,200,2|2,0:0|0:0,0:0:0:0:
170,25,157047,1,0,0:0:0:0:
269,27,157429,2,0,P|349:101|334:194,1,200,2|2,0:0|0:0,0:0:0:0:
288,269,158576,1,0,0:0:0:0:
193,302,158958,22,0,L|29:294,2,150,6|0|0,0:0|3:0|0:0,0:0:0:0:
291,284,160487,2,0,L|351:260,1,50,0|0,0:0|3:0,0:0:0:0:
412,199,161060,1,0,0:0:0:0:
439,157,161251,2,0,P|428:108|387:61,1,99.9999999999999,0|0,0:0|3:0,0:0:0:0:
309,22,162015,38,0,B|233:30|205:94|205:94|169:78|121:102,1,200,6|2,0:0|0:0,0:0:0:0:
80,174,163162,1,0,0:0:0:0:
124,264,163544,2,0,P|228:288|304:228,1,200,2|2,0:0|0:0,0:0:0:0:
320,140,164691,1,0,0:0:0:0:
248,72,165073,21,2,0:0:0:0:
160,120,165455,2,0,P|136:172|148:220,1,99.9999999999999,0|0,3:0|3:0,0:0:0:0:
216,280,166219,1,0,0:0:0:0:
300,224,166601,6,0,P|376:216|452:252,1,150,4|0,0:0|3:0,0:0:0:0:
496,328,167557,1,0,3:0:0:0:
442,244,167939,2,0,P|436:196|448:136,1,99.9999999999999,6|0,0:0|0:0,0:0:0:0:
468,100,168512,2,0,L|352:92,1,99.9999999999999,8|2,0:0|0:0,0:0:0:0:
288,36,169277,1,8,0:0:0:0:
224,112,169659,22,0,P|120:140|56:76,1,200,4|2,0:0|0:0,0:0:0:0:
152,44,170805,1,8,0:0:0:0:
224,112,171187,2,0,P|252:204|224:312,1,200,2|2,0:0|0:0,0:0:0:0:
148,360,172334,1,8,0:0:0:0:
64,304,172716,6,0,P|40:224|88:172,1,150,4|2,0:0|0:0,0:0:0:0:
172,148,173671,1,2,0:0:0:0:
256,200,174054,2,0,P|300:220|360:208,1,99.9999999999999,4|0,0:0|0:0,0:0:0:0:
392,188,174627,2,0,L|400:80,1,99.9999999999999,8|2,0:0|0:0,0:0:0:0:
336,12,175391,1,8,0:0:0:0:
240,68,175773,6,0,P|168:84|88:40,1,150,4|0,0:0|0:0,0:0:0:0:
32,124,176729,2,0,P|36:172|12:232,1,99.9999999999999,0|4,0:0|0:0,0:0:0:0:
96,284,177493,2,0,P|148:276|196:292,1,99.9999999999999,2|0,0:0|0:0,0:0:0:0:
232,320,178066,1,2,0:0:0:0:
316,264,178449,1,8,0:0:0:0:
404,308,178831,38,0,P|460:264|472:180,1,150,4|2,0:0|0:0,0:0:0:0:
420,104,179786,1,2,0:0:0:0:
344,40,180168,2,0,P|300:32|240:48,1,99.9999999999999,4|0,0:0|0:0,0:0:0:0:
212,80,180742,1,8,0:0:0:0:
156,160,181124,2,0,P|152:208|176:268,1,99.9999999999999,2|8,0:0|0:0,0:0:0:0:
244,320,181888,38,0,B|296:340|340:316|340:316|388:288|444:312,1,200,4|2,0:0|0:0,0:0:0:0:
504,236,183034,1,8,0:0:0:0:
476,140,183417,2,0,P|376:88|312:136,1,200,2|2,0:0|0:0,0:0:0:0:
272,224,184563,1,8,0:0:0:0:
204,296,184945,38,0,P|120:296|64:244,1,150,4|0,0:0|0:0,0:0:0:0:
36,164,185901,1,0,0:0:0:0:
96,80,186283,2,0,P|140:68|208:72,1,99.9999999999999,4|0,0:0|0:0,0:0:0:0:
232,100,186856,1,8,0:0:0:0:
308,164,187238,2,0,P|356:172|412:152,1,99.9999999999999,2|8,0:0|0:0,0:0:0:0:
424,60,188003,22,0,P|364:24|276:44,1,150,4|0,0:0|0:0,0:0:0:0:
208,96,188958,1,0,0:0:0:0:
108,96,189340,2,0,P|64:148|84:240,1,150,4|8,0:0|0:0,0:0:0:0:
132,308,190296,2,0,P|184:312|232:284,1,99.9999999999999,2|8,0:0|0:0,0:0:0:0:
264,260,190869,1,0,0:0:0:0:
306,233,191060,6,0,P|378:229|442:285,1,150,4|0,0:0|0:0,0:0:0:0:
392,368,192015,2,0,L|336:364,1,50,0|8,0:0|0:0,0:0:0:0:
244,340,192589,1,2,0:0:0:0:
176,268,192971,1,8,0:0:0:0:
164,168,193353,2,0,P|184:128|232:96,1,99.9999999999999,2|8,0:0|0:0,0:0:0:0:
308,160,194117,22,0,P|388:172|448:120,1,150,4|4,0:0|0:0,0:0:0:0:
460,36,195073,1,0,0:0:0:0:
360,8,195455,2,0,P|288:8|216:56,1,150,4|8,0:0|0:0,0:0:0:0:
176,136,196410,2,0,P|172:188|184:240,1,99.9999999999999,2|8,0:0|0:0,0:0:0:0:
248,308,197175,38,0,B|288:332|352:280|396:308,1,150,4|4,0:0|0:0,0:0:0:0:
480,260,198130,1,0,0:0:0:0:
484,160,198512,2,0,P|448:92|376:56,1,150,4|8,0:0|0:0,0:0:0:0:
304,116,199468,1,2,0:0:0:0:
220,64,199850,1,8,0:0:0:0:
152,140,200232,22,0,P|76:140|20:88,1,150,4|4,0:0|0:0,0:0:0:0:
84,16,201187,1,0,0:0:0:0:
184,20,201570,2,0,P|248:60|272:132,1,150,4|8,0:0|0:0,0:0:0:0:
240,224,202525,1,2,0:0:0:0:
156,276,202907,1,8,0:0:0:0:
72,224,203289,6,0,P|52:160|76:80,2,150,4|2|8,0:0|0:0|0:0,0:0:0:0:
156,276,204818,2,0,L|232:272,1,50,4|2,0:0|0:0,0:0:0:0:
276,204,205391,2,0,L|352:200,1,50,4|2,0:0|0:0,0:0:0:0:
408,144,205964,1,0,3:0:0:0:
256,192,206347,12,2,208685,0:0:0:0:
