osu file format v13

[General]
AudioFilename: 02. Dazzling192.mp3
AudioLeadIn: 0
PreviewTime: 65614
Countdown: 0
SampleSet: Soft
StackLeniency: 0.7
Mode: 0
LetterboxInBreaks: 0
WidescreenStoryboard: 1

[Editor]
DistanceSpacing: 1.7
BeatDivisor: 4
GridSize: 4
TimelineZoom: 3.999998

[Metadata]
Title:Dazzling
TitleUnicode:Dazzling
Artist:Komatsu Mikako & Ishihara Kaori
ArtistUnicode:小松未可子&石原夏織
Creator:P A N
Version:Insane
Source:凪のあすから
Tags:xinely kshr xXCrystalMoonAnimeXx hinsvar momochikun nagi no asukara kanari Nagiasu A lull in the Sea p_a_n
BeatmapID:419451
BeatmapSetID:160595

[Difficulty]
HPDrainRate:7
CircleSize:4
OverallDifficulty:8
ApproachRate:9
SliderMultiplier:1.8
SliderTickRate:1

[Events]
//Background and Video events
0,0,"Bgggg.jpg",0,0
//Break Periods
2,140814,152243
//Storyboard Layer 0 (Background)
//Storyboard Layer 1 (Fail)
//Storyboard Layer 2 (Pass)
//Storyboard Layer 3 (Foreground)
//Storyboard Sound Samples
//Background Colour Transformations
3,100,163,162,255

[TimingPoints]
3035,382.165605095541,4,2,1,80,1,0
3035,-100,4,2,1,50,0,0
15264,-100,4,2,2,60,0,0
20805,-100,4,2,2,50,0,0
21187,-100,4,2,2,60,0,0
26920,-100,4,2,2,40,0,0
27493,-133.333333333333,4,2,2,50,0,0
39340,-133.333333333333,4,2,2,50,0,0
39722,-133.333333333333,4,2,1,60,0,0
51952,-133.333333333333,4,2,1,50,0,0
51952,-133.333333333333,4,2,1,30,0,0
52334,-133.333333333333,4,2,1,40,0,0
58066,-133.333333333333,4,2,1,60,0,0
64181,-100,4,2,2,50,0,0
65710,-100,4,2,1,60,0,1
65805,-100,4,2,1,60,0,0
65901,-100,4,2,1,50,0,0
66283,-100,4,2,1,60,0,0
68767,-100,4,2,1,60,0,1
71442,-100,4,2,1,60,0,0
71824,-100,4,2,1,60,0,1
77939,-100,4,2,2,60,0,0
90168,-133.333333333333,4,2,1,50,0,0
96283,-133.333333333333,4,2,1,60,0,0
102398,-133.333333333333,4,2,1,50,0,0
108512,-133.333333333333,4,2,1,60,0,0
114627,-133.333333333333,4,2,2,50,0,0
116156,-100,4,2,1,60,0,1
116251,-100,4,2,1,60,0,0
116347,-100,4,2,1,50,0,0
116729,-100,4,2,1,60,0,0
119213,-100,4,2,1,60,0,1
121888,-100,4,2,1,60,0,0
122270,-100,4,2,1,60,0,1
128003,-100,4,2,1,50,0,1
128385,-100,4,2,1,70,0,0
140041,-100,4,2,1,50,0,0
140423,-100,4,2,1,70,0,0
140614,-100,4,2,1,30,0,0
152843,-133.333333333333,4,2,1,50,0,0
158958,-133.333333333333,4,2,1,60,0,0
165455,-133.333333333333,4,2,3,40,0,0
166601,-100,4,2,1,60,0,1
166697,-100,4,2,1,60,0,0
169659,-133.333333333333,4,2,1,60,0,1
169659,-133.333333333333,4,2,1,50,0,1
171187,-133.333333333333,4,2,1,70,0,1
171378,-133.333333333333,4,2,1,50,0,1
172334,-133.333333333333,4,2,1,50,0,0
172716,-133.333333333333,4,2,1,50,0,1
178449,-133.333333333333,4,2,1,50,0,0
178831,-100,4,2,1,60,0,1
178926,-100,4,2,1,60,0,0
181888,-100,4,2,1,60,0,1
184563,-100,4,2,1,60,0,0
184945,-100,4,2,1,60,0,1
194117,-100,4,2,2,60,0,0
206347,480,4,2,2,70,1,0
206587,705.882352941176,4,2,2,60,1,0
206939,882.352941176471,4,2,2,50,1,0
207380,789.473684210526,4,2,2,40,1,0
207774,857.142857142857,4,2,2,30,1,0
208202,967.741935483871,4,2,2,20,1,0
208685,-100,4,2,0,10,0,0

[Colours]
Combo1 : 164,255,219
Combo2 : 255,223,0
Combo3 : 255,128,0
Combo4 : 128,128,255

[HitObjects]
112,180,3035,6,0,P|160:192|208:172,1,90,6|0,0:0|0:0,0:0:0:0:
152,24,3417,1,8,0:0:0:0:
40,144,3608,2,0,P|32:196|56:236,1,90,8|2,0:0|0:0,0:0:0:0:
132,296,3990,1,2,0:0:0:0:
256,192,4181,2,0,L|348:196,1,90,8|0,0:0|0:0,0:0:0:0:
432,264,4563,22,0,P|444:304|432:356,1,90,2|0,0:0|0:0,0:0:0:0:
276,312,4945,1,8,0:0:0:0:
368,180,5136,1,8,0:0:0:0:
432,264,5327,1,2,0:0:0:0:
276,312,5519,1,2,0:0:0:0:
272,152,5710,2,0,P|292:108|336:84,1,90,8|0,0:0|0:0,0:0:0:0:
236,232,6092,38,0,P|196:244|140:228,1,90,2|0,0:0|0:0,0:0:0:0:
60,96,6474,1,8,0:0:0:0:
32,256,6665,1,8,0:0:0:0:
7,169,6856,1,2,0:0:0:0:
101,310,7047,1,2,0:0:0:0:
192,168,7238,2,0,P|236:156|288:176,1,90,8|0,0:0|0:0,0:0:0:0:
348,252,7620,22,0,L|344:344,1,90,2|0,0:0|0:0,0:0:0:0:
236,232,8003,1,8,0:0:0:0:
436,288,8194,1,8,0:0:0:0:
344,341,8385,1,2,0:0:0:0:
308,152,8576,1,2,0:0:0:0:
236,232,8767,1,8,0:0:0:0:
436,288,8958,1,0,0:0:0:0:
256,320,9149,6,0,P|200:320|172:296,1,90,6|0,0:0|0:0,0:0:0:0:
144,140,9531,1,8,0:0:0:0:
72,284,9722,1,8,0:0:0:0:
32,128,9913,1,2,0:0:0:0:
72,284,10105,1,2,0:0:0:0:
208,200,10296,2,0,P|232:156|224:104,1,90,8|0,0:0|0:0,0:0:0:0:
152,260,10678,22,0,P|192:284|236:276,1,90,2|0,0:0|0:0,0:0:0:0:
372,196,11060,1,8,0:0:0:0:
208,200,11251,1,8,0:0:0:0:
352,272,11442,1,2,0:0:0:0:
272,144,11633,1,2,0:0:0:0:
284,312,11824,2,0,P|316:344|364:348,1,90,8|0,0:0|0:0,0:0:0:0:
460,300,12206,38,0,L|464:208,1,90,2|0,0:0|0:0,0:0:0:0:
344,100,12589,1,8,0:0:0:0:
504,92,12780,1,8,0:0:0:0:
372,196,12971,1,2,0:0:0:0:
416,40,13162,1,2,0:0:0:0:
372,196,13353,2,0,P|320:200|284:176,1,90,8|0,0:0|0:0,0:0:0:0:
240,84,13735,22,0,L|148:88,1,90,2|0,0:0|0:0,0:0:0:0:
40,208,14117,1,8,0:0:0:0:
28,48,14308,1,8,0:0:0:0:
128,176,14499,1,8,0:0:0:0:
129,193,14595,1,8,0:0:0:0:
131,210,14691,1,8,0:0:0:0:
104,24,14882,1,8,0:0:0:0:
40,208,15073,1,2,0:0:0:0:
28,48,15264,5,6,0:0:0:0:
172,80,15455,1,10,0:0:0:0:
4,128,15646,1,2,0:0:0:0:
172,80,15837,2,0,P|216:76|260:96,1,90,10|0,0:0|0:0,0:0:0:0:
328,240,16219,1,10,0:0:0:0:
388,88,16410,1,2,0:0:0:0:
260,192,16601,22,0,P|244:240|260:284,1,90,6|0,0:0|0:0,0:0:0:0:
396,288,16984,2,0,P|412:240|396:196,1,90,10|0,0:0|0:0,0:0:0:0:
280,84,17366,1,10,0:0:0:0:
328,240,17557,1,10,0:0:0:0:
388,88,17748,1,10,0:0:0:0:
260,192,17939,2,0,P|216:200|156:168,1,90,10|0,0:0|0:0,0:0:0:0:
96,44,18321,37,12,0:0:0:0:
80,208,18512,1,10,0:0:0:0:
224,124,18703,1,2,0:0:0:0:
60,132,18894,2,0,P|20:152|4:208,1,90,10|0,0:0|0:0,0:0:0:0:
44,348,19277,1,10,0:0:0:0:
80,208,19468,1,2,0:0:0:0:
152,360,19659,22,0,L|244:352,1,90,14|0,0:0|0:0,0:0:0:0:
328,288,20041,1,10,0:0:0:0:
328,288,20232,1,0,0:0:0:0:
368,132,20423,1,10,0:0:0:0:
328,288,20614,1,10,0:0:0:0:
248,144,20805,1,2,1:2:0:0:
242,126,20901,1,0,1:0:0:0:
237,108,20996,1,2,1:2:0:0:
228,268,21187,1,8,0:0:0:0:
392,220,21378,5,4,0:0:0:0:
248,144,21570,1,10,0:0:0:0:
272,304,21761,1,2,0:0:0:0:
368,132,21952,2,0,P|412:128|464:164,1,90,10|0,0:0|0:0,0:0:0:0:
484,252,22334,1,10,0:0:0:0:
356,368,22525,1,2,0:0:0:0:
316,200,22716,21,14,0:0:0:0:
316,200,22907,1,0,0:0:0:0:
272,304,23098,2,0,L|176:308,1,90,10|0,0:0|0:0,0:0:0:0:
44,273,23480,1,10,0:0:0:0:
157,170,23671,1,10,0:0:0:0:
103,339,23863,1,10,0:0:0:0:
69,190,24054,1,10,0:0:0:0:
219,237,24245,1,10,0:0:0:0:
44,273,24436,37,6,0:0:0:0:
188,316,24627,2,0,P|244:320|279:299,1,90,10|0,0:0|0:0,0:0:0:0:
344,220,25009,2,0,L|440:228,1,90,10|0,0:0|0:0,0:0:0:0:
448,328,25391,1,10,0:0:0:0:
420,148,25582,1,10,0:0:0:0:
448,328,25773,1,8,0:0:0:0:
344,220,25964,21,8,0:0:0:0:
277,324,26156,2,0,L|185:316,1,90,8|0,0:0|0:0,0:0:0:0:
344,220,26538,5,8,0:0:0:0:
210,225,26729,2,0,P|168:213|144:154,1,90,8|2,0:0|0:0,0:0:0:0:
137,158,27015,1,0,0:0:0:0:
133,140,27111,1,2,0:0:0:0:
133,122,27206,1,0,0:0:0:0:
136,104,27302,1,2,0:0:0:0:
142,87,27398,1,0,0:0:0:0:
149,75,27493,37,6,0:0:0:0:
209,20,27684,2,0,L|281:24,1,67.5000025749208,0|8,0:0|0:0,0:0:0:0:
328,84,28066,2,0,P|340:116|332:156,1,67.5000025749208,0|8,0:0|0:0,0:0:0:0:
336,228,28449,2,0,P|302:222|271:195,1,67.5000025749208,0|8,0:0|0:0,0:0:0:0:
204,164,28831,2,0,P|225:137|264:124,1,67.5000025749208,0|8,0:0|0:0,0:0:0:0:
328,84,29213,1,0,0:0:0:0:
336,228,29404,37,10,0:0:0:0:
336,228,29595,1,0,0:0:0:0:
204,164,29786,5,10,0:0:0:0:
204,164,29977,1,0,0:0:0:0:
328,84,30168,37,10,0:0:0:0:
328,84,30359,1,0,0:0:0:0:
408,80,30550,5,8,0:0:0:0:
460,140,30742,2,0,L|456:224,1,67.5000025749208,0|8,0:0|0:0,0:0:0:0:
412,340,31124,2,0,L|404:272,1,67.5000025749208,0|8,0:0|0:0,0:0:0:0:
336,228,31506,2,0,P|300:220|256:240,1,67.5000025749208,0|8,0:0|0:0,0:0:0:0:
268,356,31888,2,0,P|292:328|297:280,1,67.5000025749208,0|8,0:0|0:0,0:0:0:0:
336,228,32270,1,0,0:0:0:0:
304,148,32461,37,10,0:0:0:0:
252,212,32652,1,0,0:0:0:0:
392,164,32843,5,10,0:0:0:0:
360,84,33034,1,0,0:0:0:0:
336,228,33226,37,10,0:0:0:0:
416,244,33417,1,0,0:0:0:0:
444,96,33608,5,14,0:0:0:0:
360,84,33799,2,0,L|292:92,1,67.5000025749208,0|8,0:0|0:0,0:0:0:0:
224,132,34181,2,0,L|156:128,1,67.5000025749208,0|8,0:0|0:0,0:0:0:0:
96,72,34563,2,0,L|65:11,1,67.5000025749208,0|8,0:0|0:0,0:0:0:0:
76,148,34945,2,0,L|38:204,1,67.5000025749208,0|8,0:0|0:0,0:0:0:0:
16,284,35327,1,0,0:0:0:0:
84,332,35519,37,10,0:0:0:0:
108,256,35710,1,0,0:0:0:0:
136,180,35901,5,10,0:0:0:0:
188,244,36092,1,0,0:0:0:0:
236,312,36283,37,10,0:0:0:0:
272,240,36474,1,0,0:0:0:0:
308,168,36665,6,0,P|368:148|428:180,1,135.000005149842,10|8,0:0|0:0,0:0:0:0:
364,228,37238,2,0,L|372:84,1,135.000005149842,2|0,0:0|0:0,0:0:0:0:
320,28,37812,2,0,P|284:44|252:40,1,67.5000025749208,8|0,0:0|0:0,0:0:0:0:
176,24,38194,38,0,P|136:20|96:40,1,67.5000025749208,10|0,0:0|0:0,0:0:0:0:
64,96,38576,1,8,0:0:0:0:
144,104,38767,1,0,0:0:0:0:
111,29,38958,1,10,0:0:0:0:
20,164,39149,1,0,0:0:0:0:
180,176,39340,6,0,L|289:169,1,101.250003862381,14|0,0:0|0:0,0:0:0:0:
321,166,39722,5,4,0:0:0:0:
456,188,39913,1,0,0:0:0:0:
360,260,40105,1,8,0:0:0:0:
408,120,40296,2,0,P|440:104|480:112,1,67.5000025749208,8|0,0:0|0:0,0:0:0:0:
440,268,40678,2,0,P|424:316|396:332,1,67.5000025749208,2|8,0:0|0:0,0:0:0:0:
248,308,41060,6,0,L|168:312,1,67.5000025749208,0|2,0:0|0:0,0:0:0:0:
124,208,41442,1,0,0:0:0:0:
96,368,41633,1,8,0:0:0:0:
44,216,41824,2,0,P|48:176|72:144,1,67.5000025749208,8|0,0:0|0:0,0:0:0:0:
97,291,42206,1,2,0:0:0:0:
202,201,42398,2,0,P|198:241|174:273,1,67.5000025749208,8|0,0:0|0:0,0:0:0:0:
44,216,42780,37,2,0:0:0:0:
144,128,42971,2,0,P|176:108|216:112,1,67.5000025749208,0|8,0:0|0:0,0:0:0:0:
252,256,43353,2,0,P|220:276|180:272,1,67.5000025749208,8|0,0:0|0:0,0:0:0:0:
304,168,43735,2,0,P|334:188|349:221,1,67.5000025749208,2|8,0:0|0:0,0:0:0:0:
416,356,44117,6,0,P|448:340|468:304,1,67.5000025749208,0|2,0:0|0:0,0:0:0:0:
464,160,44499,1,0,0:0:0:0:
396,284,44691,1,8,0:0:0:0:
372,164,44882,2,0,L|296:168,1,67.5000025749208,8|0,0:0|0:0,0:0:0:0:
244,296,45264,1,2,0:0:0:0:
220,160,45455,2,0,P|212:124|224:88,1,67.5000025749208,8|0,0:0|0:0,0:0:0:0:
368,144,45837,37,6,0:0:0:0:
396,284,46028,2,0,P|359:287|324:268,1,67.5000025749208,0|8,0:0|0:0,0:0:0:0:
220,160,46410,2,0,P|188:148|154:154,1,67.5000025749208,8|0,0:0|0:0,0:0:0:0:
84,300,46792,2,0,L|88:376,1,67.5000025749208,2|8,0:0|0:0,0:0:0:0:
8,220,47175,6,0,L|12:148,1,67.5000025749208,0|2,0:0|0:0,0:0:0:0:
72,24,47557,1,0,0:0:0:0:
116,156,47748,1,8,0:0:0:0:
176,28,47939,2,0,P|208:20|248:28,1,67.5000025749208,8|0,0:0|0:0,0:0:0:0:
288,160,48321,1,2,0:0:0:0:
352,36,48512,1,8,0:0:0:0:
220,108,48703,1,0,0:0:0:0:
372,116,48894,38,0,P|420:88|432:12,1,135.000005149842,2|8,0:0|0:0,0:0:0:0:
288,160,49468,2,0,P|336:204|416:196,1,135.000005149842,8|2,0:0|0:0,0:0:0:0:
220,108,50041,2,0,P|200:152|208:184,1,67.5000025749208,8|0,0:0|0:0,0:0:0:0:
296,76,50423,6,0,P|272:40|232:28,2,67.5000025749208,2|0|8,0:0|0:0|0:0,0:0:0:0:
276,248,50996,1,8,0:0:0:0:
220,108,51187,1,0,0:0:0:0:
244,240,51378,1,2,0:0:0:0:
188,112,51570,1,2,0:0:0:0:
208,232,51761,1,2,0:0:0:0:
156,116,51952,6,0,L|16:132,1,135.000005149842,6|2,0:0|3:0,0:0:0:0:
76,8,52525,1,2,0:0:0:0:
156,116,52716,6,0,P|176:172|144:256,1,135.000005149842,2|2,0:0|3:0,0:0:0:0:
52,128,53289,1,2,0:0:0:0:
168,24,53480,38,0,L|304:36,1,135.000005149842,2|2,0:0|3:0,0:0:0:0:
460,56,54054,1,2,0:0:0:0:
368,184,54245,6,0,P|356:244|388:320,1,135.000005149842,2|2,0:0|3:0,0:0:0:0:
496,208,54818,1,2,0:0:0:0:
384,100,55009,38,0,P|332:104|280:168,1,135.000005149842,2|2,0:0|3:0,0:0:0:0:
408,256,55582,1,2,0:0:0:0:
492,124,55773,6,0,P|492:56|436:8,1,135.000005149842,2|2,0:0|3:0,0:0:0:0:
352,136,56347,1,2,0:0:0:0:
384,288,56538,38,0,P|432:328|512:320,1,135.000005149842,2|2,0:0|3:0,0:0:0:0:
479,172,57111,1,2,0:0:0:0:
335,226,57302,6,0,P|307:278|333:349,1,135.000005149842,2|2,0:0|3:0,0:0:0:0:
457,259,57875,1,2,0:0:0:0:
330,346,58066,6,0,P|266:370|202:349,1,135.000005149842,4|8,0:0|0:0,0:0:0:0:
127,217,58640,1,2,0:0:0:0:
263,146,58831,6,0,P|285:219|265:279,1,135.000005149842,2|8,0:0|0:0,0:0:0:0:
142,364,59404,1,2,0:0:0:0:
11,284,59595,38,0,P|-11:211|9:151,1,135.000005149842,2|8,0:0|0:0,0:0:0:0:
133,74,60168,1,2,0:0:0:0:
202,210,60359,6,0,P|268:230|335:202,1,135.000005149842,2|8,0:0|0:0,0:0:0:0:
264,67,60933,1,2,0:0:0:0:
140,158,61124,38,0,P|125:224|163:281,1,135.000005149842,2|12,0:0|0:0,0:0:0:0:
263,147,61697,1,2,0:0:0:0:
152,39,61888,6,0,P|82:42|35:93,1,135.000005149842,2|12,0:0|0:0,0:0:0:0:
0,234,62461,1,2,0:0:0:0:
140,298,62652,38,0,L|280:302,1,135.000005149842,6|2,0:0|0:0,0:0:0:0:
355,299,63226,1,2,0:0:0:0:
415,246,63417,2,0,P|436:306|399:366,1,135.000005149842,2|0,0:0|0:0,0:0:0:0:
338,222,64181,21,2,0:0:0:0:
466,182,64372,1,0,0:0:0:0:
342,142,64563,1,2,0:0:0:0:
415,246,64754,1,0,0:0:0:0:
418,114,64945,1,2,0:0:0:0:
270,178,65327,1,2,0:0:0:0:
270,178,65710,21,14,0:0:0:0:
375,299,65901,1,8,0:0:0:0:
386,313,65996,1,8,0:0:0:0:
398,326,66092,1,8,0:0:0:0:
220,340,66283,2,0,P|173:326|148:296,1,90,2|0,0:0|0:0,0:0:0:0:
107,191,66665,2,0,L|115:99,1,90,2|0,0:0|0:0,0:0:0:0:
202,29,67047,22,0,P|246:17|297:41,1,90,6|0,0:0|0:0,0:0:0:0:
270,178,67429,1,2,0:0:0:0:
398,111,67620,1,8,0:0:0:0:
240,106,67812,1,2,0:0:0:0:
224,110,67907,1,0,0:0:0:0:
208,114,68003,1,8,0:0:0:0:
398,110,68194,1,2,0:0:0:0:
318,246,68385,1,8,0:0:0:0:
240,106,68576,1,2,0:0:0:0:
176,260,68767,38,0,P|208:292|256:299,1,90,6|2,0:0|0:0,0:0:0:0:
316,148,69149,1,8,0:0:0:0:
172,180,69340,1,2,0:0:0:0:
150,186,69436,1,0,0:0:0:0:
129,196,69531,2,0,P|97:234|98:278,1,90,8|2,0:0|0:0,0:0:0:0:
92,128,69913,1,8,0:0:0:0:
240,106,70105,1,2,0:0:0:0:
176,260,70296,21,8,0:0:0:0:
92,128,70487,1,2,0:0:0:0:
252,188,70678,1,8,0:0:0:0:
100,216,70869,1,2,0:0:0:0:
100,216,70964,1,0,0:0:0:0:
100,216,71060,2,0,P|48:212|20:180,1,90,8|2,0:0|0:0,0:0:0:0:
48,32,71442,2,0,L|184:40,1,135,8|0,0:0|0:0,0:0:0:0:
200,48,71824,6,0,L|304:44,1,90,6|0,0:0|0:0,0:0:0:0:
396,68,72206,1,2,0:0:0:0:
460,156,72398,2,0,P|468:204|452:256,1,90,8|0,0:0|0:0,0:0:0:0:
352,240,72780,2,0,P|344:192|360:140,1,90,8|0,0:0|0:0,0:0:0:0:
404,312,73162,22,0,P|360:332|316:320,1,90,8|0,0:0|0:0,0:0:0:0:
256,188,73544,1,10,0:0:0:0:
212,328,73735,2,0,L|104:332,1,90,8|0,0:0|0:0,0:0:0:0:
76,192,74117,1,8,0:0:0:0:
32,336,74308,1,2,0:0:0:0:
152,244,74499,1,8,0:0:0:0:
4,252,74691,1,2,0:0:0:0:
123,331,74882,38,0,L|213:328,1,90,6|0,0:0|0:0,0:0:0:0:
368,316,75264,1,8,0:0:0:0:
244,240,75455,2,0,P|232:200|244:148,1,90,10|0,0:0|0:0,0:0:0:0:
400,196,75837,1,10,0:0:0:0:
244,240,76028,1,8,0:0:0:0:
360,120,76219,22,0,P|404:108|452:128,1,90,10|0,0:0|0:0,0:0:0:0:
444,272,76601,1,10,0:0:0:0:
360,120,76792,1,8,0:0:0:0:
312,288,76984,1,10,0:0:0:0:
236,156,77175,1,8,0:0:0:0:
400,196,77366,1,2,0:0:0:0:
416,204,77461,1,2,0:0:0:0:
432,212,77557,1,8,0:0:0:0:
312,288,77748,1,2,0:0:0:0:
360,120,77939,5,6,0:0:0:0:
240,240,78130,1,2,0:0:0:0:
392,280,78321,1,10,0:0:0:0:
236,156,78512,2,0,P|228:112|248:64,1,90,2|0,0:0|0:0,0:0:0:0:
344,200,78894,1,2,0:0:0:0:
240,320,79085,1,10,0:0:0:0:
124,212,79277,22,0,P|104:120|136:24,1,180,6|0,0:0|0:0,0:0:0:0:
126,39,80041,1,8,0:0:0:0:
228,76,80232,2,0,L|320:72,1,90,2|8,0:0|0:0,0:0:0:0:
416,28,80614,1,10,0:0:0:0:
492,104,80805,1,0,0:0:0:0:
336,176,80996,37,14,0:0:0:0:
416,28,81187,1,2,0:0:0:0:
440,192,81378,1,10,0:0:0:0:
317,72,81570,2,0,L|228:76,1,90,2|0,0:0|0:0,0:0:0:0:
117,184,81952,1,2,0:0:0:0:
128,40,82143,1,10,0:0:0:0:
40,176,82334,22,0,P|56:232|168:244,1,180,6|8,0:0|0:0,0:0:0:0:
163,247,83098,1,10,0:0:0:0:
268,224,83289,2,0,P|272:272|244:320,1,90,0|10,0:0|0:0,0:0:0:0:
92,280,83671,2,0,P|88:232|116:184,1,90,10|0,0:0|0:0,0:0:0:0:
268,224,84054,5,12,0:0:0:0:
92,280,84245,1,2,0:0:0:0:
200,160,84436,1,10,0:0:0:0:
240,304,84627,2,0,P|208:332|152:336,1,90,2|0,0:0|0:0,0:0:0:0:
112,180,85009,1,2,0:0:0:0:
268,224,85200,1,10,0:0:0:0:
92,280,85391,22,0,P|24:248|16:136,1,180,6|0,0:0|0:0,0:0:0:0:
7,151,86156,1,10,0:0:0:0:
84,80,86347,1,10,0:0:0:0:
112,180,86538,1,8,0:0:0:0:
0,324,86729,1,10,0:0:0:0:
7,151,86920,1,0,0:0:0:0:
92,280,87111,37,12,0:0:0:0:
112,180,87302,2,0,P|148:148|200:152,1,90,2|8,0:0|0:0,0:0:0:0:
243,259,87684,2,0,P|207:291|155:287,1,90,10|0,0:0|0:0,0:0:0:0:
76,104,88066,1,8,0:0:0:0:
14,240,88257,2,0,L|6:140,1,90,10|0,0:0|0:0,0:0:0:0:
112,16,88640,21,10,0:0:0:0:
112,180,88831,1,10,0:0:0:0:
112,180,89213,5,10,0:0:0:0:
264,112,89404,1,10,0:0:0:0:
340,192,89595,1,0,0:0:0:0:
340,192,89691,1,0,0:0:0:0:
340,192,89786,2,0,P|376:136|360:64,1,135,0|0,0:0|0:0,0:0:0:0:
340,40,90168,37,6,0:0:0:0:
260,24,90359,2,0,P|216:32|192:60,1,67.5000025749208,0|8,0:0|0:0,0:0:0:0:
176,124,90742,2,0,P|188:164|220:184,1,67.5000025749208,8|0,0:0|0:0,0:0:0:0:
240,264,91124,2,0,P|199:254|166:272,1,67.5000025749208,2|0,0:0|0:0,0:0:0:0:
88,252,91506,2,0,P|116:221|117:183,1,67.5000025749208,8|0,0:0|0:0,0:0:0:0:
33,179,91888,38,0,P|4:209|3:247,1,67.5000025749208,2|0,0:0|0:0,0:0:0:0:
35,318,92270,2,0,L|111:314,1,67.5000025749208,8|0,0:0|0:0,0:0:0:0:
180,360,92652,1,2,0:0:0:0:
240,264,92843,1,8,0:0:0:0:
284,353,93034,1,0,0:0:0:0:
241,264,93226,5,2,0:0:0:0:
102,326,93417,2,0,L|35:330,1,67.5000025749208,0|8,0:0|0:0,0:0:0:0:
54,250,93799,2,0,P|62:214|54:174,1,67.5000025749208,8|0,0:0|0:0,0:0:0:0:
6,122,94181,2,0,P|32:106|70:105,1,67.5000025749208,2|0,0:0|0:0,0:0:0:0:
144,128,94563,2,0,L|216:140,1,67.5000025749208,8|0,0:0|0:0,0:0:0:0:
284,108,94945,2,0,L|326:55,1,67.5000025749208,2|0,0:0|0:0,0:0:0:0:
276,184,95327,2,0,L|299:247,1,67.5000025749208,8|0,0:0|0:0,0:0:0:0:
303,327,95710,1,2,0:0:0:0:
371,283,95901,2,0,P|379:243|367:211,1,67.5000025749208,8|0,0:0|0:0,0:0:0:0:
276,184,96283,5,2,0:0:0:0:
144,128,96474,1,0,0:0:0:0:
284,108,96665,1,8,0:0:0:0:
176,196,96856,2,0,P|140:208|108:196,1,67.5000025749208,8|0,0:0|0:0,0:0:0:0:
284,108,97238,2,0,P|328:120|344:152,1,67.5000025749208,2|8,0:0|0:0,0:0:0:0:
328,280,97620,6,0,L|248:276,1,67.5000025749208,0|2,0:0|0:0,0:0:0:0:
176,196,98003,1,0,0:0:0:0:
152,320,98194,1,8,0:0:0:0:
96,192,98385,2,0,P|104:156|136:128,1,67.5000025749208,8|0,0:0|0:0,0:0:0:0:
152,320,98767,1,2,0:0:0:0:
52,256,98958,1,8,0:0:0:0:
176,196,99149,38,0,L|256:200,1,67.5000025749208,0|2,0:0|0:0,0:0:0:0:
324,140,99531,1,2,0:0:0:0:
328,280,99722,1,8,0:0:0:0:
400,168,99913,2,0,P|396:104|324:60,1,135.000005149842,8|2,0:0|0:0,0:0:0:0:
336,216,100487,2,0,P|360:240|408:248,1,67.5000025749208,8|0,0:0|0:0,0:0:0:0:
324,140,100869,6,0,P|272:168|264:244,1,135.000005149842,2|8,0:0|0:0,0:0:0:0:
300,352,101442,1,8,0:0:0:0:
392,272,101633,1,2,0:0:0:0:
324,140,101824,1,2,0:0:0:0:
324,140,102015,1,2,0:0:0:0:
261,238,102206,1,2,0:0:0:0:
392,272,102398,22,0,P|448:240|472:168,1,135.000005149842,2|2,0:0|3:0,0:0:0:0:
324,140,102971,1,2,0:0:0:0:
175,132,103162,38,0,P|174:196|225:253,1,135.000005149842,2|2,0:0|3:0,0:0:0:0:
324,140,103735,1,2,0:0:0:0:
212,32,103926,6,0,P|148:20|88:68,1,135.000005149842,2|2,0:0|3:0,0:0:0:0:
64,208,104499,1,2,0:0:0:0:
152,336,104691,38,0,P|216:348|276:300,1,135.000005149842,2|2,0:0|3:0,0:0:0:0:
344,172,105264,1,2,0:0:0:0:
200,112,105455,6,0,P|168:176|196:240,1,135.000005149842,2|2,0:0|3:0,0:0:0:0:
344,172,106028,1,2,0:0:0:0:
312,20,106219,38,0,L|148:28,1,135.000005149842,2|2,0:0|3:0,0:0:0:0:
56,124,106792,1,2,0:0:0:0:
60,280,106984,6,0,P|96:324|176:324,1,135.000005149842,2|2,0:0|3:0,0:0:0:0:
300,244,107557,1,2,0:0:0:0:
240,100,107748,38,0,P|208:108|184:144,1,67.5000025749208,0|10,0:0|0:0,0:0:0:0:
300,244,108130,1,10,0:0:0:0:
156,212,108321,1,10,0:0:0:0:
288,164,108512,22,0,P|328:164|380:236,1,135.000005149842,6|8,0:0|0:0,0:0:0:0:
256,328,109085,1,2,0:0:0:0:
156,212,109277,6,0,P|136:148|176:84,1,135.000005149842,2|8,0:0|0:0,0:0:0:0:
296,180,109850,1,2,0:0:0:0:
256,328,110041,38,0,P|200:364|124:352,1,135.000005149842,2|8,0:0|0:0,0:0:0:0:
32,240,110614,1,2,0:0:0:0:
56,88,110805,6,0,P|112:52|188:64,1,135.000005149842,2|8,0:0|0:0,0:0:0:0:
240,200,111378,1,2,0:0:0:0:
384,144,111570,38,0,P|404:96|376:16,1,135.000005149842,2|6,0:0|0:0,0:0:0:0:
248,104,112143,1,2,0:0:0:0:
296,252,112334,6,0,P|348:280|428:244,1,135.000005149842,2|6,0:0|0:0,0:0:0:0:
360,200,112907,1,2,0:0:0:0:
284,172,113098,38,0,P|240:188|216:268,1,135.000005149842,2|2,0:0|0:0,0:0:0:0:
296,252,113671,1,2,0:0:0:0:
360,200,113863,2,0,P|360:148|288:92,1,135.000005149842,2|2,0:0|0:0,0:0:0:0:
140,76,114627,37,2,0:0:0:0:
152,204,114818,1,0,0:0:0:0:
68,108,115009,1,2,0:0:0:0:
196,136,115200,1,0,0:0:0:0:
72,188,115391,1,2,0:0:0:0:
232,212,115773,2,0,P|272:176|272:116,1,101.250003862381,2|0,0:0|0:0,0:0:0:0:
272,100,116156,5,12,0:0:0:0:
163,48,116347,1,10,0:0:0:0:
147,39,116442,1,8,0:0:0:0:
130,30,116538,1,8,0:0:0:0:
72,188,116729,2,0,P|44:216|4:248,1,90,8|0,0:0|0:0,0:0:0:0:
68,108,117111,2,0,P|57:69|50:19,1,90,8|0,0:0|0:0,0:0:0:0:
140,144,117493,22,0,P|178:154|225:172,1,90,4|0,0:0|0:0,0:0:0:0:
392,212,117875,1,2,0:0:0:0:
240,272,118066,1,8,0:0:0:0:
324,132,118257,1,2,0:0:0:0:
341,117,118353,1,0,0:0:0:0:
361,107,118449,2,0,P|411:98|453:123,1,90,8|2,0:0|0:0,0:0:0:0:
243,159,118831,2,0,P|241:113|266:75,1,90,8|2,0:0|0:0,0:0:0:0:
240,272,119213,38,0,P|192:268|156:228,1,90,6|0,0:0|0:0,0:0:0:0:
128,88,119595,1,8,0:0:0:0:
60,216,119786,1,2,0:0:0:0:
64,232,119882,1,0,0:0:0:0:
68,248,119977,1,8,0:0:0:0:
32,124,120168,2,0,L|40:32,1,90,2|8,0:0|0:0,0:0:0:0:
184,144,120550,1,2,0:0:0:0:
60,216,120742,21,8,0:0:0:0:
128,88,120933,1,2,0:0:0:0:
176,224,121124,1,8,0:0:0:0:
60,216,121315,1,2,0:0:0:0:
60,216,121410,1,0,0:0:0:0:
60,216,121506,2,0,P|56:260|96:308,1,90,8|0,0:0|0:0,0:0:0:0:
184,144,121888,2,0,P|208:104|200:56,1,90,6|0,0:0|0:0,0:0:0:0:
76,32,122270,6,0,P|52:72|60:120,1,90,6|2,0:0|0:0,0:0:0:0:
176,224,122652,1,8,0:0:0:0:
320,148,122843,2,0,B|344:112|344:112|352:64,1,90,8|2,0:0|0:0,0:0:0:0:
320,308,123226,2,0,B|339:346|339:346|376:377,1,90,8|2,0:0|0:0,0:0:0:0:
176,224,123608,22,0,B|132:221|132:221|87:238,1,90,8|2,0:0|0:0,0:0:0:0:
272,220,123990,1,2,0:0:0:0:
228,304,124181,1,8,0:0:0:0:
224,140,124372,1,2,0:0:0:0:
368,228,124563,2,0,P|416:232|456:208,1,90,8|2,0:0|0:0,0:0:0:0:
432,44,124945,1,8,0:0:0:0:
392,156,125136,1,2,0:0:0:0:
432,44,125327,38,0,L|336:52,1,90,6|0,0:0|0:0,0:0:0:0:
292,192,125710,1,8,0:0:0:0:
224,60,125901,2,0,P|176:72|148:112,1,90,10|2,0:0|0:0,0:0:0:0:
156,248,126283,1,10,0:0:0:0:
292,192,126474,1,8,0:0:0:0:
180,324,126665,22,0,P|132:324|96:300,1,90,10|2,0:0|0:0,0:0:0:0:
88,128,127047,1,10,0:0:0:0:
156,248,127238,1,8,0:0:0:0:
228,128,127429,1,2,0:0:0:0:
88,204,127620,1,8,0:0:0:0:
158,88,127812,1,2,0:0:0:0:
224,208,128003,1,8,0:0:0:0:
256,204,128098,1,8,0:0:0:0:
284,188,128194,1,8,0:0:0:0:
300,160,128289,1,8,0:0:0:0:
308,128,128385,6,0,P|300:84|256:52,1,90,6|2,0:0|0:0,0:0:0:0:
156,168,128767,1,8,0:0:0:0:
268,280,128958,2,0,P|304:296|360:288,1,90,8|2,0:0|0:0,0:0:0:0:
268,280,129340,2,0,P|236:303|215:355,1,90,8|2,0:0|0:0,0:0:0:0:
268,280,129722,22,0,P|263:240|228:196,2,90,6|0|2,0:0|0:0|0:0,0:0:0:0:
156,282,130296,1,8,0:0:0:0:
115,142,130487,1,0,0:0:0:0:
56,276,130678,1,2,0:0:0:0:
115,142,130869,1,2,0:0:0:0:
119,126,130964,1,0,0:0:0:0:
123,110,131060,1,8,0:0:0:0:
156,282,131251,1,2,0:0:0:0:
36,180,131442,37,6,0:0:0:0:
196,124,131633,1,2,0:0:0:0:
40,96,131824,1,8,0:0:0:0:
176,200,132015,2,0,P|224:200|260:172,1,90,8|2,0:0|0:0,0:0:0:0:
176,200,132398,2,0,P|152:241|158:286,1,90,8|2,0:0|0:0,0:0:0:0:
176,200,132780,22,0,P|151:158|109:141,1,90,6|0,0:0|0:0,0:0:0:0:
16,264,133162,2,0,P|40:305|82:322,1,90,2|8,0:0|0:0,0:0:0:0:
248,256,133544,1,0,0:0:0:0:
184,368,133735,1,2,0:0:0:0:
176,200,133926,1,2,0:0:0:0:
268,344,134117,1,8,0:0:0:0:
296,332,134213,1,2,0:0:0:0:
320,312,134308,1,2,0:0:0:0:
332,284,134404,1,2,0:0:0:0:
336,252,134499,6,0,P|320:200|292:180,1,90,6|0,0:0|0:0,0:0:0:0:
164,284,134882,1,8,0:0:0:0:
188,116,135073,2,0,B|192:72|192:72|212:16,1,90,8|2,0:0|0:0,0:0:0:0:
188,116,135455,2,0,B|224:141|224:141|262:186,1,90,8|2,0:0|0:0,0:0:0:0:
188,116,135837,22,0,B|147:134|147:134|89:145,1,90,12|0,0:0|0:0,0:0:0:0:
28,64,136219,1,2,0:0:0:0:
8,200,136410,2,0,L|16:300,2,90,8|0|2,0:0|0:0|0:0,0:0:0:0:
28,64,136984,1,2,0:0:0:0:
188,116,137175,1,8,0:0:0:0:
88,236,137366,1,2,0:0:0:0:
108,88,137557,38,0,P|132:48|176:32,1,90,6|2,0:0|0:0,0:0:0:0:
328,128,137939,1,8,0:0:0:0:
200,196,138130,2,0,P|152:192|120:160,1,90,8|2,0:0|0:0,0:0:0:0:
240,48,138512,1,8,0:0:0:0:
280,232,138703,1,2,0:0:0:0:
328,128,138894,1,8,0:0:0:0:
200,196,139085,22,0,P|192:244|216:288,1,90,2|0,0:0|0:0,0:0:0:0:
392,268,139468,2,0,P|400:220|376:176,1,90,6|0,0:0|0:0,0:0:0:0:
200,196,139850,1,2,0:0:0:0:
392,268,140041,1,8,0:0:0:0:
220,252,140232,1,8,0:0:0:0:
352,312,140423,1,0,0:0:0:0:
240,312,140614,1,4,0:0:0:0:
152,216,152843,38,0,P|128:172|156:88,1,135.000005149842,2|2,0:0|3:0,0:0:0:0:
208,152,153417,1,2,0:0:0:0:
236,228,153608,6,0,P|212:276|132:296,1,135.000005149842,2|2,0:0|3:0,0:0:0:0:
152,216,154181,1,2,0:0:0:0:
208,152,154372,38,0,P|256:148|316:220,1,135.000005149842,2|2,0:0|3:0,0:0:0:0:
352,277,154945,1,2,0:0:0:0:
365,356,155136,6,0,P|423:323|432:259,1,135.000005149842,2|2,0:0|3:0,0:0:0:0:
456,182,155710,1,0,0:0:0:0:
425,106,155901,6,0,P|381:86|301:126,1,135.000005149842,2|2,0:0|3:0,0:0:0:0:
267,189,156474,1,2,0:0:0:0:
192,156,156665,6,0,P|160:148|120:160,1,67.5000025749208,2|0,0:0|0:0,0:0:0:0:
164,228,157047,1,2,3:0:0:0:
236,260,157238,38,0,L|264:336,1,67.5000025749208,2|2,0:0|0:0,0:0:0:0:
164,304,157620,2,0,L|164:372,1,67.5000025749208,0|2,0:0|3:0,0:0:0:0:
96,264,158003,2,0,L|68:340,1,67.5000025749208,2|2,0:0|0:0,0:0:0:0:
20,228,158385,1,0,0:0:0:0:
88,184,158576,1,2,3:0:0:0:
96,264,158767,1,2,0:0:0:0:
16,148,158958,22,0,P|52:112|132:116,1,135.000005149842,6|2,0:0|0:0,0:0:0:0:
168,188,159531,2,0,P|204:152|200:72,1,135.000005149842,8|0,0:0|0:0,0:0:0:0:
132,32,160105,2,0,L|272:40,1,135.000005149842,2|0,0:0|0:0,0:0:0:0:
324,96,160678,2,0,L|392:92,1,67.5000025749208,8|0,0:0|0:0,0:0:0:0:
464,60,161060,37,0,0:0:0:0:
500,132,161251,2,0,P|508:168|496:208,1,67.5000025749208,2|0,0:0|0:0,0:0:0:0:
447,257,161633,1,8,0:0:0:0:
366,255,161824,1,0,0:0:0:0:
301,208,162015,22,0,P|271:224|253:252,1,67.5000025749208,4|0,0:0|0:0,0:0:0:0:
184,304,162398,2,0,P|148:308|112:308,1,67.5000025749208,2|0,0:0|0:0,0:0:0:0:
180,188,162780,2,0,P|176:152|176:116,1,67.5000025749208,2|0,0:0|0:0,0:0:0:0:
300,188,163162,2,0,P|336:184|372:184,1,67.5000025749208,2|0,0:0|0:0,0:0:0:0:
296,308,163544,2,0,P|300:344|300:380,2,67.5000025749208,2|0|2,0:0|0:0|0:0,0:0:0:0:
240,132,164117,5,0,0:0:0:0:
208,276,164308,1,2,0:0:0:0:
300,188,164499,1,0,0:0:0:0:
180,188,164691,2,0,P|160:160|164:116,1,67.5000025749208,2|0,0:0|0:0,0:0:0:0:
316,104,165073,1,0,3:0:0:0:
124,252,165455,21,4,3:0:0:0:
88,232,165550,1,8,3:0:0:0:
200,312,165742,1,4,3:0:0:0:
236,292,165837,1,8,3:0:0:0:
180,188,166028,1,4,3:0:0:0:
100,328,166219,1,4,3:0:0:0:
64,308,166314,1,8,3:0:0:0:
28,288,166410,1,4,3:0:0:0:
104,148,166601,38,0,P|132:112|180:104,1,90,6|0,0:0|0:0,0:0:0:0:
280,228,166984,1,2,0:0:0:0:
336,96,167175,2,0,P|336:56|312:12,1,90,8|0,0:0|0:0,0:0:0:0:
420,208,167557,2,0,P|454:228|504:229,1,90,8|0,0:0|0:0,0:0:0:0:
280,228,167939,22,0,P|245:248|219:290,1,90,12|0,0:0|0:0,0:0:0:0:
376,328,168321,1,2,0:0:0:0:
344,176,168512,1,8,0:0:0:0:
344,176,168608,1,0,0:0:0:0:
344,176,168703,1,2,0:0:0:0:
300,308,168894,1,8,0:0:0:0:
420,208,169085,1,2,0:0:0:0:
280,228,169277,2,0,P|260:188|264:144,1,90,12|0,0:0|0:0,0:0:0:0:
300,308,169659,6,0,L|152:316,1,135.000005149842,12|8,0:0|0:0,0:0:0:0:
92,236,170232,1,2,0:0:0:0:
92,320,170423,2,0,P|156:292|172:212,1,135.000005149842,8|8,0:0|0:0,0:0:0:0:
136,164,170996,1,0,0:0:0:0:
24,192,171187,21,2,0:0:0:0:
56,88,171378,1,8,0:0:0:0:
136,164,171570,2,0,L|220:168,1,67.5000025749208,0|2,0:0|0:0,0:0:0:0:
272,100,171952,1,8,0:0:0:0:
280,232,172143,1,0,0:0:0:0:
281,248,172238,1,0,0:0:0:0:
282,264,172334,1,8,0:0:0:0:
352,140,172525,1,2,0:0:0:0:
206,150,172716,38,0,L|139:147,1,67.5000025749208,6|0,0:0|0:0,0:0:0:0:
83,225,173098,1,0,0:0:0:0:
204,300,173289,2,0,B|240:312|240:312|288:308,1,67.5000025749208,8|0,0:0|0:0,0:0:0:0:
83,225,173671,2,0,B|54:250|54:250|34:293,1,67.5000025749208,8|0,0:0|0:0,0:0:0:0:
206,150,174054,22,0,B|198:112|198:112|170:73,1,67.5000025749208,8|0,0:0|0:0,0:0:0:0:
204,300,174436,1,2,0:0:0:0:
308,232,174627,2,0,L|384:236,1,67.5000025749208,8|0,0:0|0:0,0:0:0:0:
498,186,175009,2,0,P|507:150|493:106,1,67.5000025749208,2|0,0:0|0:0,0:0:0:0:
416,36,175391,1,8,0:0:0:0:
372,152,175582,1,2,0:0:0:0:
320,32,175773,6,0,P|284:48|264:84,1,67.5000025749208,6|0,0:0|0:0,0:0:0:0:
372,152,176156,1,8,0:0:0:0:
280,228,176347,2,0,L|204:224,1,67.5000025749208
160,112,176729,1,0,0:0:0:0:
88,212,176920,1,8,0:0:0:0:
160,112,177111,22,0,L|232:116,1,67.5000025749208,8|4,0:0|0:0,0:0:0:0:
280,228,177493,1,8,0:0:0:0:
320,96,177684,1,2,0:0:0:0:
208,188,177875,1,8,0:0:0:0:
348,180,178066,2,0,P|364:216|360:252,1,67.5000025749208,2|0,0:0|0:0,0:0:0:0:
200,251,178449,2,0,P|195:218|208:188,1,67.5000025749208,8|0,0:0|0:0,0:0:0:0:
320,96,178831,38,0,P|368:92|404:112,1,90,6|0,0:0|0:0,0:0:0:0:
448,244,179213,1,2,0:0:0:0:
340,296,179404,2,0,P|296:311|252:316,1,90,8|0,0:0|0:0,0:0:0:0:
348,180,179786,2,0,P|354:136|374:93,1,90,8|0,0:0|0:0,0:0:0:0:
448,244,180168,22,0,P|483:273|509:310,1,90,12|0,0:0|0:0,0:0:0:0:
340,296,180550,1,2,0:0:0:0:
268,164,180742,1,0,0:0:0:0:
272,148,180837,1,0,0:0:0:0:
276,132,180933,1,2,0:0:0:0:
280,116,181028,1,0,0:0:0:0:
284,100,181124,1,8,0:0:0:0:
368,216,181315,1,2,0:0:0:0:
196,128,181506,1,12,0:0:0:0:
368,124,181697,1,0,0:0:0:0:
284,232,181888,6,0,P|304:276|349:297,1,90,6|0,0:0|0:0,0:0:0:0:
456,192,182270,1,8,0:0:0:0:
284,232,182461,1,2,0:0:0:0:
268,236,182557,1,0,0:0:0:0:
252,240,182652,1,8,0:0:0:0:
196,128,182843,1,2,0:0:0:0:
204,304,183034,1,8,0:0:0:0:
352,212,183226,1,2,0:0:0:0:
148,220,183417,21,8,0:0:0:0:
300,120,183608,1,2,0:0:0:0:
308,300,183799,1,8,0:0:0:0:
118,303,183990,1,2,0:0:0:0:
95,304,184085,1,0,0:0:0:0:
72,305,184181,1,8,0:0:0:0:
196,128,184372,1,2,0:0:0:0:
204,304,184563,1,8,0:0:0:0:
84,172,184754,1,0,0:0:0:0:
84,172,184850,1,0,0:0:0:0:
84,172,184945,38,0,P|72:124|88:76,1,90,6|0,0:0|0:0,0:0:0:0:
220,24,185327,1,2,0:0:0:0:
352,116,185519,2,0,L|448:108,1,90,8|0,0:0|0:0,0:0:0:0:
347,218,185901,2,0,L|305:305,1,90,8|0,0:0|0:0,0:0:0:0:
260,160,186283,22,0,L|205:80,1,90,8|0,0:0|0:0,0:0:0:0:
40,64,186665,1,2,0:0:0:0:
152,160,186856,2,0,P|160:204|148:256,1,90,8|2,0:0|0:0,0:0:0:0:
40,64,187238,2,0,L|132:72,1,90,8|2,0:0|0:0,0:0:0:0:
232,20,187620,1,8,0:0:0:0:
260,160,187812,1,2,0:0:0:0:
344,28,188003,6,0,P|388:60|404:108,1,90,6|2,0:0|0:0,0:0:0:0:
380,272,188385,1,8,0:0:0:0:
320,108,188576,2,0,P|284:84|232:88,1,90,8|2,0:0|0:0,0:0:0:0:
188,248,188958,1,10,0:0:0:0:
328,196,189149,1,8,0:0:0:0:
156,168,189340,2,0,P|116:192|100:236,1,90,8|0,0:0|0:0,0:0:0:0:
216,328,189722,21,10,0:0:0:0:
240,180,189913,1,8,0:0:0:0:
128,316,190105,1,2,0:0:0:0:
272,260,190296,2,0,P|304:300|304:344,1,90,2|0,0:0|0:0,0:0:0:0:
128,316,190678,1,8,0:0:0:0:
272,260,190869,1,2,0:0:0:0:
156,168,191060,37,6,0:0:0:0:
216,328,191251,1,8,0:3:0:0:
240,180,191442,1,8,0:0:0:0:
316,336,191633,1,8,0:3:0:0:
240,180,191824,1,2,0:0:0:0:
128,316,192015,1,8,0:3:0:0:
156,168,192206,1,8,0:0:0:0:
272,260,192398,1,8,0:3:0:0:
96,236,192589,21,2,0:0:0:0:
200,152,192780,1,8,0:3:0:0:
172,340,192971,1,8,0:0:0:0:
120,148,193162,1,8,0:3:0:0:
272,260,193353,1,2,0:0:0:0:
96,236,193544,1,2,0:0:0:0:
73,234,193640,1,0,0:0:0:0:
50,230,193735,1,8,0:0:0:0:
164,80,193926,1,2,0:0:0:0:
188,256,194117,5,12,0:0:0:0:
120,148,194308,1,2,0:0:0:0:
268,116,194499,1,8,0:0:0:0:
272,260,194691,2,0,P|256:308|216:336,1,90,2|0,0:0|0:0,0:0:0:0:
96,236,195073,1,2,0:0:0:0:
164,80,195264,1,10,0:0:0:0:
232,188,195455,22,0,L|328:196,1,90,6|0,0:0|0:0,0:0:0:0:
448,120,195837,2,0,P|456:72|440:28,1,90,2|0,0:0|0:0,0:0:0:0:
268,116,196219,1,8,0:0:0:0:
404,172,196410,2,0,L|500:164,1,90,8|2,0:0|0:0,0:0:0:0:
300,32,196792,2,0,L|204:40,1,90,8|0,0:0|0:0,0:0:0:0:
48,60,197175,37,12,0:0:0:0:
148,172,197366,1,2,0:0:0:0:
128,16,197557,1,8,0:0:0:0:
60,148,197748,2,0,P|60:200|88:240,1,90,2|0,0:0|0:0,0:0:0:0:
272,228,198130,1,2,0:0:0:0:
148,172,198321,1,10,0:0:0:0:
224,296,198512,22,0,P|300:308|356:216,1,180,6|8,0:0|0:0,0:0:0:0:
356,232,199277,1,2,0:0:0:0:
236,140,199468,1,8,0:0:0:0:
360,104,199659,1,2,0:0:0:0:
376,100,199754,1,0,0:0:0:0:
392,96,199850,1,8,0:0:0:0:
272,228,200041,1,2,0:0:0:0:
416,176,200232,5,12,0:0:0:0:
284,72,200423,1,2,0:0:0:0:
272,228,200614,1,8,0:0:0:0:
148,124,200805,2,0,P|172:76|204:60,1,90,2|0,0:0|0:0,0:0:0:0:
324,156,201187,1,0,0:0:0:0:
176,216,201378,1,10,0:0:0:0:
284,72,201570,22,0,P|332:64|416:168,1,180,6|8,0:0|0:0,0:0:0:0:
416,150,202334,1,2,0:0:0:0:
304,236,202525,1,8,0:0:0:0:
448,232,202716,1,2,0:0:0:0:
324,156,202907,1,10,0:0:0:0:
376,284,203098,1,2,0:0:0:0:
416,150,203289,37,14,0:0:0:0:
304,236,203480,1,2,0:0:0:0:
448,232,203671,1,8,0:0:0:0:
304,316,203863,2,0,P|260:308|228:268,1,90,2|8,0:0|0:0,0:0:0:0:
168,132,204245,1,2,0:0:0:0:
116,256,204436,1,10,0:0:0:0:
344,132,204818,21,14,0:0:0:0:
396,256,205009,1,10,0:0:0:0:
116,256,205391,5,10,0:0:0:0:
343,132,205582,1,10,0:0:0:0:
168,132,205773,1,8,0:0:0:0:
168,132,205869,1,0,0:0:0:0:
168,132,205964,1,8,0:0:0:0:
256,360,206347,21,12,0:0:0:0:
256,192,206587,12,2,208685,0:0:0:0:
