osu file format v12

[General]
AudioFilename: nazo_cut.mp3
AudioLeadIn: 3000
PreviewTime: 70628
Countdown: 0
SampleSet: Normal
StackLeniency: 0.8
Mode: 0
LetterboxInBreaks: 0
WidescreenStoryboard: 0

[Editor]
DistanceSpacing: 1
BeatDivisor: 4
GridSize: 4

[Metadata]
Title:Nazo
TitleUnicode:謎
Artist:Komatsu Miho
ArtistUnicode:小松未歩
Creator:jogfi2002
Version:Insane
Source:Detective Conan
Tags:anime JPop nadesico 名探偵コナン
BeatmapID:244477
BeatmapSetID:90007

[Difficulty]
HPDrainRate:7
CircleSize:4
OverallDifficulty:8
ApproachRate:8
SliderMultiplier:1.92
SliderTickRate:2

[Events]
//Background and Video events
0,0,"bg.jpg",0,0
//Break Periods
//Storyboard Layer 0 (Background)
//Storyboard Layer 1 (Fail)
//Storyboard Layer 2 (Pass)
//Storyboard Layer 3 (Foreground)
//Storyboard Sound Samples
//Background Colour Transformations
3,100,128,128,255

[TimingPoints]
-191,491.803278688525,4,1,1,40,1,0
1776,-100,4,1,1,40,0,0
17513,-100,4,1,1,40,0,1
23415,-100,4,1,1,35,0,1
23907,-100,4,1,1,40,0,1
36694,-100,4,1,1,40,0,0
37186,-100,4,1,1,30,0,0
37431,-100,4,1,1,40,0,0
38169,-100,4,1,1,30,0,0
38415,-100,4,1,1,40,0,0
39890,-100,4,1,1,30,0,0
40628,-100,4,1,1,40,0,0
46284,-100,4,1,1,30,0,0
47268,-100,4,1,1,40,0,0
48989,-100,4,1,1,30,0,0
49481,-100,4,1,1,40,0,0
61530,-100,4,1,1,30,0,0
62022,-100,4,1,1,40,0,0
63743,-100,4,1,1,30,0,0
64235,-100,4,1,1,40,0,0
66694,-100,4,1,1,40,0,0
67186,-100,4,1,1,43,0,0
67678,-100,4,1,1,46,0,0
68169,-100,4,1,1,49,0,0
68661,-100,4,1,1,40,0,0
70628,-100,4,1,1,40,0,1
90300,-100,4,1,1,35,0,1
90792,-100,4,1,1,40,0,1
105546,-100,4,1,1,40,0,0

[Colours]
Combo1 : 248,211,171
Combo2 : 255,128,128
Combo3 : 38,154,217
Combo4 : 187,77,179
Combo5 : 225,0,113

[HitObjects]
144,64,1038,2,0,L|160:112,1,48
112,128,1284,2,0,L|89:173,1,48,0|0,0:0|0:0,0:0:0:0:
208,248,1776,5,12,0:0:0:0:
208,248,2022,1,8,0:0:0:0:
224,344,2268,2,0,P|272:344|312:312,1,96,0|0,0:0|0:0,0:0:0:0:
296,224,2759,2,0,L|381:180,1,96
424,160,3128,1,8,0:0:0:0:
464,136,3251,2,0,P|464:88|432:48,1,96,0|8,0:0|0:0,0:0:0:0:
394,76,3620,1,0,0:0:0:0:
352,104,3743,1,8,0:0:0:0:
272,48,3989,5,8,0:0:0:0:
176,48,4235,2,0,P|129:58|97:98,1,96
184,144,4727,2,0,L|257:205,1,96
292,240,5095,1,8,0:0:0:0:
328,272,5218,2,0,P|298:307|251:318,1,96,0|8,0:0|0:0,0:0:0:0:
208,296,5587,1,0,0:0:0:0:
184,256,5710,2,0,L|88:264,1,96,8|8,0:0|0:0,0:0:0:0:
48,176,6202,6,0,P|13:146|2:99,1,96,8|0,0:0|0:0,0:0:0:0:
88,56,6694,1,8,0:0:0:0:
136,72,6817,1,8,0:0:0:0:
192,152,7063,2,0,L|239:171,1,48
280,184,7309,1,0,0:0:0:0:
320,200,7431,1,8,0:0:0:0:
384,128,7677,6,0,P|419:158|430:205,1,96,0|8,0:0|0:0,0:0:0:0:
504,264,8169,2,0,P|474:299|427:310,1,96,0|8,0:0|0:0,0:0:0:0:
280,320,8661,1,8,0:0:0:0:
280,320,8784,1,8,0:0:0:0:
344,192,9030,1,0,0:0:0:0:
344,192,9153,1,0,0:0:0:0:
344,192,9399,1,8,0:0:0:0:
256,224,9645,5,0,0:0:0:0:
112,224,9890,1,8,0:0:0:0:
256,120,10136,1,0,0:0:0:0:
176,272,10382,1,8,0:0:0:0:
88,120,10628,1,0,0:0:0:0:
256,24,10874,1,0,0:0:0:0:
336,56,11120,6,0,P|371:86|382:133,1,96,8|0,0:0|0:0,0:0:0:0:
472,168,11612,2,0,P|430:192|412:235,1,96,8|0,0:0|0:0,0:0:0:0:
312,232,12104,1,8,0:0:0:0:
328,328,12349,1,0,0:0:0:0:
312,232,12595,1,8,0:0:0:0:
328,328,12841,1,0,0:0:0:0:
240,296,13087,6,0,P|198:278|158:242,1,96,8|0,0:0|0:0,0:0:0:0:
228,182,13579,2,0,P|189:149|148:131,1,96,8|0,0:0|0:0,0:0:0:0:
264,48,14071,5,8,0:0:0:0:
264,48,14317,1,0,0:0:0:0:
408,48,14563,1,8,0:0:0:0:
408,48,14809,1,0,0:0:0:0:
496,160,15054,1,8,0:0:0:0:
496,160,15300,1,0,0:0:0:0:
448,296,15546,2,0,P|421:333|376:349,1,96,8|0,0:0|0:0,0:0:0:0:
312,272,16038,1,8,0:0:0:0:
272,240,16161,1,0,0:0:0:0:
224,232,16284,1,0,0:0:0:0:
184,320,16530,5,8,0:0:0:0:
137,307,16653,1,0,0:0:0:0:
96,282,16776,1,0,0:0:0:0:
62,249,16899,1,0,0:0:0:0:
38,207,17022,1,8,0:0:0:0:
25,161,17145,1,0,0:0:0:0:
24,114,17268,1,0,0:0:0:0:
111,96,17513,5,4,0:0:0:0:
176,24,17759,1,0,0:0:0:0:
224,104,18005,2,0,P|268:121|313:110,1,96,8|0,0:0|0:0,0:0:0:0:
400,64,18497,5,4,0:0:0:0:
416,80,18743,1,0,0:0:0:0:
432,96,18989,1,8,0:0:0:0:
448,112,19235,1,0,0:0:0:0:
464,128,19481,2,0,B|416:168|416:168|400:230|400:230|336:264,1,192,4|8,0:0|0:0,0:0:0:0:
320,168,20218,2,0,B|262:198|262:198|246:260|246:260|198:300,1,192
112,264,20956,1,8,0:0:0:0:
24,216,21202,5,0,0:0:0:0:
28,120,21448,2,0,L|113:75,1,96
148,164,21940,2,0,L|233:119,1,96,8|0,0:0|0:0,0:0:0:0:
244,24,22431,1,0,0:0:0:0:
336,40,22677,1,0,0:0:0:0:
336,40,22800,1,0,0:0:0:0:
336,40,22923,2,0,P|392:72|400:104,1,96,8|0,0:0|0:0,0:0:0:0:
304,136,23415,2,2,L|304:328,1,192,2|10,0:0|0:0,0:0:0:0:
304,328,24399,2,0,L|344:296,4,48,0|0|0|0|8,0:0|0:0|0:0|0:0|0:0,0:0:0:0:
207,328,25136,5,0,0:0:0:0:
207,328,25259,1,0,0:0:0:0:
207,328,25382,2,0,B|206:263|206:263|174:208|174:208|174:143,1,192,4|8,0:0|0:0,0:0:0:0:
272,160,26120,1,2,0:0:0:0:
328,80,26366,1,0,0:0:0:0:
368,168,26612,5,0,0:0:0:0:
432,96,26858,1,8,0:0:0:0:
464,184,27104,1,2,0:0:0:0:
368,168,27349,2,0,L|312:248,1,96
264,246,27718,1,0,0:0:0:0:
215,246,27841,2,0,L|159:326,1,96,8|0,0:0|0:0,0:0:0:0:
64,304,28333,2,0,P|43:261|52:214,1,96
99,191,28702,1,0,0:0:0:0:
144,174,28825,2,0,L|183:86,1,96,10|0,0:0|0:0,0:0:0:0:
248,16,29317,6,0,P|344:32|400:104,1,192,0|8,0:0|0:0,0:0:0:0:
328,160,30054,1,0,0:0:0:0:
256,224,30300,2,0,P|289:256|336:264,1,96
424,232,30792,2,0,L|479:153,2,96,10|0|4,0:0|0:0|0:0,0:0:0:0:
424,232,31530,1,0,0:0:0:0:
424,232,31776,1,8,0:0:0:0:
344,280,32022,5,0,0:0:0:0:
344,280,32145,1,0,0:0:0:0:
344,280,32268,2,0,P|300:282|251:272,1,96
248,224,32636,2,0,L|169:168,1,96
128,144,33005,1,0,0:0:0:0:
128,144,33128,1,0,0:0:0:0:
128,144,33251,2,0,P|104:240|136:328,1,192,0|8,0:0|0:0,0:0:0:0:
134,325,33989,1,0,0:0:0:0:
256,192,34235,12,4,36694,0:0:0:0:
480,88,37186,6,2,P|447:120|400:128,1,96,4|0,0:0|0:0,0:0:0:0:
304,152,37677,1,8,0:0:0:0:
304,152,37923,1,0,0:0:0:0:
208,160,38169,2,2,P|161:168|128:200,1,96
127,200,38661,1,8,0:0:0:0:
208,248,38907,2,0,L|112:80,1,192
112,81,39645,1,8,0:0:0:0:
200,40,39890,2,2,P|245:40|284:68,1,96
296,168,40382,2,2,L|340:253,1,96,2|10,0:0|0:0,0:0:0:0:
480,120,40874,5,0,0:0:0:0:
480,120,40997,1,0,0:0:0:0:
480,120,41120,2,0,P|510:205|486:301,1,192,0|8,0:0|0:0,0:0:0:0:
392,280,41858,1,0,0:0:0:0:
392,184,42104,1,0,0:0:0:0:
392,88,42349,1,0,0:0:0:0:
296,72,42595,2,0,P|248:80|224:120,1,96,8|0,0:0|0:0,0:0:0:0:
200,160,42964,1,0,0:0:0:0:
184,208,43087,2,0,L|320:344,2,192,0|8|0,0:0|0:0|0:0,0:0:0:0:
88,224,44317,6,0,P|88:179|116:140,1,96,0|8,0:0|0:0,0:0:0:0:
184,208,44809,1,0,0:0:0:0:
208,112,45054,2,0,L|384:32,2,192,4|8|0,0:0|0:0|0:0,0:0:0:0:
288,168,46284,2,2,P|347:235|360:334,1,192
272,296,47022,2,2,P|232:266|187:266,1,96
200,360,47513,2,2,P|155:360|115:330,1,96,8|0,0:0|0:0,0:0:0:0:
64,248,48005,1,0,0:0:0:0:
160,232,48251,2,0,P|189:192|189:147,1,96,0|8,0:0|0:0,0:0:0:0:
96,168,48743,1,0,0:0:0:0:
96,72,48989,2,2,P|184:32|277:79,1,192,8|0,0:0|0:0,0:0:0:0:
266,67,49727,1,0,0:0:0:0:
266,67,49972,1,8,0:0:0:0:
232,160,50218,5,0,0:0:0:0:
376,192,50464,1,8,0:0:0:0:
248,260,50710,1,0,0:0:0:0:
336,296,50956,2,0,L|304:336,2,48
384,304,51325,1,0,0:0:0:0:
432,312,51448,1,8,0:0:0:0:
408,216,51694,2,0,P|468:137|474:47,1,192,0|0,0:0|0:0,0:0:0:0:
474,47,52431,1,8,0:0:0:0:
474,47,52677,1,0,0:0:0:0:
384,80,52923,6,0,L|296:120,1,96,4|0,0:0|0:0,0:0:0:0:
249,35,53415,2,0,L|161:75,1,96,8|0,0:0|0:0,0:0:0:0:
208,160,53907,2,0,L|120:200,2,96,0|0|8,0:0|0:0|0:0,0:0:0:0:
120,200,54645,2,0,P|198:260|288:266,1,192
288,266,55382,2,0,L|376:224,1,96,8|0,0:0|0:0,0:0:0:0:
416,136,55874,2,0,L|368:136,1,48
348,92,56120,2,0,L|300:92,1,48
252,92,56366,1,8,0:0:0:0:
176,32,56612,5,0,0:0:0:0:
176,32,56735,1,0,0:0:0:0:
176,32,56858,2,0,P|131:53|110:93,1,96,0|0,0:0|0:0,0:0:0:0:
200,128,57349,2,0,P|193:217|133:296,1,192,8|0,0:0|0:0,0:0:0:0:
128,200,58087,2,0,L|296:293,1,192
392,293,58825,5,0,0:0:0:0:
472,248,59071,1,0,0:0:0:0:
392,293,59317,1,8,0:0:0:0:
392,192,59563,1,0,0:0:0:0:
392,293,59809,1,0,0:0:0:0:
308,248,60054,1,0,0:0:0:0:
308,152,60300,1,8,0:0:0:0:
324,56,60546,6,0,L|276:44,1,48
256,88,60792,2,0,P|210:94|157:83,1,96,4|0,0:0|0:0,0:0:0:0:
128,48,61161,2,0,P|78:39|33:45,1,96
32,96,61530,2,2,L|104:280,1,192
101,274,62268,1,8,0:0:0:0:
192,304,62513,5,0,0:0:0:0:
192,304,62759,2,0,P|237:323|281:313,1,96,0|0,0:0|0:0,0:0:0:0:
293,267,63128,2,0,P|334:247|387:242,1,96
409,202,63497,2,0,L|431:159,1,48
424,112,63743,2,2,P|357:38|270:14,1,192,2|10,0:0|0:0,0:0:0:0:
232,104,64481,5,0,0:0:0:0:
232,104,64727,2,0,P|216:146|182:188,1,96
88,80,65218,1,8,0:0:0:0:
48,216,65464,1,0,0:0:0:0:
32,360,65710,2,0,P|80:353|122:334,1,96
224,232,66202,1,8,0:0:0:0:
304,352,66448,1,0,0:0:0:0:
328,256,66694,6,0,L|376:256,2,48
400,128,67186,6,0,L|433:94,2,48,8|0|0,0:0|0:0|0:0,0:0:0:0:
264,72,67677,6,0,L|264:24,2,48
112,80,68169,6,0,L|78:46,2,48,8|0|0,0:0|0:0|0:0,0:0:0:0:
256,192,68661,12,0,70136,0:0:0:0:
72,320,70628,5,4,0:0:0:0:
72,320,70874,1,0,0:0:0:0:
72,320,71120,2,0,P|117:301|141:263,1,96,8|0,0:0|0:0,0:0:0:0:
136,216,71489,2,0,P|159:177|205:159,1,96,0|4,0:0|0:0,0:0:0:0:
240,192,71858,2,0,L|288:192,1,48
328,216,72104,2,0,P|373:197|397:159,1,96,8|0,0:0|0:0,0:0:0:0:
312,112,72595,2,0,L|376:40,2,96,2|8|0,0:0|0:0|0:0,0:0:0:0:
240,48,73333,2,2,L|48:48,1,192,2|0,0:0|0:0,0:0:0:0:
48,48,74071,1,8,0:0:0:0:
216,144,74317,5,0,0:0:0:0:
216,144,74563,2,0,L|192:192,2,48,4|0|0,0:0|0:0|0:0,0:0:0:0:
216,144,75054,2,0,B|281:145|281:145|336:177|336:177|401:177,1,192,8|0,0:0|0:0,0:0:0:0:
400,272,75792,1,0,0:0:0:0:
400,272,75915,1,0,0:0:0:0:
400,272,76038,1,8,0:0:0:0:
400,272,76284,1,0,0:0:0:0:
400,272,76530,2,0,L|304:272,1,96
256,352,77022,2,0,L|448:352,2,192,8|4|8,0:0|0:0|0:0,0:0:0:0:
168,304,78251,5,0,0:0:0:0:
168,304,78374,1,0,0:0:0:0:
168,304,78497,2,0,P|129:280|111:234,1,96,4|0,0:0|0:0,0:0:0:0:
200,192,78989,2,0,P|181:146|143:122,1,96,8|0,0:0|0:0,0:0:0:0:
56,160,79481,1,0,0:0:0:0:
72,64,79727,2,0,P|106:35|156:33,2,96,0|8|0,0:0|0:0|0:0,0:0:0:0:
144,128,80464,6,0,L|241:134,1,96,0|0,0:0|0:0,0:0:0:0:
272,96,80833,2,0,L|368:101,1,96
408,128,81202,1,0,0:0:0:0:
448,160,81325,1,0,0:0:0:0:
480,192,81448,2,0,P|475:236|442:273,1,96,8|0,0:0|0:0,0:0:0:0:
408,240,81817,2,0,L|327:293,1,96
288,312,82186,1,0,0:0:0:0:
248,336,82309,1,0,0:0:0:0:
200,336,82431,6,0,L|105:316,1,96,4|0,0:0|0:0,0:0:0:0:
96,272,82800,2,0,L|80:224,1,48,0|8,0:0|0:0,0:0:0:0:
64,184,83046,1,0,0:0:0:0:
56,136,83169,2,0,L|88:96,1,48
128,128,83415,2,0,L|264:72,2,144,8|0|0,0:0|0:0|0:0,0:0:0:0:
160,160,84276,1,0,0:0:0:0:
200,192,84399,2,0,B|264:168|264:168|328:216,1,144,12|0,0:0|0:0,0:0:0:0:
324,213,84890,1,8,0:0:0:0:
232,48,85136,5,0,0:0:0:0:
232,48,85259,1,0,0:0:0:0:
232,48,85382,6,0,L|240:96,1,48,2|0,0:0|0:0,0:0:0:0:
72,256,85751,6,0,L|120:248,1,48,2|0,0:0|0:0,0:0:0:0:
355,310,86120,6,0,L|312:288,1,48,2|0,0:0|0:0,0:0:0:0:
432,256,86366,5,4,0:0:0:0:
400,64,86612,1,0,0:0:0:0:
328,184,86858,1,8,0:0:0:0:
248,64,87104,1,0,0:0:0:0:
216,256,87349,1,8,0:0:0:0:
128,144,87595,1,0,0:0:0:0:
216,256,87841,1,8,0:0:0:0:
312,88,88087,1,0,0:0:0:0:
128,32,88333,6,0,P|84:55|64:95,1,96,4|0,0:0|0:0,0:0:0:0:
104,128,88702,2,0,L|113:224,1,96
160,232,89071,2,0,P|256:240|312:320,1,192,0|0,0:0|0:0,0:0:0:0:
310,311,89809,1,8,0:0:0:0:
400,344,90054,6,0,L|413:294,1,48
432,248,90300,2,2,B|447:184|447:184|411:131|411:131|412:69,1,192,4|8,0:0|0:0,0:0:0:0:
320,32,91038,2,0,P|271:40|239:72,1,96,0|0,0:0|0:0,0:0:0:0:
320,128,91530,5,0,0:0:0:0:
320,128,91653,1,0,0:0:0:0:
320,128,91776,1,8,0:0:0:0:
268,208,92022,1,0,0:0:0:0:
176,184,92268,2,0,P|131:184|90:156,1,96,0|0,0:0|0:0,0:0:0:0:
52,128,92636,1,0,0:0:0:0:
20,92,92759,2,0,P|46:187|115:246,1,192,8|0,0:0|0:0,0:0:0:0:
80,336,93497,2,0,L|184:336,1,96,0|8,0:0|0:0,0:0:0:0:
256,280,93989,6,0,L|280:232,1,48
256,280,94235,2,0,L|448:280,1,192,4|8,0:0|0:0,0:0:0:0:
472,184,94972,2,0,L|376:184,1,96
279,184,95464,1,0,0:0:0:0:
184,184,95710,2,0,P|88:176|32:96,1,192,8|0,0:0|0:0,0:0:0:0:
120,56,96448,2,0,L|216:96,1,96,0|8,0:0|0:0,0:0:0:0:
296,128,96940,2,0,L|344:104,1,48,0|0,0:0|0:0,0:0:0:0:
352,56,97186,2,0,P|416:40|464:96,1,144,0|0,0:0|0:0,0:0:0:0:
432,128,97677,6,0,L|400:320,1,192,8|4,0:0|0:0,0:0:0:0:
360,296,98292,1,0,0:0:0:0:
328,256,98415,1,0,0:0:0:0:
312,208,98538,2,0,P|263:216|231:248,1,96,0|0,0:0|0:0,0:0:0:0:
248,296,98907,2,0,P|160:336|64:336,1,192,0|0,0:0|0:0,0:0:0:0:
96,248,99645,6,0,L|48:160,1,96,8|0,0:0|0:0,0:0:0:0:
144,136,100136,2,8,L|96:48,2,96,8|0|8,0:0|0:0|0:0,0:0:0:0:
224,192,100874,5,0,0:0:0:0:
224,192,100997,1,0,0:0:0:0:
224,192,101120,2,0,P|272:200|320:192,1,96,8|0,0:0|0:0,0:0:0:0:
344,152,101489,1,0,0:0:0:0:
368,112,101612,2,0,P|414:104|462:112,1,96,8|0,0:0|0:0,0:0:0:0:
462,112,101981,1,0,0:0:0:0:
462,112,102104,2,0,L|456:208,3,96,4|0|8|0,0:0|0:0|0:0|0:0,0:0:0:0:
256,192,103087,12,4,105546,0:0:0:0:
