osu file format v12

[General]
AudioFilename: nazo_cut.mp3
AudioLeadIn: 3000
PreviewTime: 70628
Countdown: 0
SampleSet: Normal
StackLeniency: 0.8
Mode: 0
LetterboxInBreaks: 0
WidescreenStoryboard: 0

[Editor]
DistanceSpacing: 1
BeatDivisor: 4
GridSize: 4

[Metadata]
Title:Nazo
TitleUnicode:謎
Artist:Komatsu Miho
ArtistUnicode:小松未歩
Creator:jogfi2002
Version:Easy
Source:Detective Conan
Tags:anime JPop nadesico 名探偵コナン
BeatmapID:272561
BeatmapSetID:90007

[Difficulty]
HPDrainRate:2
CircleSize:2
OverallDifficulty:2
ApproachRate:2
SliderMultiplier:1.28
SliderTickRate:2

[Events]
//Background and Video events
0,0,"bg.jpg",0,0
//Break Periods
//Storyboard Layer 0 (Background)
//Storyboard Layer 1 (Fail)
//Storyboard Layer 2 (Pass)
//Storyboard Layer 3 (Foreground)
//Storyboard Sound Samples
//Background Colour Transformations
3,100,128,128,255

[TimingPoints]
-191,491.803278688525,4,1,0,40,1,0
1776,-100,4,1,0,40,0,0
17513,-100,4,1,0,40,0,1
23415,-100,4,1,0,35,0,1
23907,-100,4,1,0,40,0,1
36694,-100,4,1,0,40,0,0
70628,-100,4,1,0,40,0,1
76530,-100,4,1,0,35,0,1
77022,-100,4,1,0,40,0,1
105546,-100,4,1,0,40,0,0

[Colours]
Combo1 : 248,211,171
Combo2 : 255,128,128
Combo3 : 38,154,217
Combo4 : 187,77,179
Combo5 : 225,0,113

[HitObjects]
152,68,1776,1,4,0:0:0:0:
200,188,2268,1,8,0:0:0:0:
288,92,2759,1,0,0:0:0:0:
348,204,3251,1,8,0:0:0:0:
416,96,3743,5,4,0:0:0:0:
288,92,4235,2,0,P|220:47|148:56,1,128,8|0,0:0|0:0,0:0:0:0:
192,176,5218,6,0,L|291:300,1,128,8|0,0:0|0:0,0:0:0:0:
388,332,6202,2,0,P|399:247|368:182,1,128,8|0,0:0|0:0,0:0:0:0:
336,92,7186,1,8,0:0:0:0:
248,188,7677,5,0,0:0:0:0:
200,308,8169,2,0,P|142:264|121:173,1,128,8|0,0:0|0:0,0:0:0:0:
204,116,9153,1,8,0:0:0:0:
312,48,9645,6,0,L|392:80,1,64,4|0,0:0|0:0,0:0:0:0:
432,96,10136,2,0,P|448:166|420:246,1,128,8|0,0:0|0:0,0:0:0:0:
324,280,11120,1,8,0:0:0:0:
208,224,11612,6,0,P|88:164|128:28,1,256,8|0,0:0|0:0,0:0:0:0:
220,100,13087,1,8,0:0:0:0:
348,96,13579,1,0,0:0:0:0:
284,208,14071,5,8,0:0:0:0:
268,336,14563,1,0,0:0:0:0:
156,272,15054,1,8,0:0:0:0:
256,192,15546,12,0,17022,0:0:0:0:
308,84,17513,5,4,0:0:0:0:
416,152,18005,2,0,P|424:232|368:300,1,128,8|0,0:0|0:0,0:0:0:0:
276,264,18989,1,8,0:0:0:0:
228,144,19481,6,0,L|36:144,2,192
268,20,21448,6,0,B|363:23|408:132|364:231|272:244,1,256,0|0,0:0|0:0,0:0:0:0:
236,136,22923,1,8,0:0:0:0:
164,240,23415,2,2,P|175:315|237:366,1,128,2|10,0:0|0:0,0:0:0:0:
292,252,24399,2,0,L|452:252,1,128,0|8,0:0|0:0,0:0:0:0:
444,128,25382,5,0,0:0:0:0:
340,52,25874,2,0,L|180:52,1,128,8|0,0:0|0:0,0:0:0:0:
116,136,26858,6,0,P|127:211|189:262,1,128,8|0,0:0|0:0,0:0:0:0:
268,176,27841,1,8,0:0:0:0:
376,108,28333,2,0,P|438:159|449:234,2,128,0|8|0,0:0|0:0|0:0,0:0:0:0:
280,24,29809,2,0,L|140:124,1,128,8|0,0:0|0:0,0:0:0:0:
172,228,30792,6,0,L|108:296,2,64,8|0|0,0:0|0:0|0:0,0:0:0:0:
274,149,31776,5,8,0:0:0:0:
313,25,32268,1,0,0:0:0:0:
441,26,32759,1,8,0:0:0:0:
408,152,33251,2,0,L|408:280,1,128
256,192,34235,12,4,36694,0:0:0:0:
120,76,37186,5,4,0:0:0:0:
148,200,37677,1,8,0:0:0:0:
272,228,38169,1,0,0:0:0:0:
256,100,38661,6,0,P|324:56|404:56,1,128,8|0,0:0|0:0,0:0:0:0:
360,180,39645,2,0,P|404:248|404:328,1,128,8|0,0:0|0:0,0:0:0:0:
284,280,40628,1,8,0:0:0:0:
212,176,41120,6,0,L|44:176,2,128,0|8|0,0:0|0:0|0:0,0:0:0:0:
308,88,42595,1,8,0:0:0:0:
408,167,43087,2,0,L|408:335,2,128,0|8|0,0:0|0:0|0:0,0:0:0:0:
284,196,44563,6,0,P|204:232|180:312,1,128,8|0,0:0|0:0,0:0:0:0:
92,176,45546,2,0,P|20:125|12:42,1,128,8|0,0:0|0:0,0:0:0:0:
132,60,46530,2,0,P|214:28|287:68,1,128,8|0,0:0|0:0,0:0:0:0:
328,136,47513,5,8,0:0:0:0:
328,264,48005,1,0,0:0:0:0:
200,264,48497,1,8,0:0:0:0:
200,136,48989,2,0,L|123:59,2,64,0|0|8,0:0|0:0|0:0,0:0:0:0:
324,100,49972,6,0,P|396:132|436:196,1,128,0|8,0:0|0:0,0:0:0:0:
380,288,50956,1,0,0:0:0:0:
268,228,51448,2,0,P|215:203|116:211,1,128,8|0,0:0|0:0,0:0:0:0:
80,92,52431,6,0,L|156:60,2,64,8|0|0,0:0|0:0|0:0,0:0:0:0:
160,192,53415,2,0,P|240:192|300:248,1,128,8|0,0:0|0:0,0:0:0:0:
196,316,54399,2,0,P|255:362|335:358,1,128,8|0,0:0|0:0,0:0:0:0:
396,276,55382,2,0,L|440:124,1,128,8|0,0:0|0:0,0:0:0:0:
328,76,56366,5,8,0:0:0:0:
292,200,56858,2,0,P|218:222|177:291,1,128,0|8,0:0|0:0,0:0:0:0:
68,216,57841,2,0,P|32:128|36:52,2,128,0|8|0,0:0|0:0|0:0,0:0:0:0:
156,124,59317,2,0,L|312:81,1,128,8|0,0:0|0:0,0:0:0:0:
404,68,60300,1,8,0:0:0:0:
376,192,60792,6,0,L|448:252,2,64,0|0|8,0:0|0:0|0:0,0:0:0:0:
252,224,61776,2,0,P|224:304|152:344,1,128,0|8,0:0|0:0,0:0:0:0:
128,220,62759,1,0,0:0:0:0:
180,112,63251,1,8,0:0:0:0:
308,112,63743,2,0,L|384:52,2,64,0|0|8,0:0|0:0|0:0,0:0:0:0:
280,236,64727,6,0,B|356:308|452:320|448:320,2,128,0|8|0,0:0|0:0|0:0,0:0:0:0:
188,148,66202,1,8,0:0:0:0:
256,192,66694,12,0,68169,0:0:0:0:
256,192,68661,12,0,70136,0:0:0:0:
172,128,70628,6,0,L|100:72,2,64,4|0|8,0:0|0:0|0:0,0:0:0:0:
68,204,71612,2,0,P|112:288|188:320,1,128,4|8,0:0|0:0,0:0:0:0:
240,228,72595,1,4,0:0:0:0:
320,128,73087,2,0,P|375:156|419:240,2,128,8|0|8,0:0|0:0|0:0,0:0:0:0:
191,116,74563,6,0,P|111:144|63:216,1,128,4|8,0:0|0:0,0:0:0:0:
188,244,75546,1,0,0:0:0:0:
292,316,76038,1,8,0:0:0:0:
396,244,76530,2,2,L|396:116,1,128,2|10,0:0|0:0,0:0:0:0:
72,324,78497,6,0,P|68:236|112:172,1,128,4|8,0:0|0:0,0:0:0:0:
200,256,79481,2,0,P|231:207|235:107,1,128,0|8,0:0|0:0,0:0:0:0:
136,64,80464,2,0,L|59:18,2,64,0|0|8,0:0|0:0|0:0,0:0:0:0:
264,68,81448,6,0,L|376:128,1,128,0|8,0:0|0:0,0:0:0:0:
368,256,82431,2,0,L|256:196,1,128,0|8,0:0|0:0,0:0:0:0:
142,133,83415,2,0,L|30:73,2,128,0|8|0,0:0|0:0|0:0,0:0:0:0:
356,96,86366,5,4,0:0:0:0:
356,224,86858,1,8,0:0:0:0:
227,224,87349,2,0,L|144:292,2,64,4|0|8,0:0|0:0|0:0,0:0:0:0:
288,112,88333,6,0,P|188:68|93:114,2,192,4|8|0,0:0|0:0|0:0,0:0:0:0:
288,240,90300,2,2,B|392:240|392:240|424:92,1,256
291,89,91776,5,8,0:0:0:0:
162,89,92268,2,0,L|57:89,2,64,0|0|8,0:0|0:0|0:0,0:0:0:0:
456,336,94235,6,0,P|464:256|428:204,1,128,4|8,0:0|0:0,0:0:0:0:
336,288,95218,1,0,0:0:0:0:
276,176,95710,1,8,0:0:0:0:
308,52,96202,2,0,P|156:96|148:172,1,256
272,172,97677,6,0,L|390:290,1,128,8|0,0:0|0:0,0:0:0:0:
464,184,98661,2,0,L|345:65,1,128,8|0,0:0|0:0,0:0:0:0:
248,60,99645,2,0,L|152:60,2,64,8|0|4,0:0|0:0|0:0,0:0:0:0:
224,184,100628,1,8,0:0:0:0:
224,312,101120,6,0,L|384:312,1,128,4|8,0:0|0:0,0:0:0:0:
384,183,102104,2,0,L|250:183,1,128,4|8,0:0|0:0,0:0:0:0:
256,192,103087,12,4,105546,0:0:0:0:
