osu file format v13

[General]
AudioFilename: 16 Knigsaura.mp3
AudioLeadIn: 0
PreviewTime: 155072
Countdown: 0
SampleSet: Normal
StackLeniency: 0.7
Mode: 0
LetterboxInBreaks: 1
WidescreenStoryboard: 0

[Editor]
Bookmarks: 15152,427975
DistanceSpacing: 0.5
BeatDivisor: 4
GridSize: 4
TimelineZoom: 1.7

[Metadata]
Title:Koenigsaura
TitleUnicode:Königsaura
Artist:Kollegah
ArtistUnicode:Kollegah
Creator:HouseForever
Version:Insane
Source:
Tags:King Boss Bosshaft König Deutschland Germany Marathon
BeatmapID:479714
BeatmapSetID:202845

[Difficulty]
HPDrainRate:7
CircleSize:4
OverallDifficulty:7
ApproachRate:9
SliderMultiplier:1.8
SliderTickRate:2

[Events]
//Background and Video events
0,0,"Kollegah King.jpg",0,0
//Break Periods
2,73981,77052
2,134626,144149
2,217207,221568
2,258497,268020
//Storyboard Layer 0 (Background)
//Storyboard Layer 1 (Fail)
//Storyboard Layer 2 (Pass)
//Storyboard Layer 3 (Foreground)
//Storyboard Sound Samples
//Background Colour Transformations
3,100,163,162,255

[TimingPoints]
10556,322.58064516129,4,1,1,100,1,0
10717,-100,4,3,1,100,0,0
10878,-100,4,1,1,100,0,0
22894,-100,4,1,1,84,0,0
23539,-100,4,1,1,100,0,0
26362,-100,4,3,1,100,0,0
27652,-100,4,1,1,100,0,0
31201,-100,4,1,1,60,0,0
35394,-74.0740740740741,4,1,1,60,0,0
36201,-100,4,1,1,60,0,0
184104,-80,4,1,1,60,0,0
186039,-100,4,1,1,60,0,0
206201,-100,4,3,1,60,0,0
206281,-100,4,1,1,60,0,0
206523,-100,4,2,1,60,0,0
206765,-100,4,1,1,60,0,0
211846,-133.333333333333,4,1,1,60,0,0
212168,-133.333333333333,4,2,1,60,0,0
212330,-133.333333333333,4,1,1,60,0,0
212491,-133.333333333333,4,2,1,60,0,0
212652,-133.333333333333,4,1,1,60,0,0
212814,-133.333333333333,4,3,1,60,0,0
212975,-133.333333333333,4,2,1,60,0,0
213136,-133.333333333333,4,1,1,60,0,0
213459,-133.333333333333,4,2,1,60,0,0
213620,-133.333333333333,4,1,1,60,0,0
213781,-133.333333333333,4,2,1,60,0,0
213943,-133.333333333333,4,1,1,60,0,0
214104,-133.333333333333,4,3,1,60,0,0
214265,-133.333333333333,4,1,1,60,0,0
215717,-100,4,1,1,60,0,0
251362,-100,4,3,1,60,0,0
251362,-100,4,3,1,60,0,0
251523,-100,4,2,1,60,0,0
251604,-100,4,1,1,60,0,0
255878,-100,4,2,1,60,0,0
256362,-100,4,1,1,60,0,0
257168,-100,4,2,1,60,0,0
257249,-100,4,1,1,60,0,0
303136,-100,4,2,1,60,0,0
303217,-100,4,1,1,60,0,0
307652,-100,4,2,1,60,0,0
307652,-100,4,2,1,60,0,0
307733,-100,4,1,1,60,0,0
316685,-100,4,2,1,60,0,0
317007,-100,4,1,1,60,0,0
317975,-100,4,2,1,60,0,0
318297,-100,4,1,1,60,0,0
319265,-100,4,2,1,60,0,0
319588,-100,4,1,1,60,0,0
320233,-117.647058823529,4,1,1,60,0,0
320555,-117.647058823529,4,2,1,60,0,0
320636,-117.647058823529,4,1,1,60,0,0
326039,-117.647058823529,4,2,1,100,0,0
326120,-117.647058823529,4,1,1,60,0,0
326685,-117.647058823529,4,2,1,60,0,0
326765,-117.647058823529,4,1,1,60,0,0
327330,-117.647058823529,4,2,1,100,0,0
327410,-117.647058823529,4,1,1,60,0,0
329426,-117.647058823529,4,3,1,60,0,0
329507,-117.647058823529,4,2,1,60,0,0
329910,-100,4,1,1,60,0,0
332330,-83.3333333333333,4,1,1,60,0,0
332652,-100,4,1,1,60,0,0
379588,-76.9230769230769,4,1,1,60,0,0
379910,-100,4,1,1,60,0,0
424104,-100,4,2,1,60,0,0
424144,-100,4,1,1,60,0,0
424749,-100,4,3,1,60,0,0
424789,-100,4,1,1,60,0,0
425394,-100,4,2,1,60,0,0
425435,-100,4,1,1,60,0,0
428943,-100,4,2,1,60,0,0
429023,-100,4,1,1,60,0,0
429265,-100,4,3,1,60,0,0
429346,-100,4,1,1,60,0,0
429588,-100,4,2,1,60,0,0
429830,-100,4,3,1,60,0,0
429991,-100,4,1,1,60,0,0
430233,-100,4,2,1,60,0,0
430314,-100,4,1,1,60,0,0
430555,-100,4,3,1,60,0,0
430636,-100,4,1,1,60,0,0
431523,-100,4,2,1,60,0,0
431604,-100,4,1,1,60,0,0
431846,-100,4,3,1,60,0,0
431926,-100,4,1,1,60,0,0
432168,-100,4,2,1,60,0,0
432410,-100,4,3,1,60,0,0
432572,-100,4,1,1,60,0,0
432814,-100,4,2,1,60,0,0
432894,-100,4,1,1,60,0,0
433136,-100,4,3,1,60,0,0
433217,-100,4,1,1,60,0,0
434426,-100,4,2,1,60,0,0
434991,-100,4,1,1,60,0,0
435233,-100,4,2,1,60,0,0
435475,-100,4,1,1,60,0,0
435717,-100,4,2,1,60,0,0
438943,-100,4,1,1,60,0,0
439588,-100,4,2,1,60,0,0
439668,-100,4,1,1,60,0,0
440072,-100,4,2,1,60,0,0
440152,-100,4,1,1,60,0,0
440717,-100,4,2,1,60,0,0
440797,-100,4,1,1,60,0,0
441039,-100,4,2,1,60,0,0
443459,-100,4,1,1,60,0,0

[Colours]
Combo1 : 124,68,142
Combo2 : 68,94,142
Combo3 : 192,26,26
Combo4 : 68,142,70
Combo5 : 68,124,142

[HitObjects]
88,320,10555,6,0,B|136:244|136:244|184:264|212:216,1,180,12|8,0:0|0:0,0:0:0:0:
336,64,11201,2,2,L|384:144,1,90,2|2,0:0|0:0,0:0:0:0:
176,64,11523,2,0,L|128:144,1,90,8|2,0:0|0:0,0:0:0:0:
256,256,12007,5,0,0:0:0:0:
256,136,12168,1,10,0:0:0:0:
416,328,12491,1,2,0:0:0:0:
424,168,12652,1,2,0:0:0:0:
424,168,12733,1,2,0:0:0:0:
424,168,12814,2,0,P|384:184|336:192,1,90,8|2,0:0|0:0,0:0:0:0:
88,216,13136,6,0,P|128:200|176:192,2,90,12|0|8,0:0|1:0|0:0,0:0:0:0:
104,280,13781,5,2,0:0:0:0:
200,328,13943,1,2,0:0:0:0:
312,328,14104,1,8,0:0:0:0:
408,280,14265,1,2,0:0:0:0:
408,280,14346,1,2,0:0:0:0:
408,280,14426,5,14,0:0:0:0:
192,192,14749,1,12,0:0:0:0:
462,95,15072,5,0,0:0:0:0:
442,80,15152,1,0,0:0:0:0:
419,68,15233,1,0,0:0:0:0:
394,62,15313,1,0,0:0:0:0:
368,62,15394,5,8,0:0:0:0:
344,69,15475,1,0,0:0:0:0:
320,80,15555,1,0,0:0:0:0:
299,95,15636,1,0,0:0:0:0:
280,112,15717,6,0,B|200:180|116:112,1,180,12|8,0:0|0:0,0:0:0:0:
88,312,16362,2,0,L|160:256,1,90,2|2,0:0|0:0,0:0:0:0:
240,224,16685,2,8,P|264:224|280:248,2,45,8|0|2,0:0|0:0|0:0,0:0:0:0:
336,348,17168,6,0,L|380:348,1,45,0|0,0:0|0:0,0:0:0:0:
424,312,17330,2,0,L|408:224,1,90,8|2,0:0|0:0,0:0:0:0:
368,64,17652,2,2,L|408:88,1,45,10|10,0:0|0:0,0:0:0:0:
280,108,17814,2,2,L|332:76,1,45,10|10,0:0|0:0,0:0:0:0:
232,136,17975,2,2,L|180:168,1,45,10|10,0:0|0:0,0:0:0:0:
144,136,18136,2,2,L|104:112,1,45,10|10,0:0|0:0,0:0:0:0:
88,184,18297,6,0,B|64:272|64:272|112:296|96:360,1,180,12|8,0:0|0:0,0:0:0:0:
256,52,18943,5,8,0:0:0:0:
400,304,19158,1,8,0:0:0:0:
112,304,19373,1,8,0:0:0:0:
368,136,19588,6,12,L|260:200,1,120,12|12,0:0|0:0,0:0:0:0:
144,136,20018,6,12,L|252:200,1,120,12|14,0:0|0:0,0:0:0:0:
256,328,20448,6,12,L|256:200,1,120,12|12,0:0|0:0,0:0:0:0:
256,128,20878,6,2,B|252:136|252:136|260:144|260:144|252:152|252:152|260:160|260:160|252:168|252:168|260:176|260:176|252:184|252:184|260:192|260:192|252:200|252:200|260:208|260:208|252:216|252:216|260:224|260:224|252:232|252:232|260:240|260:240|252:248|252:248|256:256|256:256|256:260,1,180,12|8,0:0|0:0,0:0:0:0:
256,36,21523,1,8,0:0:0:0:
152,272,21846,1,8,0:0:0:0:
360,272,22007,1,10,0:0:0:0:
412,180,22330,6,0,L|348:112,3,90,8|8|0|8,0:0|0:0|0:0|0:0,0:0:0:0:
324,128,22894,1,10,0:0:0:0:
300,136,22975,1,10,0:0:0:0:
272,140,23055,1,10,0:0:0:0:
244,140,23136,1,10,0:0:0:0:
216,136,23217,1,10,0:0:0:0:
192,128,23297,1,10,0:0:0:0:
172,112,23378,1,10,0:0:0:0:
172,112,23459,6,0,L|88:272,2,180,14|8|8,0:0|0:0|0:0,0:0:0:0:
344,112,24426,2,0,L|400:208,1,90,8|2,0:0|0:0,0:0:0:0:
356,292,24749,2,0,L|300:196,2,90,8|2|8,0:0|0:0|0:0,0:0:0:0:
140,260,25394,1,12,0:0:0:0:
56,120,25636,1,8,0:0:0:0:
56,120,25717,1,8,0:0:0:0:
140,52,25878,1,0,0:0:0:0:
256,40,26039,6,2,P|372:288|112:148,1,720,12|12,0:0|0:0,0:0:0:0:
256,192,28620,5,12,0:0:0:0:
256,192,29910,12,14,30555,0:0:0:0:
176,96,31201,6,0,L|108:160,1,90,12|0,0:0|0:0,0:0:0:0:
336,96,31523,2,0,L|404:160,1,90,8|0,0:0|0:0,0:0:0:0:
144,280,31846,1,0,0:0:0:0:
368,280,32007,1,8,0:0:0:0:
320,184,32330,6,0,B|272:160|256:120|256:120|240:160|192:184,1,180,8|0,0:0|0:0,0:0:0:0:
128,264,32814,2,0,B|124:316|164:344,1,90,8|0,0:0|0:0,0:0:0:0:
349,342,33136,2,0,B|388:316|384:264,1,90,8|8,0:0|0:0,0:0:0:0:
256,88,33620,2,0,L|256:40,2,45,8|8|12,0:0|0:0|0:0,0:0:0:0:
336,192,33943,5,0,0:0:0:0:
176,160,34104,1,8,0:0:0:0:
80,352,34426,1,8,0:0:0:0:
192,328,34588,1,8,0:0:0:0:
320,328,34749,1,8,0:0:0:0:
416,288,34910,6,0,P|456:216|400:128,1,180,0|0,0:0|0:0,0:0:0:0:
288,80,35394,2,0,L|288:16,1,60.7500002317429,10|10,0:0|0:0,0:0:0:0:
224,72,35555,2,2,L|224:132,1,60.7500002317429,8|8,0:0|0:0,0:0:0:0:
160,80,35717,2,2,L|160:16,1,60.7500002317429,8|8,2:0|0:0,0:0:0:0:
96,72,35878,2,2,L|96:132,1,60.7500002317429,8|8,2:0|0:0,0:0:0:0:
32,80,36039,2,2,L|32:16,1,60.7500002317429,8|8,0:0|0:0,0:0:0:0:
40,168,36201,6,2,B|40:232|96:288|168:288,1,180,12|0,0:0|0:0,0:0:0:0:
224,200,36685,2,0,P|264:176|296:200,1,90,8|0,0:0|0:0,0:0:0:0:
352,328,37007,1,0,0:0:0:0:
416,240,37168,1,0,0:0:0:0:
416,232,37330,1,8,0:0:0:0:
416,224,37491,1,0,0:0:0:0:
416,216,37652,6,0,P|400:128|304:104,1,180,0|8,0:0|0:0,0:0:0:0:
224,56,38136,1,0,0:0:0:0:
96,152,38297,2,0,P|88:192|96:240,1,90,0|0,0:0|0:0,0:0:0:0:
416,232,38620,2,0,P|424:192|416:144,1,90,8|0,0:0|0:0,0:0:0:0:
336,96,38943,5,12,0:0:0:0:
256,272,39104,1,0,0:0:0:0:
176,96,39265,1,8,0:0:0:0:
160,256,39426,2,0,P|184:214|216:188,1,90,0|0,0:0|0:0,0:0:0:0:
352,256,39749,2,0,P|327:214|295:188,1,90,0|8,0:0|0:0,0:0:0:0:
248,124,40072,6,2,B|288:108|288:108|296:56|336:40|376:36|408:68,1,180,12|0,0:0|0:0,0:0:0:0:
427,169,40555,2,0,P|385:155|360:120,1,90,8|0,0:0|0:0,0:0:0:0:
432,96,40878,2,0,P|464:104|504:160,1,90,12|0,0:0|0:0,0:0:0:0:
484,216,41201,1,8,0:0:0:0:
444,284,41362,1,0,0:0:0:0:
376,332,41523,5,12,0:0:0:0:
296,348,41685,1,0,0:0:0:0:
212,324,41846,2,0,P|168:320|120:336,2,90,8|0|0,0:0|0:0|0:0,0:0:0:0:
272,268,42330,1,0,0:0:0:0:
196,244,42491,2,0,P|204:212|224:188,2,60,8|0|0,0:0|0:0|0:0,0:0:0:0:
168,132,42814,6,0,P|208:112|260:124,1,90
300,184,43136,1,8,0:0:0:0:
340,108,43297,1,0,0:0:0:0:
288,44,43459,2,0,P|328:24|380:36,1,90
428,88,43781,6,0,B|452:132|452:191|452:191|452:268,1,180,12|0,0:0|0:0,0:0:0:0:
324,304,44265,2,0,P|358:276|369:233,2,90,0|8|0,0:0|0:0|0:0,0:0:0:0:
228,332,44749,1,0,0:0:0:0:
256,236,44910,1,0,0:0:0:0:
160,260,45072,1,8,0:0:0:0:
192,168,45233,1,0,0:0:0:0:
288,144,45394,6,0,P|304:100|292:56,2,90,12|0|8,0:0|0:0|0:0,0:0:0:0:
356,216,45878,2,0,P|391:185|403:141,1,90,0|0,0:0|0:0,0:0:0:0:
324,304,46201,2,0,P|370:308|410:285,1,90,0|8,0:0|0:0,0:0:0:0:
188,304,46523,6,0,P|141:308|101:285,1,90,12|0,0:0|0:0,0:0:0:0:
256,152,46846,1,0,0:0:0:0:
256,244,47007,1,8,0:0:0:0:
256,56,47168,1,0,0:0:0:0:
400,124,47330,2,0,P|416:80|400:32,1,90
336,128,47652,6,0,P|289:136|256:174,1,90,8|0,0:0|0:0,0:0:0:0:
372,184,47975,6,0,P|402:219|451:230,2,90,0|0|8,0:0|0:0|0:0,0:0:0:0:
304,276,48459,2,0,P|274:241|225:230,1,90,0|0,0:0|0:0,0:0:0:0:
212,108,48781,2,0,P|242:143|291:154,1,90,0|8,0:0|0:0,0:0:0:0:
404,124,49104,1,0,0:0:0:0:
448,240,49265,5,0,0:0:0:0:
372,340,49426,1,0,0:0:0:0:
252,296,49588,2,2,B|200:292|172:340|172:340,2,90,8|0|0,0:0|0:0|0:0,0:0:0:0:
336,200,50072,1,0,0:0:0:0:
152,144,50233,6,0,P|168:172|196:184,2,60,8|8|8,0:0|0:0|0:0,0:0:0:0:
256,192,50555,12,4,51201,0:0:0:0:
256,192,51523,5,8,0:0:0:0:
256,192,51685,1,8,0:0:0:0:
312,136,51846,1,12,0:0:0:0:
196,244,52007,1,8,0:0:0:0:
196,244,52088,1,8,0:0:0:0:
196,244,52168,1,8,0:0:0:0:
360,88,52330,1,0,0:0:0:0:
144,292,52491,1,0,0:0:0:0:
312,244,52652,1,0,0:0:0:0:
192,140,52814,2,0,P|180:106|211:125,1,90,8|0,0:0|0:0,0:0:0:0:
400,324,53136,6,0,B|472:260|452:152,1,180,2|10,0:0|0:0,0:0:0:0:
256,192,53620,1,0,0:0:0:0:
296,120,53781,2,0,B|336:144|336:144|340:188,1,90
216,264,54104,2,0,B|176:240|176:240|172:196,1,90,8|0,0:0|0:0,0:0:0:0:
144,312,54426,6,0,B|212:348|212:348|304:316,1,120,12|0,0:0|0:0,0:0:0:0:
296,316,54749,1,8,0:0:0:0:
340,300,54857,1,0,0:0:0:0:
384,280,54964,1,0,0:0:0:0:
428,260,55072,2,0,B|456:248|456:248|456:152,1,90
456,44,55394,2,0,L|456:136,1,90,8|0,0:0|0:0,0:0:0:0:
356,64,55717,6,2,B|356:120|356:120|356:184|268:184,1,180,0|8,0:0|0:0,0:0:0:0:
64,60,56201,1,0,0:0:0:0:
64,72,56362,1,0,0:0:0:0:
64,84,56523,1,0,0:0:0:0:
64,304,56685,1,8,0:0:0:0:
64,192,56846,1,0,0:0:0:0:
244,200,57007,6,0,B|156:200|156:264|156:264|156:320,1,180,14|10,0:0|0:0,0:0:0:0:
268,312,57491,1,0,0:0:0:0:
384,248,57652,1,8,0:0:0:0:
400,236,57733,1,8,0:0:0:0:
412,220,57814,1,8,0:0:0:0:
416,204,57894,1,8,0:0:0:0:
416,184,57975,1,8,0:0:0:0:
412,168,58055,1,8,0:0:0:0:
400,152,58136,1,8,0:0:0:0:
388,140,58217,1,8,0:0:0:0:
376,132,58297,5,8,0:0:0:0:
256,332,58459,1,0,0:0:0:0:
256,140,58620,1,8,0:0:0:0:
256,244,58781,1,8,0:0:0:0:
128,248,58943,1,8,0:0:0:0:
112,236,59024,1,8,0:0:0:0:
100,220,59105,1,8,0:0:0:0:
96,204,59185,1,8,0:0:0:0:
96,184,59266,1,8,0:0:0:0:
100,168,59346,1,8,0:0:0:0:
112,152,59427,1,8,0:0:0:0:
124,140,59508,1,8,0:0:0:0:
140,132,59588,6,0,P|248:152|252:204,1,180,12|8,0:0|0:0,0:0:0:0:
136,308,60072,1,0,0:0:0:0:
140,304,60233,1,0,0:0:0:0:
144,300,60394,1,0,0:0:0:0:
336,192,60555,1,8,0:0:0:0:
176,192,60717,1,0,0:0:0:0:
257,194,60878,6,0,P|296:268|384:260,1,180,14|10,0:0|0:0,0:0:0:0:
428,192,61362,2,0,P|464:228|472:276,2,90,0|12|0,0:0|0:0|0:0,0:0:0:0:
380,108,61846,1,8,0:0:0:0:
380,108,62007,1,0,0:0:0:0:
380,108,62168,6,0,P|352:144|304:160,1,90,12|0,0:0|0:0,0:0:0:0:
96,280,62491,1,8,0:0:0:0:
220,52,62652,1,0,0:0:0:0:
128,148,62814,2,0,L|208:188,1,90
52,112,63136,1,8,0:0:0:0:
292,320,63781,6,0,P|300:268|348:248,1,90,8|0,0:0|0:0,0:0:0:0:
412,232,64104,2,0,P|393:185|352:168,2,90,8|0|8,0:0|0:0|0:0,0:0:0:0:
268,52,64588,1,8,0:0:0:0:
76,60,64749,6,0,B|136:80|128:148,2,90,12|0|8,0:0|0:0|0:0,0:0:0:0:
52,136,65233,2,0,B|60:192|112:200,1,90,0|0,0:0|0:0,0:0:0:0:
260,200,65555,1,0,0:0:0:0:
180,200,65717,1,8,0:0:0:0:
336,200,65878,1,0,0:0:0:0:
376,116,66039,6,0,P|424:144|420:200,1,90
376,268,66362,2,0,P|416:250|429:209,1,90,8|0,0:0|0:0,0:0:0:0:
284,148,66685,2,0,P|276:192|284:236,2,90,0|0|8,0:0|0:0|0:0,0:0:0:0:
92,304,67330,5,12,0:0:0:0:
180,52,67491,1,0,0:0:0:0:
96,92,67652,2,0,P|72:128|80:180,1,90,8|0,0:0|0:0,0:0:0:0:
156,152,67975,2,2,P|244:144|308:236,1,180,2|10,0:0|0:0,0:0:0:0:
444,68,68459,1,0,0:0:0:0:
204,264,68620,6,0,P|220:304|272:328,1,90
400,196,68943,2,0,P|384:156|332:132,1,90,8|0,0:0|0:0,0:0:0:0:
216,140,69265,2,0,L|168:92,2,60,0|0|0,0:0|0:0|0:0,0:0:0:0:
380,320,69588,1,8,0:0:0:0:
292,232,69749,1,0,0:0:0:0:
316,100,69910,6,0,P|296:60|248:44,1,90,12|0,0:0|0:0,0:0:0:0:
140,68,70233,2,0,P|124:48|100:44,1,45
92,124,70394,2,0,P|108:144|132:148,1,45
44,180,70555,2,2,P|52:224|88:256,1,90
424,160,71039,1,0,0:0:0:0:
276,300,71201,6,2,P|296:236|368:216,1,135
355,170,71523,2,2,P|294:146|276:84,1,135
235,83,71846,2,2,P|217:146|156:170,1,135
156,213,72168,2,2,P|217:237|235:300,1,135
148,300,72491,6,0,P|104:300|64:336,2,90,12|0|8,0:0|0:0|0:0,0:0:0:0:
368,300,72975,1,0,0:0:0:0:
212,160,73136,2,0,P|268:216|252:316,1,180,0|8,0:0|0:0,0:0:0:0:
56,248,73620,2,0,P|56:296|80:328,1,90,8|0,0:0|0:0,0:0:0:0:
360,72,77652,6,0,P|384:112|372:168,1,90,12|0,0:0|0:0,0:0:0:0:
304,132,77975,2,0,P|304:184|328:216,1,90,8|0,0:0|0:0,0:0:0:0:
340,284,78297,2,0,B|324:348|380:368|380:368,1,90,0|2,0:0|0:0,0:0:0:0:
476,256,78620,2,0,P|428:257|396:232,2,90,8|2|0,0:0|0:0|0:0,0:0:0:0:
456,176,79104,5,0,0:0:0:0:
416,88,79265,1,8,0:0:0:0:
324,56,79426,1,0,0:0:0:0:
340,152,79588,2,0,P|284:140|252:160,1,90
72,288,79910,1,8,0:0:0:0:
152,64,80072,1,0,0:0:0:0:
64,168,80233,6,0,P|112:180|144:212,1,90,12|0,0:0|0:0,0:0:0:0:
312,232,80555,2,0,P|316:280|280:320,2,90,8|0|0,0:0|0:0|0:0,0:0:0:0:
256,96,81039,1,0,0:0:0:0:
232,256,81201,2,0,P|208:284|208:344,1,90,8|0,0:0|0:0,0:0:0:0:
288,320,81523,6,0,L|380:320,1,90,4|0,0:0|0:0,0:0:0:0:
412,240,81846,2,0,P|452:268|464:320,2,90,8|0|0,0:0|0:0|0:0,0:0:0:0:
388,136,82330,2,0,P|408:120|416:96,2,45,0|0|8,0:0|0:0|0:0,0:0:0:0:
304,208,82652,1,0,0:0:0:0:
144,48,82814,6,2,P|128:100|76:112,1,90,12|0,0:0|0:0,0:0:0:0:
64,208,83136,1,8,0:0:0:0:
72,244,83244,1,8,0:0:0:0:
96,268,83351,1,0,0:0:0:0:
128,284,83459,1,8,0:0:0:0:
448,176,83781,1,8,0:0:0:0:
440,140,83889,1,8,0:0:0:0:
416,116,83996,1,0,0:0:0:0:
384,100,84104,6,0,P|344:72|336:24,2,90,8|0|8,0:0|0:0|0:0,0:0:0:0:
288,324,84588,2,0,B|344:304|352:260|352:260,1,90
216,200,84910,1,0,0:0:0:0:
456,344,85072,1,8,0:0:0:0:
372,164,85233,1,0,0:0:0:0:
292,32,85394,6,0,P|272:76|224:96,1,90,12|0,0:0|0:0,0:0:0:0:
220,24,85717,2,0,P|181:45|164:88,1,90,8|0,0:0|0:0,0:0:0:0:
64,136,86039,1,0,0:0:0:0:
136,324,86201,2,0,P|88:308|64:268,2,90,0|8|0,0:0|0:0|0:0,0:0:0:0:
256,268,86685,5,0,0:0:0:0:
256,116,86846,1,0,0:0:0:0:
332,192,87007,1,8,0:0:0:0:
180,192,87168,2,0,B|136:160|132:116|132:116,1,90
188,56,87491,2,8,P|188:32|204:12,2,45,8|8|8,0:0|0:0|0:0,0:0:0:0:
323,327,87975,6,4,P|324:350|312:368,2,45,12|8|8,0:0|0:0|0:0,0:0:0:0:
400,72,88459,6,0,P|396:120|416:144,2,45,8|8|8,0:0|0:0|0:0,0:0:0:0:
362,265,88781,2,0,P|367:221|344:184,1,90,0|8,0:0|0:0,0:0:0:0:
68,152,89104,2,0,P|120:140|132:88,1,90
180,276,89426,5,0,0:0:0:0:
400,340,89588,1,8,0:0:0:0:
400,340,89749,1,0,0:0:0:0:
180,276,89910,1,0,0:0:0:0:
400,340,90072,1,0,0:0:0:0:
180,276,90233,2,0,P|164:232|180:184,1,90,8|0,0:0|0:0,0:0:0:0:
268,104,90555,6,0,P|320:108|344:152,1,90,12|0,0:0|0:0,0:0:0:0:
400,224,90878,2,0,P|436:180|424:128,2,90,8|0|0,0:0|0:0|0:0,0:0:0:0:
196,176,91362,1,0,0:0:0:0:
440,332,91523,1,8,0:0:0:0:
176,336,91685,1,0,0:0:0:0:
260,288,91846,6,0,P|300:248|296:204,1,90,12|0,0:0|0:0,0:0:0:0:
440,132,92168,1,8,0:0:0:0:
344,56,92330,2,0,P|300:64|268:104,1,90,0|12,0:0|0:0,0:0:0:0:
96,216,92652,1,0,0:0:0:0:
52,136,92814,2,0,P|96:108|96:56,1,90,8|8,0:0|0:0,0:0:0:0:
224,72,93136,2,0,P|180:100|180:152,1,90,12|8,0:0|0:0,0:0:0:0:
356,176,93620,6,0,P|400:196|416:244,1,90,8|0,0:0|0:0,0:0:0:0:
304,288,93943,1,8,0:0:0:0:
268,276,94023,1,8,0:0:0:0:
244,248,94104,1,8,0:0:0:0:
64,324,94265,1,8,0:0:0:0:
120,68,94588,5,8,0:0:0:0:
160,304,94749,1,8,0:0:0:0:
328,188,94910,1,0,0:0:0:0:
304,276,95072,2,0,P|336:312|340:360,1,90
224,120,95394,2,0,P|269:104|297:65,1,90,8|0,0:0|0:0,0:0:0:0:
416,104,95717,5,12,0:0:0:0:
444,228,95878,1,0,0:0:0:0:
328,188,96039,1,8,0:0:0:0:
352,312,96201,2,0,P|312:324|260:304,1,90
188,212,96523,1,0,0:0:0:0:
136,328,96685,2,0,P|88:332|52:360,2,90,8|0|0,0:0|0:0|0:0,0:0:0:0:
44,244,97168,5,0,0:0:0:0:
76,120,97330,2,0,P|96:80|88:28,1,90,8|0,0:0|0:0,0:0:0:0:
336,48,97652,1,0,0:0:0:0:
216,108,97814,1,0,0:0:0:0:
320,176,97975,1,8,0:0:0:0:
440,132,98136,1,0,0:0:0:0:
416,256,98297,5,12,0:0:0:0:
380,296,98405,1,8,0:0:0:0:
332,320,98512,1,8,0:0:0:0:
280,328,98620,1,8,0:0:0:0:
228,212,98781,1,0,0:0:0:0:
144,308,98943,2,2,P|100:288|52:296,2,90,0|0|0,0:0|0:0|0:0,0:0:0:0:
96,192,99426,2,0,P|120:152|168:136,1,90,0|8,0:0|0:0,0:0:0:0:
256,56,99749,5,8,0:0:0:0:
284,60,99830,1,8,0:0:0:0:
304,80,99910,1,8,0:0:0:0:
340,200,100072,1,0,0:0:0:0:
376,80,100233,2,0,P|384:128|424:156,1,90
436,276,100555,1,8,0:0:0:0:
320,324,100771,2,0,P|288:320|268:296,4,60,0|4|0|0|0,0:0|0:0|0:0|0:0|0:0,0:0:0:0:
176,44,101523,6,0,P|192:92|168:140,1,90
148,224,101846,1,8,0:0:0:0:
96,108,102007,1,0,0:0:0:0:
68,204,102168,6,0,P|55:246|71:287,1,90,12|0,0:0|0:0,0:0:0:0:
216,288,102491,2,0,P|260:296|292:344,2,90,8|0|4,0:0|0:0|0:0,0:0:0:0:
248,68,103136,1,8,0:0:0:0:
368,104,103297,1,0,0:0:0:0:
416,220,103459,5,12,0:0:0:0:
344,320,103620,1,8,0:0:0:0:
320,332,103701,1,8,0:0:0:0:
296,336,103781,1,8,0:0:0:0:
172,304,103943,2,0,P|124:304|84:328,1,90
96,68,104426,2,0,P|116:112|164:128,1,90,8|0,0:0|0:0,0:0:0:0:
260,80,104749,6,2,B|260:116|312:136|312:136|336:108|336:108|392:132,1,180,2|10,0:0|0:0,0:0:0:0:
436,252,105233,2,0,P|444:192|476:168,1,90,0|8,0:0|0:0,0:0:0:0:
340,200,105555,1,8,0:0:0:0:
336,204,105717,1,8,0:0:0:0:
332,208,105878,1,8,0:0:0:0:
232,284,106039,6,0,P|184:292|152:324,1,90,12|0,0:0|0:0,0:0:0:0:
56,184,106362,2,0,P|76:232|120:252,1,90,8|0,0:0|0:0,0:0:0:0:
184,48,106685,2,0,P|176:96|144:128,1,90
184,204,107007,2,0,P|236:168|272:172,1,90,8|0,0:0|0:0,0:0:0:0:
440,52,107330,6,0,B|412:88|436:136|436:136|460:184|424:220,1,180,12|8,0:0|0:0,0:0:0:0:
456,304,107814,1,0,0:0:0:0:
320,336,107975,2,0,B|344:300|344:300|344:252,1,90,8|0,0:0|0:0,0:0:0:0:
192,48,108297,2,0,B|168:84|168:84|168:132,1,90,8|0,0:0|0:0,0:0:0:0:
256,228,108620,6,2,P|320:196|252:156,1,180,14|10,0:0|0:0,0:0:0:0:
72,100,109104,1,0,0:0:0:0:
132,184,109265,2,0,P|88:200|72:252,1,90,0|8,0:0|0:0,0:0:0:0:
304,336,109749,1,8,0:0:0:0:
420,268,109910,5,0,0:0:0:0:
456,148,110072,1,0,0:0:0:0:
332,144,110233,1,8,0:0:0:0:
392,36,110394,1,0,0:0:0:0:
268,36,110555,2,0,P|224:56|200:96,1,90
180,268,110878,1,8,0:0:0:0:
96,172,111039,2,0,P|60:200|40:244,1,90,12|0,0:0|0:0,0:0:0:0:
92,356,111362,6,0,L|184:356,1,90,0|8,0:0|0:0,0:0:0:0:
308,344,111685,2,0,P|380:300|416:204,1,180,0|8,0:0|0:0,0:0:0:0:
388,92,112168,1,8,0:0:0:0:
264,68,112330,1,8,0:0:0:0:
256,192,112491,6,0,P|284:208|256:244,1,90,12|0,0:0|0:0,0:0:0:0:
256,192,112814,6,0,P|240:220|204:192,1,90,12|0,0:0|0:0,0:0:0:0:
256,192,113136,6,0,P|227:176|256:140,1,90,12|0,0:0|0:0,0:0:0:0:
256,192,113459,6,0,P|272:163|308:192,1,90,12|0,0:0|0:0,0:0:0:0:
432,248,113781,6,0,P|392:260|368:312,2,90,12|0|0,0:0|0:0|0:0,0:0:0:0:
208,292,114265,1,0,0:0:0:0:
276,332,114426,2,2,P|272:244|196:212,1,180,8|0,0:0|0:0,0:0:0:0:
288,68,114910,1,0,0:0:0:0:
80,136,115072,6,0,P|120:124|144:72,2,90,12|0|0,0:0|0:0|0:0,0:0:0:0:
304,92,115556,1,0,0:0:0:0:
236,52,115717,2,2,P|240:140|316:168,1,180,10|2,0:0|0:0,0:0:0:0:
224,316,116201,1,0,0:0:0:0:
348,304,116362,6,2,P|384:280|392:224,1,90,12|0,0:0|0:0,0:0:0:0:
180,192,116685,1,0,0:0:0:0:
332,192,116846,1,0,0:0:0:0:
164,80,117007,2,2,P|128:104|120:160,1,90,12|0,0:0|0:0,0:0:0:0:
332,192,117330,1,0,0:0:0:0:
180,192,117491,1,0,0:0:0:0:
432,136,117652,6,0,P|392:124|368:72,2,90,12|0|0,0:0|0:0|0:0,0:0:0:0:
208,92,118136,1,0,0:0:0:0:
276,52,118297,2,2,P|272:140|196:168,1,180,8|0,0:0|0:0,0:0:0:0:
304,316,118781,1,0,0:0:0:0:
163,303,118943,6,2,P|127:279|117:236,1,90,8|0,0:0|0:0,0:0:0:0:
332,192,119266,1,0,0:0:0:0:
180,192,119427,1,0,0:0:0:0:
348,80,119588,2,2,P|384:104|394:147,1,90,12|0,0:0|0:0,0:0:0:0:
180,192,119911,1,0,0:0:0:0:
332,192,120072,1,0,0:0:0:0:
392,144,120233,6,2,P|400:228|324:268,1,180,12|0,0:0|0:0,0:0:0:0:
260,160,120717,1,0,0:0:0:0:
160,84,120878,2,0,P|160:132|124:168,2,90,8|0|0,0:0|0:0|0:0,0:0:0:0:
256,32,121362,1,0,0:0:0:0:
348,80,121523,6,2,P|384:104|394:147,1,90,8|0,0:0|0:0,0:0:0:0:
180,192,121846,1,0,0:0:0:0:
332,192,122007,1,0,0:0:0:0:
163,303,122168,2,2,P|127:279|117:236,1,90,8|0,0:0|0:0,0:0:0:0:
332,192,122491,1,0,0:0:0:0:
180,192,122652,1,0,0:0:0:0:
80,248,122814,6,0,P|120:260|144:312,2,90,12|0|0,0:0|0:0|0:0,0:0:0:0:
304,292,123298,1,0,0:0:0:0:
236,332,123459,2,2,P|240:244|316:216,1,180,12|0,0:0|0:0,0:0:0:0:
208,68,123943,2,0,P|236:104|292:108,1,90,12|12,0:0|0:0,0:0:0:0:
384,192,124588,5,8,0:0:0:0:
456,148,124749,2,0,P|464:192|456:240,1,90
308,236,125072,2,0,P|301:191|309:147,1,90,8|0,0:0|0:0,0:0:0:0:
212,68,125394,6,0,P|148:84|92:132,1,135,4|8,0:0|0:0,0:0:0:0:
92,136,125717,1,8,0:0:0:0:
88,280,125878,1,0,0:0:0:0:
152,212,126039,2,0,P|176:256|216:280,1,90
192,348,126362,2,0,P|244:344|276:296,1,90,8|0,0:0|0:0,0:0:0:0:
392,284,126685,5,0,0:0:0:0:
296,204,126846,1,0,0:0:0:0:
416,164,127007,1,8,0:0:0:0:
328,76,127168,1,0,0:0:0:0:
208,116,127330,1,0,0:0:0:0:
120,28,127491,1,0,0:0:0:0:
80,148,127652,1,8,0:0:0:0:
168,240,127814,6,0,B|176:296|228:296|228:296|280:296|288:348,1,180,4|8,0:0|0:0,0:0:0:0:
412,340,128297,2,0,P|420:296|460:264,1,90,8|0,0:0|0:0,0:0:0:0:
344,280,128620,2,0,L|332:188,3,90,0|0|8|0,0:0|0:0|0:0|0:0,0:0:0:0:
444,128,129265,1,0,0:0:0:0:
336,60,129426,1,0,0:0:0:0:
212,44,129588,6,0,B|204:96|152:95|152:95|99:96|91:151,1,180,12|0,0:0|0:0,0:0:0:0:
140,304,130072,1,0,0:0:0:0:
256,192,130233,1,8,0:0:0:0:
300,352,130394,6,0,B|352:344|352:292|352:292|352:240|408:232,1,180,12|0,0:0|0:0,0:0:0:0:
372,80,130878,1,0,0:0:0:0:
256,192,131039,1,0,0:0:0:0:
184,184,131201,6,0,P|228:124|316:156,1,180,12|8,0:0|0:0,0:0:0:0:
324,168,131631,1,0,0:0:0:0:
328,184,131738,1,0,0:0:0:0:
328,200,131846,6,0,P|284:260|196:228,1,180,12|0,0:0|0:0,0:0:0:0:
188,216,132276,1,0,0:0:0:0:
184,200,132383,1,0,0:0:0:0:
184,184,132491,1,0,0:0:0:0:
116,80,132652,1,8,0:0:0:0:
52,188,132814,2,0,P|60:236|88:272,1,90,8|8,0:0|0:0,0:0:0:0:
184,280,133136,6,0,P|228:340|316:308,1,180,12|0,0:0|0:0,0:0:0:0:
324,296,133566,1,0,0:0:0:0:
328,280,133673,1,0,0:0:0:0:
328,264,133781,2,0,P|336:216|364:180,1,90
328,68,134104,2,0,P|336:116|364:152,1,90,8|0,0:0|0:0,0:0:0:0:
436,168,134426,1,12,0:0:0:0:
136,208,144749,6,0,P|116:248|124:300,2,90,12|0|8,0:0|0:0|0:0,0:0:0:0:
232,64,145233,1,0,0:0:0:0:
264,312,145394,2,0,B|300:276|280:224|280:224|256:172|280:136,1,180,0|8,0:0|0:0,0:0:0:0:
420,56,145878,1,8,0:0:0:0:
420,56,146039,5,0,0:0:0:0:
420,220,146201,1,0,0:0:0:0:
420,140,146362,1,8,0:0:0:0:
420,140,146523,1,0,0:0:0:0:
332,252,146685,2,0,P|356:296|408:308,2,90,0|0|8,0:0|0:0|0:0,0:0:0:0:
84,324,147168,1,0,0:0:0:0:
152,44,147330,6,0,P|184:76|184:132,2,90,12|0|8,0:0|0:0|0:0,0:0:0:0:
132,196,147814,2,0,P|104:161|104:117,1,90,0|0,0:0|0:0,0:0:0:0:
260,284,148136,2,0,P|254:240|223:209,2,90,0|8|0,0:0|0:0|0:0,0:0:0:0:
212,364,148620,5,0,0:0:0:0:
380,304,148781,2,0,P|356:336|304:352,1,90,0|8,0:0|0:0,0:0:0:0:
396,196,149104,1,0,0:0:0:0:
352,80,149265,5,8,0:0:0:0:
328,80,149346,1,8,0:0:0:0:
304,80,149426,1,8,0:0:0:0:
280,80,149507,1,8,0:0:0:0:
272,100,149588,5,8,0:0:0:0:
248,100,149668,1,8,0:0:0:0:
224,100,149749,1,8,0:0:0:0:
200,100,149830,1,8,0:0:0:0:
180,100,149910,5,12,0:0:0:0:
108,188,150072,1,0,0:0:0:0:
196,188,150233,1,8,0:0:0:0:
96,140,150394,5,0,0:0:0:0:
152,240,150555,1,0,0:0:0:0:
212,140,150717,1,0,0:0:0:0:
232,296,150878,6,0,P|280:288|312:248,1,90,8|0,0:0|0:0,0:0:0:0:
364,168,151201,6,0,P|384:212|440:216,2,90,0|0|8,0:0|0:0|0:0,0:0:0:0:
364,80,151685,1,0,0:0:0:0:
292,136,151846,1,0,0:0:0:0:
436,136,152007,1,0,0:0:0:0:
292,216,152168,1,8,0:0:0:0:
436,216,152330,1,0,0:0:0:0:
364,276,152491,6,2,P|388:312|436:332,2,90,4|0|8,0:0|0:0|0:0,0:0:0:0:
252,312,152975,1,8,0:0:0:0:
232,312,153055,1,8,0:0:0:0:
212,312,153136,2,2,B|164:312|128:348|128:348,2,90,4|0|8,0:0|0:0|0:0,0:0:0:0:
142,156,153620,1,8,0:0:0:0:
128,168,153700,1,8,0:0:0:0:
116,180,153781,1,12,0:0:0:0:
256,56,153943,5,8,0:0:0:0:
256,64,154023,1,8,0:0:0:0:
256,72,154104,1,12,0:0:0:0:
376,156,154265,1,8,0:0:0:0:
388,168,154345,1,8,0:0:0:0:
400,184,154426,5,12,0:0:0:0:
400,212,154507,1,8,0:0:0:0:
400,244,154588,1,8,0:0:0:0:
400,268,154668,1,8,0:0:0:0:
392,296,154749,5,8,0:0:0:0:
356,336,154830,1,8,0:0:0:0:
312,340,154910,1,8,0:0:0:0:
272,320,154991,1,8,0:0:0:0:
236,304,155072,6,2,P|184:304|152:344,2,90,4|0|8,0:0|0:0|0:0,0:0:0:0:
316,208,155555,2,8,L|292:168,1,45,8|8,0:0|0:0,0:0:0:0:
240,136,155717,2,0,P|196:152|176:204,2,90,0|0|8,0:0|0:0|0:0,0:0:0:0:
112,132,156201,1,0,0:0:0:0:
256,240,156362,5,0,0:0:0:0:
256,96,156523,1,0,0:0:0:0:
316,312,156685,1,8,0:0:0:0:
256,96,156846,1,0,0:0:0:0:
196,312,157007,1,0,0:0:0:0:
256,96,157168,1,0,0:0:0:0:
256,240,157330,2,0,P|332:232|400:176,1,135,8|0,0:0|0:0,0:0:0:0:
400,168,157652,6,0,P|416:124|400:76,1,90,12|0,0:0|0:0,0:0:0:0:
344,32,157975,2,0,L|304:112,1,90,8|0,0:0|0:0,0:0:0:0:
216,180,158297,2,0,L|256:100,2,90,0|0|8,0:0|0:0|0:0,0:0:0:0:
96,100,158943,5,8,0:0:0:0:
88,216,159104,1,8,0:0:0:0:
88,216,159185,1,8,0:0:0:0:
88,216,159265,1,8,0:0:0:0:
164,300,159426,1,0,0:0:0:0:
344,264,159588,2,0,P|320:304|276:328,2,90,8|0|8,0:0|0:0|0:0,0:0:0:0:
256,68,160394,5,0,0:0:0:0:
256,256,160556,2,0,L|256:164,1,90,8|0,0:0|0:0,0:0:0:0:
184,304,160878,2,0,L|184:212,1,90,4|0,0:0|0:0,0:0:0:0:
328,308,161201,1,8,0:0:0:0:
328,216,161362,1,0,0:0:0:0:
352,120,161523,2,0,P|396:136|420:180,2,90,4|0|8,0:0|0:0|0:0,0:0:0:0:
100,68,162168,6,0,P|124:108|96:160,1,90,8|8,0:0|0:0,0:0:0:0:
96,284,162491,1,0,0:0:0:0:
40,208,162652,1,0,0:0:0:0:
180,244,162814,6,0,P|200:288|240:312,1,90,12|8,0:0|0:0,0:0:0:0:
420,240,163136,6,0,P|434:282|380:324,2,90,12|8|8,0:0|0:0|0:0,0:0:0:0:
384,64,163620,6,0,P|368:108|312:124,1,90,12|8,0:0|0:0,0:0:0:0:
180,76,163943,6,0,P|143:52|102:66,2,90,12|8|8,0:0|0:0|0:0,0:0:0:0:
256,260,164426,1,0,0:0:0:0:
256,160,164588,1,0,0:0:0:0:
168,328,164749,6,0,P|144:288|96:272,2,90,12|8|8,0:0|0:0|0:0,0:0:0:0:
424,108,165394,5,12,0:0:0:0:
424,200,165555,1,0,0:0:0:0:
368,116,165717,1,8,0:0:0:0:
368,208,165878,1,0,0:0:0:0:
312,124,166039,2,0,L|312:216,1,90
260,224,166362,2,0,L|260:132,1,90,8|0,0:0|0:0,0:0:0:0:
172,104,166685,6,0,P|160:152|112:176,2,90,4|0|8,0:0|0:0|0:0,0:0:0:0:
80,280,167330,1,0,0:0:0:0:
336,336,167491,1,0,0:0:0:0:
200,328,167652,2,0,B|240:244|240:244|280:224|344:248,1,180,8|0,0:0|0:0,0:0:0:0:
360,92,168459,6,0,P|412:104|424:52,2,90,8|0|0,0:0|0:0|0:0,0:0:0:0:
160,88,168943,2,0,P|108:76|96:128,1,90,8|0,0:0|0:0,0:0:0:0:
144,228,169265,2,0,P|113:257|74:240,1,90,4|0,0:0|0:0,0:0:0:0:
368,156,169588,2,0,P|398:126|437:143,1,90,8|0,0:0|0:0,0:0:0:0:
256,192,169910,1,0,0:0:0:0:
256,192,170072,1,0,0:0:0:0:
256,192,170233,1,8,0:0:0:0:
256,192,170394,1,0,0:0:0:0:
256,192,170555,6,0,P|264:236|312:268,1,90,12|0,0:0|0:0,0:0:0:0:
295,121,170878,2,0,P|262:151|260:208,1,90,8|0,0:0|0:0,0:0:0:0:
376,148,171201,2,0,P|340:121|292:124,1,90
368,232,171523,2,0,P|386:191|372:140,1,90,8|0,0:0|0:0,0:0:0:0:
128,72,172007,5,8,0:0:0:0:
188,192,172169,1,8,0:0:0:0:
128,312,172330,1,0,0:0:0:0:
264,100,172491,6,0,B|400:92|408:232|408:232,1,180,12|8,0:0|0:0,0:0:0:0:
368,308,172975,1,0,0:0:0:0:
264,100,173136,6,0,P|208:116|184:156,1,90,4|0,0:0|0:0,0:0:0:0:
116,244,173459,1,8,0:0:0:0:
192,344,173620,1,0,0:0:0:0:
252,232,173781,1,0,0:0:0:0:
252,232,173943,1,0,0:0:0:0:
376,248,174104,1,8,0:0:0:0:
252,232,174265,1,0,0:0:0:0:
264,100,174426,6,0,P|320:108|348:132,1,90,12|0,0:0|0:0,0:0:0:0:
344,128,174749,2,0,P|368:172|364:216,1,90,8|0,0:0|0:0,0:0:0:0:
300,320,175072,1,0,0:0:0:0:
424,320,175233,1,0,0:0:0:0:
364,212,175394,2,0,P|344:128|260:100,1,180,8|0,0:0|0:0,0:0:0:0:
128,84,176039,5,8,0:0:0:0:
128,84,176120,1,8,0:0:0:0:
60,192,176281,1,8,0:0:0:0:
60,192,176362,1,8,0:0:0:0:
128,300,176523,1,8,0:0:0:0:
128,300,176604,1,8,0:0:0:0:
244,192,176846,1,8,0:0:0:0:
152,192,177007,6,0,B|188:152|200:112|200:112|252:120|256:72,1,135,12|8,0:0|0:0,0:0:0:0:
252,100,177330,1,8,0:0:0:0:
372,60,177491,1,0,0:0:0:0:
412,180,177652,2,0,P|416:232|376:272,1,90
320,288,177975,2,0,P|312:244|336:208,1,90,8|0,0:0|0:0,0:0:0:0:
172,256,178297,6,0,P|128:264|96:304,1,90
256,116,178620,2,0,P|271:73|252:26,1,90,8|0,0:0|0:0,0:0:0:0:
335,254,178943,2,0,P|363:288|414:295,1,90
212,184,179265,2,0,P|256:200|296:184,1,90,8|0,0:0|0:0,0:0:0:0:
392,96,179588,6,0,P|360:132|408:184,2,90,12|0|8,0:0|0:0|0:0,0:0:0:0:
416,320,180072,1,0,0:0:0:0:
116,316,180233,2,0,P|104:276|168:240,1,90,4|8,0:0|0:0,0:0:0:0:
172,96,180555,1,12,0:0:0:0:
268,296,180717,2,0,L|268:200,1,90,8|0,0:0|0:0,0:0:0:0:
296,76,181201,6,0,B|328:96|328:136|328:136|328:160,1,90,8|0,0:0|0:0,0:0:0:0:
216,308,181523,2,0,B|184:288|184:248|184:248|184:224,1,90
312,248,181846,1,8,0:0:0:0:
200,136,182007,1,0,0:0:0:0:
404,236,182168,6,0,P|416:192|404:148,1,90
108,148,182491,2,0,P|96:192|108:236,1,90,8|0,0:0|0:0,0:0:0:0:
352,88,182814,2,0,L|292:156,1,90
160,296,183136,2,0,L|220:228,1,90,8|0,0:0|0:0,0:0:0:0:
256,116,183459,5,12,0:0:0:0:
256,268,183620,1,0,0:0:0:0:
180,192,183781,1,8,0:0:0:0:
332,192,183943,1,0,0:0:0:0:
108,60,184104,2,8,P|84:88|72:116,1,56.25,12|8,0:0|0:0,0:0:0:0:
64,156,184265,2,8,L|64:216,1,56.25,12|8,0:0|0:0,0:0:0:0:
70,268,184426,6,0,B|85:298|109:324|144:340|172:336,1,112.5,12|0,0:0|0:0,0:0:0:0:
336,344,184749,2,0,B|368:340|402:324|426:298|436:280,1,112.5
441,115,185072,2,8,P|426:85|408:64,1,56.25
360,40,185233,2,8,L|296:40,1,56.25
256,56,185394,2,0,B|252:124|256:192|256:192|260:256|256:316,1,225,12|0,0:0|0:0,0:0:0:0:
256,325,185878,1,8,0:0:0:0:
376,232,186039,6,0,P|392:276|436:304,2,90,12|0|0,0:0|0:0|0:0,0:0:0:0:
432,100,186523,2,0,B|380:112|328:56|328:56|304:168|192:132,1,270,0|0,0:0|0:0,0:0:0:0:
100,104,187168,1,0,0:0:0:0:
76,228,187330,6,0,B|132:224|141:274|141:274|152:328|208:320,1,180,4|0,0:0|0:0,0:0:0:0:
428,248,187814,1,0,0:0:0:0:
356,336,187975,2,0,P|320:308|304:260,1,90
308,76,188297,2,0,P|356:112|348:160,1,90,0|0,0:0|0:0,0:0:0:0:
240,180,188620,5,0,0:0:0:0:
164,80,188781,1,0,0:0:0:0:
68,164,188943,2,0,B|68:216|68:216|96:248,1,90,0|0,0:0|0:0,0:0:0:0:
208,296,189265,2,0,L|168:320|168:320,2,45,0|0|0,0:0|0:0|0:0,0:0:0:0:
424,280,189588,2,0,P|396:328|336:316,1,90,0|0,0:0|0:0,0:0:0:0:
436,156,189910,6,0,B|380:160|370:109|370:109|360:56|304:64,1,180,4|8,0:0|0:0,0:0:0:0:
120,128,190394,1,0,0:0:0:0:
204,80,190555,2,0,B|240:116|240:116|224:184,1,90
144,248,190878,2,0,B|92:256|64:292|64:292,2,90,8|0|0,0:0|0:0|0:0,0:0:0:0:
240,328,191362,1,0,0:0:0:0:
432,216,191523,1,8,0:0:0:0:
360,308,191685,1,0,0:0:0:0:
206,63,191846,6,0,B|152:56|141:109|141:109|132:160|76:156,1,180,4|8,0:0|0:0,0:0:0:0:
88,280,192330,1,0,0:0:0:0:
248,276,192491,2,0,P|216:312|168:320,1,90
368,340,192814,1,8,0:0:0:0:
364,216,192975,1,0,0:0:0:0:
76,156,193136,6,0,B|132:160|141:109|141:109|152:56|206:63,1,180,4|8,0:0|0:0,0:0:0:0:
312,132,193620,2,0,P|324:88|352:52,1,90
464,108,193943,1,0,0:0:0:0:
408,224,194104,2,0,P|400:264|364:300,1,90,8|0,0:0|0:0,0:0:0:0:
292,340,194426,2,0,P|333:332|372:288,1,90
208,340,194749,2,0,P|252:352|300:336,1,90,8|0,0:0|0:0,0:0:0:0:
206,63,195072,6,0,B|152:56|141:109|141:109|132:160|76:156,1,180,4|8,0:0|0:0,0:0:0:0:
176,236,195555,1,0,0:0:0:0:
264,148,195717,2,0,P|296:184|300:236,1,90
302,224,196039,1,8,0:0:0:0:
302,224,196201,1,0,0:0:0:0:
302,224,196362,6,0,P|312:272|352:300,2,90,0|0|8,0:0|0:0|0:0,0:0:0:0:
480,196,196846,1,0,0:0:0:0:
400,240,197007,2,0,P|432:280|440:320,1,90
460,72,197330,2,0,P|404:88|392:132,1,90,8|0,0:0|0:0,0:0:0:0:
185,71,197652,2,0,P|223:94|268:92,1,90
120,256,197975,2,0,P|128:208|104:168,1,90,8|0,0:0|0:0,0:0:0:0:
212,240,198297,2,8,P|220:260|240:280,1,45
260,264,198459,2,8,P|268:284|288:304,1,45
308,288,198620,2,8,P|316:308|336:328,1,45
356,312,198781,2,8,P|364:332|384:352,1,45
404,336,198943,6,0,P|448:308|452:256,1,90,12|0,0:0|0:0,0:0:0:0:
392,88,199265,1,8,0:0:0:0:
432,176,199426,1,0,0:0:0:0:
300,144,199588,2,8,P|292:124|272:104,1,45
252,120,199750,2,8,P|244:100|224:80,1,45
204,96,199911,2,8,P|196:76|176:56,1,45
156,72,200072,2,8,P|148:52|128:32,1,45
108,48,200233,6,0,P|64:76|60:128,1,90,8|0,0:0|0:0,0:0:0:0:
144,288,200555,2,0,P|132:240|88:216,1,90,8|0,0:0|0:0,0:0:0:0:
256,152,200878,2,0,P|228:188|228:240,2,90,0|0|8,0:0|0:0|0:0,0:0:0:0:
360,224,201362,1,0,0:0:0:0:
276,316,201523,1,12,0:0:0:0:
400,340,201685,1,0,0:0:0:0:
360,224,201846,1,8,0:0:0:0:
276,316,202007,1,0,0:0:0:0:
400,340,202168,6,0,P|436:304|444:260,1,90
428,140,202491,1,8,0:0:0:0:
428,140,202652,1,0,0:0:0:0:
316,80,202814,2,0,P|292:120|240:144,1,90
116,104,203136,1,8,0:0:0:0:
72,172,203297,1,0,0:0:0:0:
156,176,203459,1,0,0:0:0:0:
116,148,203620,1,0,0:0:0:0:
116,148,203781,1,8,0:0:0:0:
116,148,203943,1,0,0:0:0:0:
60,312,204104,6,0,B|140:308|140:308|176:360|224:336,1,135,12|8,0:0|0:0,0:0:0:0:
212,340,204426,2,0,B|217:358|253:306|253:306|333:310,1,135,8|0,0:0|0:0,0:0:0:0:
348,308,204749,2,0,P|392:284|396:228,1,90
332,236,205072,2,0,P|320:188|344:144,2,90,8|0|0,0:0|0:0|0:0,0:0:0:0:
208,228,205555,1,0,0:0:0:0:
208,228,205717,1,8,0:0:0:0:
208,228,205878,1,0,0:0:0:0:
136,176,206039,2,0,B|164:208|208:228|208:228|208:44|208:44|252:56|280:88,1,360,0|8,0:0|0:0,0:0:0:0:
256,192,206765,12,12,207330,0:0:0:0:
368,96,207491,5,0,0:0:0:0:
256,152,207653,1,8,0:0:0:0:
144,96,207814,1,0,0:0:0:0:
80,204,207975,6,0,B|96:232|127:247|127:247|144:284|184:296,1,135,0|8,0:0|0:0,0:0:0:0:
192,296,208297,1,8,0:0:0:0:
312,332,208459,1,0,0:0:0:0:
432,292,208620,2,0,P|396:264|384:208,3,90,0|0|8|0,0:0|0:0|0:0|0:0,0:0:0:0:
260,200,209265,6,0,P|276:152|320:124,2,90,0|0|8,0:0|0:0|0:0,0:0:0:0:
440,104,209749,1,0,0:0:0:0:
244,56,209910,2,0,P|288:60|336:48,1,90
156,64,210233,2,0,P|200:68|248:56,1,90,8|0,0:0|0:0,0:0:0:0:
156,64,210555,6,0,B|128:80|112:111|112:111|76:128|64:168,1,135,12|8,0:0|0:0,0:0:0:0:
64,176,210878,1,8,0:0:0:0:
84,300,211039,1,0,0:0:0:0:
208,328,211201,2,0,P|256:328|296:308,3,90,0|0|8|0,0:0|0:0|0:0|0:0,0:0:0:0:
452,344,211846,6,0,B|436:280|396:220|396:220|436:160|452:100|452:100|384:88|316:100|316:100|288:160|288:160|204:60|116:72|116:72|60:192|60:192|108:240|116:312|116:312|180:296|252:312,1,1080.00004119873
256,192,215717,12,12,217007,0:0:0:0:
384,80,222168,6,0,P|384:128|360:168,2,90,4|0|8,0:0|0:0|0:0,0:0:0:0:
56,268,222975,2,0,P|104:272|140:304,1,90,0|8,0:0|0:0,0:0:0:0:
456,268,223297,2,0,P|408:272|372:304,1,90
180,32,223620,2,0,P|176:80|144:116,1,90,0|8,0:0|0:0,0:0:0:0:
332,32,223943,2,0,P|336:80|368:116,1,90
180,352,224265,2,0,P|176:304|144:268,1,90,0|8,0:0|0:0,0:0:0:0:
332,352,224588,2,0,P|336:304|368:268,2,90,0|4|0,0:0|0:0|0:0,0:0:0:0:
56,116,225072,6,0,P|104:112|140:80,1,90,8|0,0:0|0:0,0:0:0:0:
456,116,225394,2,0,P|408:112|372:80,2,90,0|0|8,0:0|0:0|0:0,0:0:0:0:
256,268,225878,1,0,0:0:0:0:
296,178,226039,2,0,P|313:132|284:87,1,90,4|0,0:0|0:0,0:0:0:0:
216,96,226362,2,0,P|256:79|297:96,1,90,8|0,0:0|0:0,0:0:0:0:
217,176,226685,2,0,P|200:135|217:94,1,90
256,200,227007,1,8,0:0:0:0:
424,332,227330,6,2,P|416:288|440:240,1,90,4|0,0:0|0:0,0:0:0:0:
424,52,227652,2,0,P|416:96|440:144,1,90,8|0,0:0|0:0,0:0:0:0:
336,298,227975,2,0,P|344:254|368:216,2,90,0|0|8,0:0|0:0|0:0,0:0:0:0:
336,85,228459,2,0,P|344:129|367:167,1,90,0|0,0:0|0:0,0:0:0:0:
256,228,228781,5,0,0:0:0:0:
160,312,228943,1,8,0:0:0:0:
92,208,229104,1,0,0:0:0:0:
168,160,229265,1,0,0:0:0:0:
92,128,229426,1,0,0:0:0:0:
168,80,229588,1,8,0:0:0:0:
92,48,229749,1,0,0:0:0:0:
252,40,229910,6,0,P|256:80|288:120,1,90,12|0,0:0|0:0,0:0:0:0:
396,40,230233,2,0,P|392:80|360:120,1,90,8|0,0:0|0:0,0:0:0:0:
324,148,230555,2,0,B|364:188|328:228|328:228|292:268|328:308,1,180,0|8,0:0|0:0,0:0:0:0:
327,307,231039,1,0,0:0:0:0:
136,316,231201,6,0,P|180:300|228:304,2,90,0|0|8,0:0|0:0|0:0,0:0:0:0:
68,120,231685,1,0,0:0:0:0:
68,236,231846,1,0,0:0:0:0:
184,124,232007,1,0,0:0:0:0:
184,236,232168,1,8,0:0:0:0:
124,180,232330,1,0,0:0:0:0:
376,68,232491,6,0,P|332:84|284:80,2,90,12|0|8,0:0|0:0|0:0,0:0:0:0:
444,264,232975,1,0,0:0:0:0:
444,148,233136,1,0,0:0:0:0:
172,72,233459,6,0,P|136:96|112:140,1,90,8|0,0:0|0:0,0:0:0:0:
113,135,233781,1,0,0:0:0:0:
113,135,233943,1,0,0:0:0:0:
172,312,234104,6,0,P|136:288|112:244,1,90,8|0,0:0|0:0,0:0:0:0:
113,248,234426,1,0,0:0:0:0:
113,248,234588,1,0,0:0:0:0:
280,192,234749,6,0,L|184:192,1,90,8|0,0:0|0:0,0:0:0:0:
190,192,235072,1,12,0:0:0:0:
190,192,235233,1,0,0:0:0:0:
360,328,235394,6,0,P|320:304|276:296,1,90,8|0,0:0|0:0,0:0:0:0:
277,296,235717,1,0,0:0:0:0:
277,296,235878,1,0,0:0:0:0:
360,56,236039,6,0,P|320:80|276:88,1,90,8|0,0:0|0:0,0:0:0:0:
277,87,236362,1,12,0:0:0:0:
277,87,236523,1,0,0:0:0:0:
277,87,236685,1,8,0:0:0:0:
308,169,236846,2,0,P|285:130|277:87,1,90,8|8,0:0|0:0,0:0:0:0:
92,320,237652,6,0,P|140:304|168:272,2,90,12|0|8,0:0|0:0|0:0,0:0:0:0:
204,164,238136,1,0,0:0:0:0:
248,284,238297,2,0,P|296:288|332:320,2,90,0|0|8,0:0|0:0|0:0,0:0:0:0:
330,190,238781,6,2,P|352:132|311:59,1,135,0|8,0:0|0:0,0:0:0:0:
312,56,239104,2,2,P|254:33|181:74,1,135,8|8,0:0|0:0,0:0:0:0:
176,78,239426,2,0,P|156:136|184:192,1,90,8|0,0:0|0:0,0:0:0:0:
195,208,239749,2,0,P|252:230|312:204,2,90,0|8|0,0:0|0:0|0:0,0:0:0:0:
432,276,240394,5,0,0:0:0:0:
416,152,240555,2,0,L|352:220,1,90,8|0,0:0|0:0,0:0:0:0:
268,308,240878,2,0,P|316:348|352:340,2,90,0|0|8,0:0|0:0|0:0,0:0:0:0:
182,190,241362,6,2,P|159:132|200:59,1,135,0|8,0:0|0:0,0:0:0:0:
200,56,241685,2,2,P|257:33|330:74,1,135,8|8,0:0|0:0,0:0:0:0:
336,78,242007,2,0,P|356:136|328:192,1,90,8|0,0:0|0:0,0:0:0:0:
233,225,242330,2,0,P|277:228|317:208,2,90,0|8|0,0:0|0:0|0:0,0:0:0:0:
100,268,242814,6,0,P|132:304|176:320,1,90,4|0,0:0|0:0,0:0:0:0:
412,268,243136,2,0,P|380:304|336:320,1,90,8|0,0:0|0:0,0:0:0:0:
412,116,243459,2,0,P|380:80|336:64,1,90
224,80,243781,1,8,0:0:0:0:
182,194,243943,6,2,P|159:251|200:324,1,135,0|8,0:0|0:0,0:0:0:0:
200,328,244266,2,2,P|257:350|330:309,1,135,8|8,0:0|0:0,0:0:0:0:
336,306,244588,2,0,P|356:248|328:192,1,90,8|0,0:0|0:0,0:0:0:0:
233,157,244911,2,0,P|277:154|317:176,2,90,0|8|0,0:0|0:0|0:0,0:0:0:0:
440,56,245394,6,0,L|440:148,2,90,4|0|8,0:0|0:0|0:0,0:0:0:0:
312,56,245878,1,0,0:0:0:0:
188,56,246039,2,0,L|96:56,1,90
96,184,246362,1,8,0:0:0:0:
330,194,246523,6,2,P|352:251|328:308,1,90,0|8,0:0|0:0,0:0:0:0:
336,308,246765,1,8,0:0:0:0:
312,328,246846,2,2,P|254:350|196:320,1,90,8|8,0:0|0:0,0:0:0:0:
200,332,247088,1,8,0:0:0:0:
176,306,247168,2,0,P|156:248|184:192,1,90,8|0,0:0|0:0,0:0:0:0:
278,157,247491,2,0,P|234:154|195:176,2,90,0|8|0,0:0|0:0|0:0,0:0:0:0:
80,224,247975,6,0,L|80:316,2,90,4|0|8,0:0|0:0|0:0,0:0:0:0:
44,104,248459,1,0,0:0:0:0:
224,52,248620,1,0,0:0:0:0:
128,64,248781,1,0,0:0:0:0:
324,64,248943,1,8,0:0:0:0:
240,52,249104,1,0,0:0:0:0:
420,108,249265,1,0,0:0:0:0:
336,68,249426,1,0,0:0:0:0:
376,224,249588,1,8,0:0:0:0:
428,120,249749,1,0,0:0:0:0:
124,316,250233,6,0,P|96:280|84:236,1,90,8|0,0:0|0:0,0:0:0:0:
84,237,250555,1,12,0:0:0:0:
92,136,250717,1,0,0:0:0:0:
192,208,250878,2,0,B|280:176|236:288|236:288,1,90,8|0,0:0|0:0,0:0:0:0:
240,340,251201,2,0,B|288:264|288:264|344:332|344:332|380:336|408:312,1,240
432,288,251738,1,0,0:0:0:0:
448,248,251846,6,0,P|456:200|424:136,1,90
320,76,252168,1,8,0:0:0:0:
320,76,252330,1,0,0:0:0:0:
188,72,252491,2,0,L|188:164,1,90
112,240,252814,2,0,L|112:148,1,90,8|0,0:0|0:0,0:0:0:0:
180,292,253136,6,0,P|156:328|100:332,1,90,12|0,0:0|0:0,0:0:0:0:
248,248,253459,2,0,P|224:284|168:288,1,90,8|0,0:0|0:0,0:0:0:0:
316,204,253781,2,0,P|292:240|236:244,2,90,0|0|8,0:0|0:0|0:0,0:0:0:0:
364,320,254265,1,0,0:0:0:0:
448,228,254426,6,0,L|448:132,2,90,0|0|8,0:0|0:0|0:0,0:0:0:0:
376,64,254910,2,0,P|328:64|288:92,1,90
293,85,255233,1,0,0:0:0:0:
212,64,255394,2,0,P|260:64|300:92,1,90,8|0,0:0|0:0,0:0:0:0:
100,124,255717,6,0,B|116:212|116:212|160:216|204:208|204:208|172:244|152:284|152:284|216:348|216:348,1,360,12|8,0:0|0:0,0:0:0:0:
252,312,256469,1,8,0:0:0:0:
284,348,256577,1,8,0:0:0:0:
320,312,256685,1,8,0:0:0:0:
352,348,256792,1,8,0:0:0:0:
388,312,256900,1,8,0:0:0:0:
420,348,257007,2,0,B|476:336|476:288|476:288|436:268|396:220,1,180,8|8,0:0|0:0,0:0:0:0:
308,228,257491,2,2,B|307:224|307:224|301:216|301:216|308:207|308:207|298:201|298:201|305:191|305:191|295:185|295:185|302:176|302:176|292:169|292:169|298:160|298:160|289:154|289:154|295:144|295:144|286:138|286:138|292:129|292:129|283:122|283:122|289:113|289:113|280:107|280:107|282:98,1,180,8|8,0:0|0:0,0:0:0:0:
282,98,257975,1,8,0:0:0:0:
72,316,258297,5,12,0:0:0:0:
96,88,268620,6,0,B|84:136|92:176|92:176|100:220|96:268,1,180,12|8,0:0|0:0,0:0:0:0:
204,332,269104,1,0,0:0:0:0:
328,328,269265,2,0,P|304:284|268:260,1,90
296,136,269588,2,0,P|344:184|384:156,1,90,8|0,0:0|0:0,0:0:0:0:
448,92,269910,6,0,P|408:64|364:52,2,90,0|0|8,0:0|0:0|0:0,0:0:0:0:
452,220,270394,2,0,L|448:312,3,90,0|0|0|8,0:0|0:0|0:0|0:0,0:0:0:0:
356,300,271201,6,0,P|308:304|264:328,1,90,12|0,0:0|0:0,0:0:0:0:
128,272,271523,1,8,0:0:0:0:
192,320,271685,1,0,0:0:0:0:
84,200,271846,2,2,B|124:156|88:120|88:120|52:84|84:40,1,180,0|8,0:0|0:0,0:0:0:0:
84,39,272330,1,0,0:0:0:0:
204,96,272491,6,0,P|204:144|232:184,2,90,0|0|8,0:0|0:0|0:0,0:0:0:0:
324,60,272975,2,0,L|416:60,3,90,0|0|0|8,0:0|0:0|0:0|0:0,0:0:0:0:
372,180,273620,1,0,0:0:0:0:
412,300,273781,6,0,P|364:296|328:332,1,90,12|0,0:0|0:0,0:0:0:0:
208,320,274104,1,8,0:0:0:0:
92,276,274265,2,0,P|76:232|48:196,3,90,0|0|0|8,0:0|0:0|0:0|0:0,0:0:0:0:
136,64,274910,5,0,0:0:0:0:
192,252,275072,2,0,P|172:204|136:180,1,90
252,108,275394,2,0,P|272:156|308:180,1,90,8|0,0:0|0:0,0:0:0:0:
324,304,275717,2,0,L|408:336,2,90,0|0|8,0:0|0:0|0:0,0:0:0:0:
436,184,276362,6,0,L|404:96,1,90,12|0,0:0|0:0,0:0:0:0:
324,192,276685,1,8,0:0:0:0:
224,124,276846,2,0,P|204:80|216:32,2,90,0|0|0,0:0|0:0|0:0,0:0:0:0:
116,188,277330,1,8,0:0:0:0:
116,188,277437,1,8,0:0:0:0:
116,188,277545,1,8,0:0:0:0:
116,188,277652,6,2,L|116:280,2,90,8|0|8,0:0|0:0|0:0,0:0:0:0:
212,268,278136,1,0,0:0:0:0:
424,192,278297,2,0,P|448:240|424:288,1,90
324,232,278620,1,8,0:0:0:0:
328,324,278781,1,0,0:0:0:0:
256,44,279104,5,0,0:0:0:0:
256,228,279265,1,8,0:0:0:0:
256,140,279426,1,0,0:0:0:0:
144,168,279588,2,0,P|144:284|284:328,1,270,0|8,0:0|0:0,0:0:0:0:
388,200,280233,2,0,P|384:252|352:288,2,90,0|0|8,0:0|0:0|0:0,0:0:0:0:
336,96,280717,1,0,0:0:0:0:
448,332,280878,1,0,0:0:0:0:
80,84,281201,6,0,B|92:128|92:128|68:176,1,90,8|0,0:0|0:0,0:0:0:0:
152,212,281524,1,0,0:0:0:0:
240,92,281846,1,8,0:0:0:0:
240,292,282007,1,0,0:0:0:0:
352,328,282168,2,0,P|324:288|320:244,1,90
404,52,282491,2,0,P|432:92|436:136,1,90,8|0,0:0|0:0,0:0:0:0:
404,232,282814,2,0,L|348:160,2,90,0|0|8,0:0|0:0|0:0,0:0:0:0:
184,160,283297,2,0,L|276:160,1,90
64,328,283943,1,8,0:0:0:0:
92,324,284023,1,8,0:0:0:0:
120,316,284104,6,0,P|160:304|208:312,1,90,12|0,0:0|0:0,0:0:0:0:
284,124,284426,2,0,P|272:176|288:224,1,90,8|0,0:0|0:0,0:0:0:0:
464,256,284749,2,0,P|448:304|408:328,2,90,0|0|8,0:0|0:0|0:0,0:0:0:0:
168,176,285233,1,8,0:0:0:0:
416,128,285394,1,8,0:0:0:0:
68,152,285878,5,8,0:0:0:0:
68,176,286039,1,0,0:0:0:0:
68,200,286201,1,0,0:0:0:0:
68,224,286362,2,0,B|68:264|68:264|68:296|92:308,1,90,8|0,0:0|0:0,0:0:0:0:
252,352,286685,2,0,P|212:356|156:348,1,90,12|8,0:0|0:0,0:0:0:0:
444,192,287168,5,8,0:0:0:0:
432,280,287330,2,0,L|344:224,1,90
432,104,287652,2,0,L|344:160,1,90,8|0,0:0|0:0,0:0:0:0:
168,52,287975,2,0,B|192:64|192:92|192:92|192:136,2,90,12|0|8,0:0|0:0|0:0,0:0:0:0:
100,52,288459,2,0,B|76:64|76:92|76:92|76:136,1,90,12|0,0:0|0:0,0:0:0:0:
112,248,289104,5,8,0:0:0:0:
128,256,289185,1,8,0:0:0:0:
148,256,289265,2,0,B|200:256|240:284|240:284,2,90,12|0|8,0:0|0:0|0:0,0:0:0:0:
252,120,289749,1,0,0:0:0:0:
272,348,289910,2,0,P|304:312|304:256,1,90
408,248,290233,1,8,0:0:0:0:
460,144,290394,2,0,L|448:52,1,90
52,144,290717,2,0,L|64:52,1,90,0|8,0:0|0:0,0:0:0:0:
256,212,291039,1,0,0:0:0:0:
256,212,291201,1,0,0:0:0:0:
84,264,291523,6,0,P|116:296|160:312,1,90,8|0,0:0|0:0,0:0:0:0:
240,324,291846,2,0,P|296:336|328:360,2,90,12|0|8,0:0|0:0|0:0,0:0:0:0:
436,320,292330,1,0,0:0:0:0:
360,260,292491,2,0,L|360:164,1,90
288,208,292814,2,0,L|288:112,1,90,8|0,0:0|0:0,0:0:0:0:
216,72,293136,2,0,L|216:162,1,90
144,116,293459,2,0,L|144:206,1,90,8|0,0:0|0:0,0:0:0:0:
144,288,293781,2,0,B|144:320|144:320|144:368|80:356,2,90,0|0|8,0:0|0:0|0:0,0:0:0:0:
48,284,294265,6,0,L|48:192,1,90,0|12,0:0|0:0,0:0:0:0:
56,96,294588,2,0,P|80:56|128:36,1,90,0|8,0:0|0:0,0:0:0:0:
394,37,294910,2,0,P|433:57|456:96,1,90
256,344,295555,6,8,L|220:316,1,45,8|8,0:0|0:0,0:0:0:0:
192,280,295717,2,0,P|180:232|192:184,1,90,8|0,0:0|0:0,0:0:0:0:
252,96,296039,1,8,0:0:0:0:
320,192,296201,1,0,0:0:0:0:
396,96,296362,2,0,P|440:128|480:188,1,90
416,264,296685,1,8,0:0:0:0:
416,264,296846,1,0,0:0:0:0:
416,264,297007,6,0,P|384:296|368:340,2,90,12|0|8,0:0|0:0|0:0,0:0:0:0:
320,192,297491,1,0,0:0:0:0:
396,96,297652,1,0,0:0:0:0:
252,96,297814,1,0,0:0:0:0:
396,96,297975,1,8,0:0:0:0:
252,96,298136,2,0,P|204:120|176:156,1,90,0|12,0:0|0:0,0:0:0:0:
180,147,298459,1,0,0:0:0:0:
148,304,298620,2,0,L|152:212,2,90,8|0|8,0:0|0:0|0:0,0:0:0:0:
72,56,299426,1,8,0:0:0:0:
72,56,299588,6,0,P|60:100|72:152,1,90,12|0,0:0|0:0,0:0:0:0:
148,228,299910,1,8,0:0:0:0:
256,280,300072,2,0,P|300:304|324:344,1,90,0|0,0:0|0:0,0:0:0:0:
252,164,300394,2,0,P|302:162|342:185,1,90,0|8,0:0|0:0,0:0:0:0:
184,68,300717,2,0,P|226:41|273:41,1,90,0|12,0:0|0:0,0:0:0:0:
420,84,301039,5,0,0:0:0:0:
420,104,301201,1,8,0:0:0:0:
420,124,301362,1,0,0:0:0:0:
420,144,301523,2,0,P|436:188|480:212,2,90,0|0|8,0:0|0:0|0:0,0:0:0:0:
324,244,302007,2,0,P|324:284|300:332,1,90
132,288,302330,1,0,0:0:0:0:
216,324,302491,1,8,0:0:0:0:
64,216,302652,1,0,0:0:0:0:
64,216,302814,1,0,0:0:0:0:
64,216,302975,6,0,B|88:168|128:156|128:156|168:144|196:100|196:100|260:208,1,270,8|0,0:0|0:0,0:0:0:0:
332,252,303620,1,0,0:0:0:0:
440,208,303781,1,8,0:0:0:0:
428,92,303943,2,0,P|388:56|340:56,1,90
292,112,304265,2,0,P|328:148|368:164,2,90,0|8|0,0:0|0:0|0:0,0:0:0:0:
176,84,304749,5,12,0:0:0:0:
76,148,304910,1,0,0:0:0:0:
88,264,305072,2,0,B|124:312|124:312|184:292|184:292|232:348,1,180,8|0,0:0|0:0,0:0:0:0:
220,335,305555,1,0,0:0:0:0:
432,92,305717,1,8,0:0:0:0:
432,92,305878,1,0,0:0:0:0:
424,316,306039,6,0,P|376:304|332:308,2,90,0|0|8,0:0|0:0|0:0,0:0:0:0:
256,140,306523,2,0,L|256:236,1,90
88,68,306846,2,0,P|136:80|180:76,1,90,0|8,0:0|0:0,0:0:0:0:
84,292,307168,1,0,0:0:0:0:
196,328,307330,6,0,B|228:276|228:276|280:304|280:304|308:252|308:252|364:280|364:280|388:228|388:228|448:256,1,360,12|0,0:0|0:0,0:0:0:0:
443,253,308136,1,0,0:0:0:0:
424,64,308297,2,0,P|384:92|368:140,1,90,8|0,0:0|0:0,0:0:0:0:
256,132,308620,2,0,L|256:224,2,90,0|0|8,0:0|0:0|0:0,0:0:0:0:
88,64,309104,2,0,P|128:92|144:140,1,90,0|8,0:0|0:0,0:0:0:0:
92,316,309588,5,8,0:0:0:0:
92,316,309749,1,0,0:0:0:0:
92,316,309910,2,0,B|164:344|184:304|184:304|168:260|196:208,1,180,12|8,0:0|0:0,0:0:0:0:
182,233,310394,2,0,P|208:200|240:164,1,90
416,88,311039,6,0,P|428:132|416:180,1,90,8|0,0:0|0:0,0:0:0:0:
328,248,311362,1,0,0:0:0:0:
272,128,311523,2,0,L|300:72,3,60,8|0|0|0,0:0|0:0|0:0|0:0,0:0:0:0:
172,72,312007,2,0,P|128:88|96:120,1,90,0|8,0:0|0:0,0:0:0:0:
92,244,312330,2,0,P|136:248|176:284,1,90
108,320,312652,6,0,P|148:348|204:348,1,90,0|8,0:0|0:0,0:0:0:0:
188,351,312975,1,0,0:0:0:0:
300,300,313136,2,0,P|288:260|240:232,2,90,0|0|8,0:0|0:0|0:0,0:0:0:0:
428,308,313620,1,0,0:0:0:0:
424,184,313781,2,0,B|412:136|372:120|372:120|344:156|344:156|288:144,1,180,12|8,0:0|0:0,0:0:0:0:
172,128,314265,2,0,P|120:136|88:160,1,90
88,200,314749,5,8,0:0:0:0:
88,200,314910,1,0,0:0:0:0:
88,200,315072,2,0,B|100:248|140:264|140:264|168:228|168:228|224:240,1,180,12|8,0:0|0:0,0:0:0:0:
340,256,315556,2,0,P|392:248|424:224,1,90,0|8,0:0|0:0,0:0:0:0:
96,312,315878,5,8,0:0:0:0:
252,312,316040,1,0,0:0:0:0:
172,312,316201,1,0,0:0:0:0:
144,188,316362,2,2,B|136:84|264:96|264:96|264:188|264:188|352:188,1,360,12|8,0:0|0:0,0:0:0:0:
352,96,317168,1,0,0:0:0:0:
352,284,317330,1,8,0:0:0:0:
456,188,317491,1,0,0:0:0:0:
368,196,317652,6,2,B|376:300|248:288|248:288|248:196|248:196|160:196,1,360,12|8,0:0|0:0,0:0:0:0:
160,196,318459,1,0,0:0:0:0:
64,192,318620,1,8,0:0:0:0:
160,196,318781,1,0,0:0:0:0:
160,196,318943,6,2,B|136:88|264:96|264:96|264:188|264:188|352:192,1,360,12|8,0:0|0:0,0:0:0:0:
360,192,319749,1,8,0:0:0:0:
368,192,319910,1,8,0:0:0:0:
376,192,320072,1,8,0:0:0:0:
384,192,320233,6,0,B|444:172|408:60|408:60|280:88|164:40|164:40|56:-8|4:152|160:192|160:192|16:232|56:392|164:344|164:344|280:296|424:348,1,1224.00002334595,12|0,0:0|0:0,0:0:0:0:
261,287,324104,6,0,B|192:283|188:203|256:192|256:192|327:180|323:100|250:96,1,306.000005836487,12|12,0:0|0:0,0:0:0:0:
72,352,325394,6,0,B|104:320|144:300|144:300|132:272|132:272|140:268|140:268|132:264|132:264|140:260|140:260|132:256|132:256|140:252|140:252|132:248|132:248|140:244|140:244|132:240|132:240|140:236|140:236|132:232|132:232|140:228|140:228|132:224|132:224|140:220|140:220|132:216|132:216|140:192|140:192|52:148|56:64|96:-8|176:16|200:28|256:56|256:56|312:28|336:16|416:-8|456:64|460:148|372:192|372:192|380:216|380:216|372:220|372:220|380:224|380:224|372:228|372:228|380:232|380:232|372:236|372:236|380:240|380:240|372:244|372:244|380:248|380:248|372:252|372:252|380:256|380:256|372:260|372:260|380:264|380:264|372:268|372:268|380:272|380:272|368:300|368:300|408:320|440:352,1,1224.00002334595,12|0,0:0|0:0,0:0:0:0:
328,224,329265,6,0,B|324:180|292:160|292:160|276:196|248:224|248:224|244:180|216:160|216:160|200:196|172:224,1,306.000005836487
88,332,330555,6,0,P|104:284|88:236,2,90,0|0|8,0:0|0:0|0:0,0:0:0:0:
288,324,331039,2,0,P|316:288|288:264,1,90
188,152,331523,1,8,0:0:0:0:
188,228,331684,1,0,0:0:0:0:
188,120,331846,5,0,0:0:0:0:
188,260,332007,1,8,0:0:0:0:
188,80,332330,2,0,L|188:300,1,215.999993408203,8|0,0:0|0:0,0:0:0:0:
188,296,332814,1,8,0:0:0:0:
188,296,332975,1,0,0:0:0:0:
296,144,333136,6,0,L|296:236,1,90,12|0,0:0|0:0,0:0:0:0:
464,236,333459,2,0,L|464:144,1,90,8|0,0:0|0:0,0:0:0:0:
380,40,333781,2,0,L|380:132,1,90
376,232,334104,1,8,0:0:0:0:
376,248,334185,1,8,0:0:0:0:
376,264,334265,1,8,0:0:0:0:
64,280,334426,6,0,P|132:336|240:280,1,180,12|8,0:0|0:0,0:0:0:0:
152,244,334910,2,0,P|236:223|302:278,1,180
460,304,335394,2,0,P|428:328|380:340,1,90,8|0,0:0|0:0,0:0:0:0:
304,240,335717,6,0,B|296:180|304:128|304:128|268:140|228:128,1,180,12|8,0:0|0:0,0:0:0:0:
212,192,336201,2,0,B|220:224|212:252|212:252|228:248|244:252,1,90
92,64,336846,1,8,0:0:0:0:
76,268,337007,6,0,P|88:220|76:176,1,90
280,288,337330,2,0,P|232:300|199:332,1,90,8|0,0:0|0:0,0:0:0:0:
432,60,337652,2,0,P|417:107|427:151,1,90
200,108,337975,2,0,P|242:122|272:155,1,90,8|0,0:0|0:0,0:0:0:0:
436,268,338297,6,0,P|424:220|436:176,1,90
232,288,338620,2,0,P|279:300|312:332,1,90,8|0,0:0|0:0,0:0:0:0:
80,60,338942,2,0,P|94:107|84:151,1,90
312,108,339265,2,0,P|269:122|239:155,1,90,8|0,0:0|0:0,0:0:0:0:
356,336,339588,6,2,B|356:300|360:296|360:296|352:292|352:292|360:288|360:288|352:284|352:284|360:280|360:280|352:276|352:276|360:272|360:272|352:268|352:268|360:264|360:264|352:260|352:260|360:256|360:256|352:252|352:252|359:248|359:248|356:244|356:212,1,180,12|8,0:0|0:0,0:0:0:0:
300,124,340072,2,0,B|344:68|432:88|440:172|440:172|464:144,1,225,0|8,0:0|0:0,0:0:0:0:
468,128,340555,2,0,P|456:84|396:64,1,90,8|0,0:0|0:0,0:0:0:0:
260,36,340878,6,0,B|208:32|188:80|188:80|168:132|104:140,1,180,0|8,0:0|0:0,0:0:0:0:
123,136,341362,1,0,0:0:0:0:
92,260,341523,2,0,P|72:304|28:328,2,90,0|0|8,0:0|0:0|0:0,0:0:0:0:
172,264,342007,2,0,P|172:308|148:356,2,90,0|0|0,0:0|0:0|0:0,0:0:0:0:
252,244,342491,2,0,B|280:288|272:336|272:336|364:336,1,180,8|0,0:0|0:0,0:0:0:0:
444,248,342975,1,0,0:0:0:0:
452,124,343136,1,8,0:0:0:0:
444,248,343297,1,0,0:0:0:0:
316,112,343459,6,0,P|304:68|268:32,2,90,12|0|8,0:0|0:0|0:0,0:0:0:0:
84,184,343943,1,0,0:0:0:0:
184,144,344104,2,0,P|160:96|116:84,1,90
128,83,344426,1,8,0:0:0:0:
136,280,344588,6,0,B|88:288|88:288|72:344,2,90,12|0|0,0:0|0:0|0:0,0:0:0:0:
248,336,345072,2,0,B|344:320|344:320|368:232,1,180,8|0,0:0|0:0,0:0:0:0:
365,240,345555,1,0,0:0:0:0:
365,240,345717,1,8,0:0:0:0:
365,240,345878,6,0,P|412:188|408:104,1,135,12|0,0:0|0:0,0:0:0:0:
408,108,346201,2,0,P|344:112|316:84,1,90,0|8,0:0|0:0,0:0:0:0:
172,68,346685,2,0,P|188:116|168:164,2,90,0|0|8,0:0|0:0|0:0,0:0:0:0:
64,316,347330,5,0,0:0:0:0:
180,264,347491,1,0,0:0:0:0:
292,324,347652,1,8,0:0:0:0:
400,260,347814,1,0,0:0:0:0:
392,136,347975,5,8,0:0:0:0:
380,116,348082,1,8,0:0:0:0:
356,100,348190,1,8,0:0:0:0:
340,124,348297,5,8,0:0:0:0:
320,136,348405,1,8,0:0:0:0:
296,140,348512,1,8,0:0:0:0:
272,136,348620,6,0,P|224:108|204:64,2,90,12|0|8,0:0|0:0|0:0,0:0:0:0:
80,320,349426,1,0,0:0:0:0:
160,216,349588,1,8,0:0:0:0:
240,320,349749,6,0,P|292:320|332:344,1,90
424,304,350072,1,0,0:0:0:0:
328,336,350233,2,0,B|340:272|308:232|308:232|324:188|392:196,1,180,12|0,0:0|0:0,0:0:0:0:
363,195,350717,1,8,0:0:0:0:
84,68,351039,6,0,B|72:100|80:136|80:136|60:156,2,90,8|0|0,0:0|0:0|0:0,0:0:0:0:
220,204,351523,2,0,B|232:172|224:136|224:136|244:116,1,90,8|0,0:0|0:0,0:0:0:0:
104,280,351846,1,0,0:0:0:0:
332,284,352007,1,0,0:0:0:0:
196,344,352168,2,0,P|220:312|244:344,2,90,8|0|0,0:0|0:0|0:0,0:0:0:0:
372,104,352814,6,0,P|364:72|336:48,2,60,8|8|8,0:0|0:0|0:0,0:0:0:0:
368,152,353136,2,0,B|364:184|364:184|396:200|396:236,1,90
320,336,353459,1,8,0:0:0:0:
320,336,353620,1,0,0:0:0:0:
96,240,353781,2,0,P|104:288|80:328,1,90,12|0,0:0|0:0,0:0:0:0:
180,96,354104,2,0,L|104:44,2,90,8|0|0,0:0|0:0|0:0,0:0:0:0:
180,96,354588,2,0,L|256:148,2,90,0|8|0,0:0|0:0|0:0,0:0:0:0:
216,236,355072,6,0,P|248:264|216:328,1,90
336,192,355394,1,8,0:0:0:0:
440,124,355555,1,0,0:0:0:0:
440,260,355717,1,0,0:0:0:0:
336,192,355878,1,0,0:0:0:0:
440,124,356039,1,8,0:0:0:0:
440,260,356201,1,0,0:0:0:0:
312,292,356362,6,0,P|352:300|368:352,2,90,12|0|8,0:0|0:0|0:0,0:0:0:0:
252,240,356846,2,0,P|267:280|310:290,1,90,0|0,0:0|0:0,0:0:0:0:
132,268,357168,1,0,0:0:0:0:
148,184,357330,1,8,0:0:0:0:
116,348,357491,1,0,0:0:0:0:
164,100,357652,6,0,B|136:80|136:80|112:96|68:92,2,90,0|0|8,0:0|0:0|0:0,0:0:0:0:
276,40,358136,2,0,P|260:96|304:144,1,90
276,296,358459,1,0,0:0:0:0:
392,220,358620,1,8,0:0:0:0:
392,220,358781,1,0,0:0:0:0:
400,140,358943,6,0,P|468:192|412:296,1,180,12|8,0:0|0:0,0:0:0:0:
449,274,359426,1,0,0:0:0:0:
276,296,359588,1,0,0:0:0:0:
368,324,359749,1,0,0:0:0:0:
188,332,359910,1,8,0:0:0:0:
276,296,360072,1,0,0:0:0:0:
104,292,360233,6,0,P|76:328|32:336,2,90,0|0|8,0:0|0:0|0:0,0:0:0:0:
176,248,360717,2,0,P|132:257|106:292,1,90,0|0,0:0|0:0,0:0:0:0:
348,92,361039,1,0,0:0:0:0:
164,92,361201,1,8,0:0:0:0:
256,208,361362,1,0,0:0:0:0:
80,168,361523,6,0,L|44:80,2,90,12|0|8,0:0|0:0|0:0,0:0:0:0:
466,84,362168,2,0,L|432:168,1,90,0|0,0:0|0:0,0:0:0:0:
400,336,362491,2,0,L|320:296,1,90,8|0,0:0|0:0,0:0:0:0:
112,336,362814,2,0,L|192:296,2,90,0|0|8,0:0|0:0|0:0,0:0:0:0:
256,84,363297,2,0,L|256:192,1,90
216,276,363620,1,0,0:0:0:0:
312,276,363781,1,8,0:0:0:0:
148,276,363943,1,0,0:0:0:0:
80,84,364104,6,0,B|72:119|124:136|72:192,2,90,12|0|8,0:0|0:0|0:0,0:0:0:0:
88,169,364588,1,0,0:0:0:0:
200,108,364749,1,0,0:0:0:0:
308,172,364910,1,0,0:0:0:0:
416,108,365072,1,8,0:0:0:0:
308,172,365233,1,0,0:0:0:0:
432,316,365394,5,0,0:0:0:0:
424,308,365555,1,0,0:0:0:0:
420,316,365717,1,8,0:0:0:0:
344,316,365878,5,0,0:0:0:0:
352,308,366039,1,0,0:0:0:0:
72,332,366201,5,0,0:0:0:0:
132,240,366362,1,8,0:0:0:0:
132,216,366443,1,8,0:0:0:0:
132,184,366523,1,8,0:0:0:0:
72,52,366685,2,0,B|120:48|120:48|152:76|200:76|200:76|232:108,1,180,12|8,0:0|0:0,0:0:0:0:
412,212,367168,1,8,0:0:0:0:
412,64,367330,2,0,P|384:112|336:124,2,90,0|0|8,0:0|0:0|0:0,0:0:0:0:
288,336,367814,6,0,L|344:260,1,90
224,336,368136,2,0,L|168:260,1,90,0|8,0:0|0:0,0:0:0:0:
256,184,368620,1,0,0:0:0:0:
256,184,368781,1,0,0:0:0:0:
64,188,368943,6,0,P|72:136|100:104,1,90,8|0,0:0|0:0,0:0:0:0:
212,96,369265,2,0,P|256:84|303:99,1,90,12|0,0:0|0:0,0:0:0:0:
417,107,369588,1,8,0:0:0:0:
444,144,369695,1,8,0:0:0:0:
448,188,369803,1,8,0:0:0:0:
432,232,369910,2,0,P|400:196|352:180,1,90,8|0,0:0|0:0,0:0:0:0:
80,232,370233,2,0,P|112:196|160:180,1,90,8|0,0:0|0:0,0:0:0:0:
256,148,370555,5,8,0:0:0:0:
256,192,370663,1,8,0:0:0:0:
256,236,370771,1,8,0:0:0:0:
276,272,370878,2,0,P|278:329|248:268,1,180,8|0,0:0|0:0,0:0:0:0:
116,76,371362,1,0,0:0:0:0:
400,60,371523,6,0,P|396:112|416:152,1,90,8|0,0:0|0:0,0:0:0:0:
384,280,371846,2,0,P|428:292|464:332,2,90,12|0|8,0:0|0:0|0:0,0:0:0:0:
256,336,372330,1,0,0:0:0:0:
128,280,372491,1,0,0:0:0:0:
96,56,372814,1,8,0:0:0:0:
120,80,372921,1,8,0:0:0:0:
152,92,373029,1,8,0:0:0:0:
180,84,373136,6,0,P|268:80|336:124,1,135,8|8,0:0|0:0,0:0:0:0:
416,324,373620,2,0,B|368:312|352:264,1,90,8|0,0:0|0:0,0:0:0:0:
84,324,374104,1,8,0:0:0:0:
96,292,374211,1,8,0:0:0:0:
124,268,374319,1,8,0:0:0:0:
164,256,374426,6,0,P|212:256|252:272,3,90,12|0|8|0,0:0|0:0|0:0|0:0,0:0:0:0:
408,152,375072,2,0,P|432:196|416:244,1,90,0|0,0:0|0:0,0:0:0:0:
304,332,375394,2,0,P|352:336|372:296,1,90,8|0,0:0|0:0,0:0:0:0:
208,72,375717,2,2,B|212:76|212:76|204:80|204:80|212:84|212:84|204:88|204:88|212:92|212:92|204:96|204:96|212:100|212:100|204:104|204:104|212:108|212:108|204:112|204:112|212:116|212:116|204:120|204:120|212:124|212:124|204:128|204:128|212:132|212:132|204:136|204:136|212:140|212:140|204:144|204:144|212:148|212:148|204:152|204:152|208:156,1,180,0|8,0:0|0:0,0:0:0:0:
456,48,376201,2,0,P|412:64|364:68,1,90
369,68,376523,1,0,0:0:0:0:
412,188,376685,1,0,0:0:0:0:
369,68,376846,1,0,0:0:0:0:
204,320,377007,6,0,P|160:312|124:280,2,90,12|0|8,0:0|0:0|0:0,0:0:0:0:
436,216,377491,1,0,0:0:0:0:
356,328,377652,2,0,B|352:280|308:256|308:256|264:232|256:184,1,180,0|8,0:0|0:0,0:0:0:0:
256,186,378136,1,0,0:0:0:0:
200,244,378620,5,8,0:0:0:0:
256,186,378781,1,0,0:0:0:0:
312,244,378943,1,0,0:0:0:0:
136,192,379104,5,0,0:0:0:0:
256,68,379265,1,8,0:0:0:0:
376,192,379426,1,0,0:0:0:0:
368,312,379588,6,0,P|256:344|144:312,1,233.999989288331,12|8,0:0|0:0,0:0:0:0:
376,112,380072,1,0,0:0:0:0:
136,112,380233,1,0,0:0:0:0:
328,208,380394,1,0,0:0:0:0:
184,208,380555,1,8,0:0:0:0:
256,136,380717,1,0,0:0:0:0:
456,272,380878,6,0,L|456:176,2,90,0|0|8,0:0|0:0|0:0,0:0:0:0:
176,320,381362,1,0,0:0:0:0:
336,320,381523,2,0,B|360:272|304:244|304:244|252:216|280:168,1,180,0|8,0:0|0:0,0:0:0:0:
276,173,382007,1,0,0:0:0:0:
88,56,382168,6,0,P|120:92|112:144,1,90,12|0,0:0|0:0,0:0:0:0:
76,328,382491,2,0,B|88:300|88:300|100:288,1,45,8|8,0:0|0:0,0:0:0:0:
112,280,382652,2,8,B|124:268|124:268|140:240,1,45
152,220,382814,2,0,B|168:196|168:196|196:268|268:240|268:240|264:268,1,180,8|8,0:0|0:0,0:0:0:0:
264,265,383297,1,8,0:0:0:0:
452,60,383620,6,0,P|424:100|424:148,2,90,0|8|0,0:0|0:0|0:0,0:0:0:0:
132,80,384104,1,0,0:0:0:0:
380,304,384265,1,0,0:0:0:0:
256,192,384426,1,8,0:0:0:0:
256,192,384588,1,0,0:0:0:0:
80,272,384749,6,0,P|120:288|144:348,2,90,12|0|8,0:0|0:0|0:0,0:0:0:0:
256,312,385233,1,0,0:0:0:0:
396,184,385394,2,0,P|416:228|464:252,2,90,0|0|8,0:0|0:0|0:0,0:0:0:0:
164,60,385878,1,0,0:0:0:0:
300,84,386039,6,0,P|348:92|396:72,2,90,0|0|8,0:0|0:0|0:0,0:0:0:0:
72,136,386523,1,0,0:0:0:0:
88,256,386685,2,2,B|116:256|116:256|120:252|120:252|124:260|124:260|128:252|128:252|132:260|132:260|136:252|136:252|140:260|140:260|144:252|144:252|148:256|148:256|184:304|248:272,1,180,0|8,0:0|0:0,0:0:0:0:
224,281,387168,1,0,0:0:0:0:
388,340,387330,6,0,L|408:252,1,90,12|0,0:0|0:0,0:0:0:0:
407,252,387652,1,8,0:0:0:0:
388,44,387814,2,0,L|408:132,1,90
407,131,388136,1,0,0:0:0:0:
216,148,388297,1,8,0:0:0:0:
296,236,388459,1,0,0:0:0:0:
184,332,388620,6,0,P|136:332|96:308,3,90,0|0|8|0,0:0|0:0|0:0|0:0,0:0:0:0:
76,168,389265,2,0,P|60:212|68:264,1,90
228,44,389588,2,0,P|188:48|136:88,1,90,8|0,0:0|0:0,0:0:0:0:
284,44,389910,6,0,P|324:48|376:88,1,90,12|0,0:0|0:0,0:0:0:0:
365,74,390233,1,8,0:0:0:0:
344,280,390394,2,0,B|344:228|296:200|296:200|408:200,1,180
432,352,390878,2,0,P|452:300|416:260,1,90,8|0,0:0|0:0,0:0:0:0:
156,328,391201,6,0,L|124:236,1,90,12|0,0:0|0:0,0:0:0:0:
126,242,391523,1,8,0:0:0:0:
156,56,391685,2,0,L|124:148,1,90,0|12,0:0|0:0,0:0:0:0:
126,141,392007,1,0,0:0:0:0:
256,192,392168,2,0,L|160:192,1,90,8|0,0:0|0:0,0:0:0:0:
360,72,392491,6,0,P|416:104|416:196,1,135,12|8,0:0|0:0,0:0:0:0:
420,196,392814,2,0,P|392:240|432:296,1,90,8|0,0:0|0:0,0:0:0:0:
168,324,393136,2,0,P|212:340|256:304,2,90,0|0|8,0:0|0:0|0:0,0:0:0:0:
36,192,393620,1,0,0:0:0:0:
84,44,393781,2,0,P|124:72|128:124,2,90,0|0|8,0:0|0:0|0:0,0:0:0:0:
232,172,394265,2,0,P|232:124|272:88,1,90
348,304,394749,5,8,0:0:0:0:
168,304,394910,1,0,0:0:0:0:
268,336,395072,2,0,P|260:284|228:248,1,90
268,48,395394,2,0,P|260:100|228:136,1,90,8|0,0:0|0:0,0:0:0:0:
80,144,395717,2,0,P|68:192|80:248,1,90
432,240,396039,2,0,P|444:192|432:136,1,90,8|0,0:0|0:0,0:0:0:0:
148,192,396362,2,0,L|240:192,1,90
364,192,396685,2,0,L|272:192,1,90,8|0,0:0|0:0,0:0:0:0:
256,192,397007,1,12,0:0:0:0:
212,336,397652,6,0,P|256:324|300:336,1,90,12|0,0:0|0:0,0:0:0:0:
256,48,397975,1,8,0:0:0:0:
256,80,398136,1,0,0:0:0:0:
256,88,398217,1,0,0:0:0:0:
256,96,398297,2,0,P|248:144|216:184,1,90
64,320,398620,2,0,P|72:272|104:232,1,90,8|0,0:0|0:0,0:0:0:0:
448,320,398943,6,0,P|440:272|408:232,1,90
132,88,399265,1,8,0:0:0:0:
380,88,399426,1,0,0:0:0:0:
256,172,399588,1,0,0:0:0:0:
256,180,399749,1,0,0:0:0:0:
256,188,399910,1,8,0:0:0:0:
256,196,400072,6,0,P|272:244|304:280,4,90,0|12|0|8|0,0:0|0:0|0:0|0:0|0:0,0:0:0:0:
180,60,400878,1,0,0:0:0:0:
360,60,401039,1,0,0:0:0:0:
88,60,401201,1,8,0:0:0:0:
448,60,401362,2,0,B|448:136|448:136|428:204,1,135,0|8,0:0|0:0,0:0:0:0:
416,208,401685,1,8,0:0:0:0:
360,328,401846,2,0,P|332:296|280:280,1,90,8|0,0:0|0:0,0:0:0:0:
128,196,402168,2,0,P|92:232|76:276,2,90,0|0|8,0:0|0:0|0:0,0:0:0:0:
340,68,402652,1,0,0:0:0:0:
256,136,402814,6,0,L|256:232,1,90
256,226,403136,1,8,0:0:0:0:
160,328,403297,2,0,P|120:324|80:296,1,90
196,140,403620,2,0,P|217:184|278:183,1,90,0|8,0:0|0:0,0:0:0:0:
256,192,403889,1,0,0:0:0:0:
256,192,403996,1,0,0:0:0:0:
352,192,404225,5,0,0:0:0:0:
360,192,404346,1,0,0:0:0:0:
368,192,404467,1,8,0:0:0:0:
376,192,404588,1,0,0:0:0:0:
384,192,404749,2,0,P|412:152|396:88,2,90,0|0|8,0:0|0:0|0:0,0:0:0:0:
428,320,405233,1,0,0:0:0:0:
88,324,405394,6,0,P|72:276|88:216,2,90,12|0|8,0:0|0:0|0:0,0:0:0:0:
68,60,405878,1,0,0:0:0:0:
432,64,406039,1,12,0:0:0:0:
256,340,406362,1,8,0:0:0:0:
256,84,406523,2,0,B|292:124|256:168|256:168|216:212|260:264,1,180
260,260,406967,1,8,0:0:0:0:
272,268,407088,1,8,0:0:0:0:
288,272,407209,1,8,0:0:0:0:
304,276,407330,2,0,P|348:260|368:212,2,90,0|0|8,0:0|0:0|0:0,0:0:0:0:
72,328,408136,5,0,0:0:0:0:
136,220,408297,2,0,P|128:168|72:136,1,90,8|0,0:0|0:0,0:0:0:0:
200,48,408620,2,0,P|188:100|204:152,2,90,12|0|8,0:0|0:0|0:0,0:0:0:0:
412,320,409265,5,12,0:0:0:0:
404,160,409426,2,0,P|360:192|356:244,1,90,0|8,0:0|0:0,0:0:0:0:
312,48,409749,1,0,0:0:0:0:
256,340,410072,1,8,0:0:0:0:
256,340,410233,1,8,0:0:0:0:
256,340,410394,1,0,0:0:0:0:
184,208,410555,6,0,P|228:184|252:132,2,90,12|0|8,0:0|0:0|0:0,0:0:0:0:
60,272,411039,2,0,P|100:288|120:340,1,90
60,112,411362,2,0,P|100:96|120:44,1,90,0|8,0:0|0:0,0:0:0:0:
436,192,411685,1,0,0:0:0:0:
356,328,411846,2,0,L|300:252,1,90,12|0,0:0|0:0,0:0:0:0:
356,56,412168,2,0,L|300:132,1,90,8|0,0:0|0:0,0:0:0:0:
184,328,412706,5,8,0:0:0:0:
188,304,412814,1,8,0:0:0:0:
192,280,412921,1,8,0:0:0:0:
196,256,413029,1,8,0:0:0:0:
200,232,413136,2,0,P|200:188|184:140,2,90,12|0|8,0:0|0:0|0:0,0:0:0:0:
284,300,413620,2,0,P|408:308|380:84,1,405,8|0,0:0|0:0,0:0:0:0:
380,84,414426,6,0,P|332:68|296:52,2,90,8|0|8,0:0|0:0|0:0,0:0:0:0:
184,56,414910,1,0,0:0:0:0:
80,232,415072,2,0,P|80:184|48:132,2,90,0|0|8,0:0|0:0|0:0,0:0:0:0:
340,336,415717,6,0,P|260:304|232:188,1,180,12|8,0:0|0:0,0:0:0:0:
296,180,416201,1,8,0:0:0:0:
172,48,416362,6,0,P|252:80|280:196,1,180,12|8,0:0|0:0,0:0:0:0:
216,204,416846,1,8,0:0:0:0:
436,308,417007,6,0,P|400:276|384:228,1,90,12|0,0:0|0:0,0:0:0:0:
385,237,417330,1,8,0:0:0:0:
386,66,417491,2,0,P|422:98|438:146,1,90
436,136,417814,1,8,0:0:0:0:
408,192,417975,1,8,0:0:0:0:
48,192,418297,6,0,L|140:192|144:192,3,90,12|0|8|0,0:0|0:0|0:0|0:0,0:0:0:0:
176,36,418943,2,0,P|188:72|192:124,1,90
336,348,419265,2,0,P|324:312|320:260,1,90,8|0,0:0|0:0,0:0:0:0:
336,36,419588,6,0,P|324:72|320:124,1,90
176,348,419910,2,0,P|188:312|192:260,1,90,8|0,0:0|0:0,0:0:0:0:
464,192,420233,2,0,L|372:192|368:192,3,90,0|0|8|0,0:0|0:0|0:0|0:0,0:0:0:0:
188,144,421201,5,8,0:0:0:0:
324,144,421362,1,8,0:0:0:0:
256,268,421523,1,12,0:0:0:0:
112,72,422007,2,0,L|64:152,1,90,0|12,0:0|0:0,0:0:0:0:
112,312,422491,1,8,0:0:0:0:
64,232,422652,1,8,0:0:0:0:
172,192,422814,6,0,B|212:168|256:192|256:192|300:216|344:192,1,180,12|0,0:0|0:0,0:0:0:0:
216,100,423297,1,0,0:0:0:0:
300,124,423459,6,0,B|300:48|388:-12|488:48|488:136|424:192|424:192|488:244|496:368|376:368|292:344|256:240|256:240|224:344|136:368|16:368|24:244|88:192|88:192|24:136|24:48|124:-12|212:48|212:124,1,1440,12|0,0:0|0:0,0:0:0:0:
384,120,427330,2,0,B|360:180|332:192|328:216|344:260|392:264,1,180,0|8,0:0|0:0,0:0:0:0:
128,120,427975,2,0,B|152:180|180:192|184:216|168:260|120:264,1,180,0|8,0:0|0:0,0:0:0:0:
308,340,428620,6,0,B|456:240|456:240|456:60|456:60|300:148|300:148|256:68|256:68|212:148|212:148|56:60|56:60|56:240|56:240|208:340,1,1260,0|4,0:0|0:0,0:0:0:0:
24,280,431201,2,0,B|24:100|24:100|204:100|204:100|204:280|204:280|240:308|256:352|256:352|272:308|308:280|308:280|308:100|308:100|488:100|488:100|488:280,1,1260,0|4,0:0|0:0,0:0:0:0:
80,324,433781,6,0,B|116:344|164:352|256:352|256:352|396:352|429:320|456:292|456:192|456:192|456:100|427:68|396:40|256:40|256:40|184:40|154:66|128:96|128:156|128:156|128:208|156:236|184:264|256:264|256:264|304:264|328:240|336:220|336:200|336:200|336:176|324:160|304:144|272:144|272:144|232:144|216:160|212:176,1,1440
192,164,437652,2,0,P|220:248|236:124,1,360
88,64,438943,6,0,B|256:176|424:64|424:64|424:336|424:336|256:208|88:336|88:336|100:236|20:192|20:192|324:192,1,1440
320,164,442814,6,0,P|292:248|272:124,1,315
252,124,443459,5,12,0:0:0:0:
328,84,443674,5,12,0:0:0:0:
396,136,443889,5,12,0:0:0:0:
