osu file format v12

[General]
AudioFilename: 01-kollegah_-_eure_hoheit-ysp.mp3
AudioLeadIn: 0
PreviewTime: 91014
Countdown: 0
SampleSet: Normal
StackLeniency: 0.7
Mode: 0
LetterboxInBreaks: 1
WidescreenStoryboard: 1

[Editor]
DistanceSpacing: 1.3
BeatDivisor: 8
GridSize: 4
TimelineZoom: 1

[Metadata]
Title:Eure Hoheit
TitleUnicode:Eure Hoheit
Artist:Kollegah
ArtistUnicode:Kollegah
Creator:HouseForever
Version:Koeniglich [Expert]
Source:
Tags:Bosshaft
BeatmapID:426774
BeatmapSetID:171444

[Difficulty]
HPDrainRate:6
CircleSize:4
OverallDifficulty:7
ApproachRate:9
SliderMultiplier:2
SliderTickRate:2

[Events]
//Background and Video events
0,0,"kollegah-speedart-der-boss-hd-youtube-1234828.jpg",0,0
//Break Periods
2,67933,68800
2,69600,70281
2,85891,86572
2,87372,88053
//Storyboard Layer 0 (Background)
//Storyboard Layer 1 (Fail)
//Storyboard Layer 2 (Pass)
//Storyboard Layer 3 (Foreground)
//Storyboard Sound Samples
//Background Colour Transformations
3,100,163,162,255

[TimingPoints]
20525,370.260663507109,4,1,0,76,1,0
24227,-66.6666666666667,4,1,0,76,0,0
24968,-100,4,1,0,76,0,0
25708,-66.6666666666667,4,1,0,76,0,0
26449,-100,4,1,0,76,0,0
41214,-100,4,1,0,76,0,0
42695,-55.5555555555556,4,1,0,76,0,0
44176,-100,4,1,0,76,0,0
44916,-66.6666666666667,4,1,0,76,0,0
45657,-100,4,1,0,76,0,0
54543,-66.6666666666667,4,1,0,76,0,0
56024,-100,4,1,0,76,0,0
58246,-66.6666666666667,4,1,0,76,0,0
58986,-100,4,1,0,76,0,0
64910,-100,4,1,0,76,0,0
65651,-80,4,1,0,76,0,0
66391,-66.6666666666667,4,1,0,76,0,0
67132,-57.1428571428571,4,1,0,76,0,0
67872,-100,4,1,0,76,0,0
73797,-58.8235294117647,4,1,0,76,0,0
74537,-100,4,1,0,76,0,0
91569,-133.333333333333,4,1,0,76,0,1
92310,-66.6666666666667,4,1,0,76,0,1
93050,-133.333333333333,4,1,0,76,0,1
93791,-66.6666666666667,4,1,0,76,0,1
94531,-133.333333333333,4,1,0,76,0,1
95272,-66.6666666666667,4,1,0,76,0,1
96012,-100,4,1,0,76,0,1
97493,-133.333333333333,4,1,0,76,0,1
98234,-66.6666666666667,4,1,0,76,0,1
98974,-133.333333333333,4,1,0,76,0,1
99715,-66.6666666666667,4,1,0,76,0,1
100455,-133.333333333333,4,1,0,76,0,1
101196,-66.6666666666667,4,1,0,76,0,1
101936,-100,4,1,0,76,0,1
103418,-133.333333333333,4,1,0,76,0,1
104158,-66.6666666666667,4,1,0,76,0,1
104899,-133.333333333333,4,1,0,76,0,1
105639,-66.6666666666667,4,1,0,76,0,1
106380,-133.333333333333,4,1,0,76,0,1
107120,-66.6666666666667,4,1,0,76,0,1
107861,-100,4,1,0,76,0,1
109342,-133.333333333333,4,1,0,76,0,1
110082,-66.6666666666667,4,1,0,76,0,1
110823,-133.333333333333,4,1,0,76,0,1
111563,-66.6666666666667,4,1,0,76,0,1
112304,-133.333333333333,4,1,0,76,0,1
113044,-66.6666666666667,4,1,0,76,0,1
113785,-100,4,1,0,76,0,1
115266,-83.3333333333333,4,1,0,76,0,0

[Colours]
Combo1 : 124,68,142
Combo2 : 68,94,142
Combo3 : 192,26,26
Combo4 : 68,142,70
Combo5 : 68,124,142

[HitObjects]
436,132,18998,6,0,L|408:72,1,50
348,88,19183,2,0,L|328:132,1,47.5
264,132,19368,2,0,L|244:88,1,47.5
180,88,19553,2,0,L|160:132,1,47.5
124,228,19785,2,0,P|120:272|156:308,1,95
276,228,20155,2,0,P|280:272|244:308,1,95
200,216,20525,6,4,B|200:116|200:116|292:72,1,200,12|12,0:0|0:0,0:0:0:0:
40,148,21266,2,0,P|52:196|84:240,1,100
136,272,21543,1,0,0:0:0:0:
200,288,21636,2,0,P|248:296|300:292,2,100,8|0|0,0:0|0:0|0:0,0:0:0:0:
184,84,22191,1,0,0:0:0:0:
388,268,22376,1,8,0:0:0:0:
276,180,22562,1,0,0:0:0:0:
284,52,22747,6,0,P|336:72|364:112,1,100
436,296,23117,2,0,P|436:248|412:196,2,100,8|0|0,0:0|0:0|0:0,0:0:0:0:
308,308,23672,1,0,0:0:0:0:
244,304,23765,1,0,0:0:0:0:
184,284,23857,2,0,P|140:256|116:212,1,100,8|0,0:0|0:0,0:0:0:0:
112,88,24228,2,0,L|148:156,1,75.0000028610231
248,200,24413,2,0,L|212:132,1,75.0000028610231
240,36,24598,2,0,L|276:104,1,75.0000028610231,8|0,0:0|0:0,0:0:0:0:
376,144,24783,2,0,L|340:76,1,75.0000028610231
392,36,24968,6,0,P|440:64|460:112,1,100
468,168,25246,1,0,0:0:0:0:
468,232,25339,2,0,B|488:264|488:264|540:292,2,50,8|0|0,0:0|0:0|0:0,0:0:0:0:
404,244,25616,1,0,0:0:0:0:
328,272,25709,2,0,L|264:316,1,75.0000028610231
196,304,25894,2,0,L|152:240,1,75.0000028610231
172,176,26079,2,0,L|236:132,1,75.0000028610231,8|0,0:0|0:0,0:0:0:0:
304,140,26264,2,0,L|348:204,1,75.0000028610231
408,168,26449,6,0,P|408:120|368:72,1,100
208,56,26820,2,0,P|260:40|308:48,2,100,8|0|0,0:0|0:0|0:0,0:0:0:0:
96,124,27375,1,0,0:0:0:0:
68,252,27560,2,0,B|68:304|68:304|124:320,1,100,8|0,0:0|0:0,0:0:0:0:
264,252,27930,2,0,B|264:304|264:304|208:320,2,100,0|0|8,0:0|0:0|0:0,0:0:0:0:
264,56,28486,1,0,0:0:0:0:
264,156,28671,1,0,0:0:0:0:
368,108,28856,1,0,0:0:0:0:
416,8,29041,2,0,P|452:40|476:108,1,100,8|0,0:0|0:0,0:0:0:0:
432,192,29411,5,0,0:0:0:0:
408,276,29535,1,0,0:0:0:0:
332,320,29658,1,0,0:0:0:0:
248,304,29782,1,8,0:0:0:0:
192,240,29905,1,0,0:0:0:0:
176,156,30029,1,0,0:0:0:0:
220,80,30152,2,0,P|280:44|348:44,1,100
288,168,30522,2,0,P|348:132|416:132,2,100,8|0|0,0:0|0:0|0:0,0:0:0:0:
176,104,31078,1,0,0:0:0:0:
140,308,31263,1,8,0:0:0:0:
80,192,31448,1,0,0:0:0:0:
268,288,31633,1,0,0:0:0:0:
296,160,31818,2,0,P|348:72|412:132,1,200,8|8,0:0|0:0,0:0:0:0:
72,80,33114,6,0,L|100:176,1,100,8|0,0:0|0:0,0:0:0:0:
216,236,33484,1,8,0:0:0:0:
336,192,33669,1,0,0:0:0:0:
192,120,33855,2,0,P|240:80|308:112,1,100
320,264,34225,2,0,P|272:304|204:272,1,100,8|0,0:0|0:0,0:0:0:0:
76,324,34595,2,0,P|109:288|158:286,1,100
237,301,34965,2,0,P|286:299|320:264,1,100,8|0,0:0|0:0,0:0:0:0:
364,140,35336,5,0,0:0:0:0:
148,244,35521,1,0,0:0:0:0:
364,244,35706,1,8,0:0:0:0:
148,140,35891,1,0,0:0:0:0:
256,212,36076,2,0,L|256:112,1,100
372,56,36446,1,8,0:0:0:0:
452,160,36631,1,0,0:0:0:0:
452,224,36724,1,0,0:0:0:0:
452,288,36817,1,0,0:0:0:0:
328,324,37002,1,0,0:0:0:0:
200,316,37187,2,0,B|144:316|144:316|104:344,2,100,8|0|0,0:0|0:0|0:0,0:0:0:0:
92,80,37927,6,0,P|136:84|188:112,1,100,8|0,0:0|0:0,0:0:0:0:
412,124,38483,2,0,P|436:176|432:224,1,100,0|8,0:0|0:0,0:0:0:0:
348,312,38853,2,0,P|296:336|248:332,1,100
192,308,39131,1,0,0:0:0:0:
144,264,39223,2,0,P|96:264|48:296,1,100,0|8,0:0|0:0,0:0:0:0:
152,204,39594,2,0,P|110:180|52:183,1,100
256,108,40149,5,8,0:0:0:0:
344,192,40334,1,0,0:0:0:0:
256,276,40519,1,0,0:0:0:0:
168,192,40704,1,0,0:0:0:0:
168,108,40889,1,8,0:0:0:0:
344,108,41075,1,0,0:0:0:0:
344,276,41260,6,0,B|276:205|276:205|280:172|300:152|300:152|336:116,1,200,0|8,0:0|0:0,0:0:0:0:
364,192,41815,1,0,0:0:0:0:
256,84,42000,1,8,0:0:0:0:
148,192,42185,1,0,0:0:0:0:
256,300,42370,1,8,0:0:0:0:
364,84,42556,1,0,0:0:0:0:
148,84,42741,6,0,B|215:154|215:154|240:224|180:256,1,200,8|0,0:0|0:0,0:0:0:0:
136,192,43111,1,8,0:0:0:0:
256,72,43296,1,0,0:0:0:0:
376,192,43481,1,8,0:0:0:0:
256,312,43666,1,0,0:0:0:0:
317,246,43852,2,0,B|272:224|296:154|296:154|364:84,1,200,8|0,0:0|0:0,0:0:0:0:
464,144,44222,6,0,P|480:244|408:296,1,200,0|8,0:0|0:0,0:0:0:0:
280,276,44777,1,0,0:0:0:0:
88,296,44962,2,0,L|48:228,1,75.0000028610231
64,136,45147,2,0,L|102:200,1,75.0000028610231
196,236,45333,2,0,L|156:168,1,75.0000028610231,8|0,0:0|0:0,0:0:0:0:
172,76,45518,2,0,L|210:140,1,75.0000028610231
268,108,45703,6,0,P|296:60|352:52,1,100
244,276,46073,2,0,P|216:324|160:332,1,100,8|0,0:0|0:0,0:0:0:0:
148,240,46443,1,0,0:0:0:0:
364,144,46628,1,0,0:0:0:0:
148,144,46814,1,8,0:0:0:0:
364,240,46999,1,0,0:0:0:0:
244,192,47184,6,0,L|144:192,2,66.6666666666667
280,112,47554,2,0,P|316:76|368:64,2,100,8|0|0,0:0|0:0|0:0,0:0:0:0:
148,240,48110,1,0,0:0:0:0:
364,144,48295,1,8,0:0:0:0:
148,144,48480,1,0,0:0:0:0:
436,336,48850,5,0,0:0:0:0:
316,284,49035,2,0,B|272:312|272:312|216:312,1,100,8|0,0:0|0:0,0:0:0:0:
96,296,49405,2,0,P|68:276|56:240,3,66.6666666666667,0|0|0|8,0:0|0:0|0:0|0:0,0:0:0:0:
224,48,50146,6,0,B|272:48|272:48|324:72,1,100
404,192,50516,1,8,0:0:0:0:
319,314,50701,2,0,B|272:336|272:336|224:336,1,100
108,192,51072,1,0,0:0:0:0:
312,192,51257,2,0,L|208:192,1,100,8|0,0:0|0:0,0:0:0:0:
128,92,51627,6,0,P|164:60|216:44,3,100,0|0|8|0,0:0|0:0|0:0|0:0,0:0:0:0:
344,52,52368,2,0,B|396:52|396:52|396:200,1,200,0|8,0:0|0:0,0:0:0:0:
436,336,53108,5,0,0:0:0:0:
316,284,53293,2,0,B|272:312|272:312|216:312,1,100,0|8,0:0|0:0,0:0:0:0:
172,192,53663,1,0,0:0:0:0:
224,72,53849,2,0,B|272:72|272:72|316:100,1,100
408,192,54219,2,0,L|304:192,1,100,8|0,0:0|0:0,0:0:0:0:
200,312,54589,6,0,B|128:180|48:312|48:192|48:192|48:64|128:204|204:64,1,450.000017166138,0|8,0:0|0:0,0:0:0:0:
188,192,55330,2,0,B|256:144|328:192|328:192|404:240|476:192,1,300.000011444092,0|8,0:0|0:0,0:0:0:0:
208,192,56070,5,0,0:0:0:0:
108,272,56255,1,0,0:0:0:0:
208,356,56440,2,0,B|256:356|256:356|308:336,1,100,8|0,0:0|0:0,0:0:0:0:
416,272,56811,2,0,B|464:253|464:253|512:253,2,100,0|0|8,0:0|0:0|0:0,0:0:0:0:
308,200,57366,2,0,B|289:163|289:163|289:104,1,100
36,40,57921,2,0,B|96:64|96:64|96:124,1,100,8|0,0:0|0:0,0:0:0:0:
148,128,58292,2,0,L|224:128,1,75.0000028610231
148,192,58477,2,0,L|72:192,1,75.0000028610231
148,256,58662,2,0,L|224:256,1,75.0000028610231,8|0,0:0|0:0,0:0:0:0:
148,320,58847,2,0,L|72:320,1,75.0000028610231
160,368,59032,6,0,P|204:336|252:344,1,100
348,288,59402,1,8,0:0:0:0:
164,284,59773,1,0,0:0:0:0:
348,100,59958,1,0,0:0:0:0:
164,100,60143,1,8,0:0:0:0:
348,284,60328,1,0,0:0:0:0:
256,132,60513,5,0,0:0:0:0:
256,252,60698,1,0,0:0:0:0:
188,192,60884,1,8,0:0:0:0:
320,192,61069,1,0,0:0:0:0:
420,108,61254,2,0,B|456:152|456:152|456:204,1,100
456,196,61624,2,0,B|456:239|456:239|420:283,1,100,8|0,0:0|0:0,0:0:0:0:
300,332,61994,6,0,P|249:315|204:296,1,100
120,200,62365,1,8,0:0:0:0:
212,332,62550,2,0,P|262:315|308:296,1,100
392,200,62921,1,0,0:0:0:0:
256,240,63105,2,0,L|256:136,1,100,8|0,0:0|0:0,0:0:0:0:
136,88,63475,2,0,P|184:56|232:52,3,100,0|0|8|0,0:0|0:0|0:0|0:0,0:0:0:0:
356,68,64216,2,0,B|408:152|408:152|408:272,1,200,0|8,0:0|0:0,0:0:0:0:
300,324,64771,1,0,0:0:0:0:
196,240,64956,6,0,P|184:192|196:132,1,100
324,144,65327,2,0,P|331:193|319:241,1,100,8|0,0:0|0:0,0:0:0:0:
148,252,65697,6,0,P|136:192|148:128,1,125,8|0,0:0|0:0,0:0:0:0:
364,129,66067,2,0,P|376:191|364:252,1,125,8|0,0:0|0:0,0:0:0:0:
104,268,66437,6,0,P|92:192|104:116,1,150.000005722046,8|0,0:0|0:0,0:0:0:0:
409,120,66808,2,0,P|419:194|408:268,1,150.000005722046,8|0,0:0|0:0,0:0:0:0:
68,284,67178,6,0,P|56:192|68:104,1,175.00000166893,8|0,0:0|0:0,0:0:0:0:
445,110,67548,2,0,P|455:197|444:284,1,175.00000166893,8|0,0:0|0:0,0:0:0:0:
256,192,69400,5,0,0:0:0:0:
104,112,70881,6,0,P|150:96|200:80,1,100
324,76,71251,2,0,P|392:76|448:28,2,100,8|0|0,0:0|0:0|0:0,0:0:0:0:
236,172,71806,1,0,0:0:0:0:
352,348,71991,2,0,B|312:320|312:320|280:276,1,100,8|0,0:0|0:0,0:0:0:0:
80,276,72362,5,0,0:0:0:0:
116,108,72547,1,0,0:0:0:0:
148,276,72732,1,8,0:0:0:0:
184,108,72917,1,0,0:0:0:0:
216,276,73102,1,0,0:0:0:0:
252,108,73287,1,0,0:0:0:0:
284,276,73472,1,8,0:0:0:0:
320,108,73658,1,0,0:0:0:0:
352,276,73843,6,0,L|388:108,1,170.000003242493
456,112,74213,2,0,L|420:278,1,170.000003242493,8|0,0:0|0:0,0:0:0:0:
384,340,74583,2,0,B|332:372|292:336|292:336|180:340,1,200,0|8,0:0|0:0,0:0:0:0:
80,272,75139,1,0,0:0:0:0:
24,96,75324,2,0,P|80:76|128:100,3,100,0|0|8|0,0:0|0:0|0:0|0:0,0:0:0:0:
196,192,76064,2,0,B|248:224|288:188|288:188|387:191,1,200,0|8,0:0|0:0,0:0:0:0:
432,316,76620,1,0,0:0:0:0:
304,320,76805,5,0,0:0:0:0:
176,312,76990,1,0,0:0:0:0:
176,312,77082,1,0,0:0:0:0:
176,312,77175,1,8,0:0:0:0:
80,228,77360,1,0,0:0:0:0:
180,112,77545,5,0,0:0:0:0:
332,272,77730,1,0,0:0:0:0:
180,272,77916,1,8,0:0:0:0:
332,112,78101,1,0,0:0:0:0:
256,216,78286,2,0,L|256:316,2,100,0|0|8,0:0|0:0|0:0,0:0:0:0:
52,52,79026,2,0,B|68:100|68:100|116:136,1,100
240,128,79397,2,0,B|279:98|279:98|295:50,1,100,8|0,0:0|0:0,0:0:0:0:
260,192,80507,6,0,B|324:192|352:228|352:228|324:264|260:264,1,200,8|12,0:0|0:0,0:0:0:0:
252,264,81988,6,0,B|188:264|160:228|160:228|188:192|248:192,1,200,8|12,0:0|0:0,0:0:0:0:
468,52,82729,2,0,P|376:48|336:64,1,100
368,176,83099,1,8,0:0:0:0:
240,52,83284,1,0,0:0:0:0:
240,176,83469,1,0,0:0:0:0:
264,200,83562,1,0,0:0:0:0:
296,216,83655,1,0,0:0:0:0:
328,228,83747,1,0,0:0:0:0:
352,256,83840,1,8,0:0:0:0:
356,292,83932,1,0,0:0:0:0:
340,324,84025,1,0,0:0:0:0:
308,344,84117,1,0,0:0:0:0:
272,348,84210,5,0,0:0:0:0:
236,340,84303,1,0,0:0:0:0:
212,316,84395,1,0,0:0:0:0:
188,288,84488,1,0,0:0:0:0:
152,280,84580,1,8,0:0:0:0:
116,284,84673,1,0,0:0:0:0:
84,272,84765,1,0,0:0:0:0:
60,248,84858,1,0,0:0:0:0:
48,216,84950,2,0,B|32:164|32:164|48:120,3,100,0|0|8|0,0:0|0:0|0:0|0:0,0:0:0:0:
96,68,85691,1,0,0:0:0:0:
416,316,87172,5,4,0:0:0:0:
168,192,88653,5,0,0:0:0:0:
192,152,88777,1,0,0:0:0:0:
232,128,88900,1,0,0:0:0:0:
280,128,89023,1,8,0:0:0:0:
320,156,89147,1,0,0:0:0:0:
340,192,89270,1,0,0:0:0:0:
348,240,89394,6,0,L|412:320,1,100
164,240,89764,2,0,L|101:318,1,100,8|0,0:0|0:0,0:0:0:0:
256,332,90134,1,0,0:0:0:0:
256,284,90258,1,0,0:0:0:0:
256,236,90381,1,0,0:0:0:0:
256,188,90504,2,0,L|196:108,1,100,8|0,0:0|0:0,0:0:0:0:
256,188,90875,2,0,L|316:108,1,100,0|8,0:0|0:0,0:0:0:0:
72,192,91615,6,0,P|100:124|168:92,1,150.000005722046,4|12,0:0|0:0,0:0:0:0:
192,192,92356,2,0,L|192:268,1,75.0000028610231
256,192,92541,2,0,L|256:116,1,75.0000028610231
316,192,92726,2,0,L|316:268,1,75.0000028610231,8|0,0:0|0:0,0:0:0:0:
376,188,92911,2,0,L|376:112,1,75.0000028610231
440,191,93096,6,0,P|412:259|346:291,1,150.000005722046,4|12,0:0|0:0,0:0:0:0:
320,192,93837,2,0,L|320:268,1,75.0000028610231
256,192,94022,2,0,L|256:116,1,75.0000028610231
196,192,94207,2,0,L|196:268,1,75.0000028610231,8|0,0:0|0:0,0:0:0:0:
136,188,94392,2,0,L|136:112,1,75.0000028610231
71,191,94577,6,0,P|99:259|165:291,1,150.000005722046,4|12,0:0|0:0,0:0:0:0:
440,324,95318,2,0,L|368:192,1,150.000005722046
440,60,95688,2,0,L|368:192,1,150.000005722046,8|0,0:0|0:0,0:0:0:0:
240,192,96058,1,0,0:0:0:0:
312,192,96243,1,0,0:0:0:0:
168,192,96429,1,8,0:0:0:0:
240,192,96614,1,0,0:0:0:0:
96,192,96799,2,0,P|96:136|124:96,1,100
232,40,97169,2,0,P|288:32|332:52,1,100,8|0,0:0|0:0,0:0:0:0:
416,120,97539,6,0,B|440:192|440:192|416:264,1,150.000005722046,4|12,0:0|0:0,0:0:0:0:
312,264,98280,2,0,L|276:116,1,150.000005722046
235,118,98650,2,0,L|200:264,1,150.000005722046,8|0,0:0|0:0,0:0:0:0:
96,264,99020,6,0,B|72:192|72:192|96:120,1,150.000005722046,4|12,0:0|0:0,0:0:0:0:
200,120,99761,2,0,L|236:268,1,150.000005722046
276,265,100131,2,0,L|312:120,1,150.000005722046,8|0,0:0|0:0,0:0:0:0:
416,120,100501,6,0,B|440:192|440:192|416:264,1,150.000005722046,4|12,0:0|0:0,0:0:0:0:
312,264,101242,2,0,L|276:116,1,150.000005722046
235,118,101612,2,0,L|200:264,1,150.000005722046,8|0,0:0|0:0,0:0:0:0:
72,284,101982,2,4,L|12:204,3,100,0|0|8|0,0:0|0:0|0:0|0:0,0:0:0:0:
12,180,102723,2,4,L|72:100,3,100,0|0|8|0,0:0|0:0|0:0|0:0,0:0:0:0:
72,192,103464,6,0,P|100:260|168:292,1,150.000005722046,4|12,0:0|0:0,0:0:0:0:
192,192,104205,2,0,L|192:116,1,75.0000028610231
256,192,104390,2,0,L|256:268,1,75.0000028610231
316,192,104575,2,0,L|316:116,1,75.0000028610231,8|0,0:0|0:0,0:0:0:0:
376,196,104760,2,0,L|376:272,1,75.0000028610231
440,192,104945,6,0,P|412:124|346:92,1,150.000005722046,4|12,0:0|0:0,0:0:0:0:
320,192,105686,2,0,L|320:116,1,75.0000028610231
256,192,105871,2,0,L|256:268,1,75.0000028610231
196,192,106056,2,0,L|196:116,1,75.0000028610231,8|8,0:0|0:0,0:0:0:0:
136,196,106241,2,0,L|136:272,1,75.0000028610231
71,192,106426,6,0,P|99:124|165:92,1,150.000005722046,4|12,0:0|0:0,0:0:0:0:
440,60,107167,2,0,L|368:192,1,150.000005722046
440,324,107537,2,0,L|368:192,1,150.000005722046,8|0,0:0|0:0,0:0:0:0:
240,192,107907,1,0,0:0:0:0:
312,192,108092,1,0,0:0:0:0:
168,192,108278,1,8,0:0:0:0:
240,192,108463,1,0,0:0:0:0:
96,192,108648,2,0,P|96:248|124:288,1,100
232,344,109018,2,0,P|288:352|332:332,1,100,8|0,0:0|0:0,0:0:0:0:
416,264,109388,6,0,B|440:192|440:192|416:120,1,150.000005722046,4|12,0:0|0:0,0:0:0:0:
312,120,110129,2,0,L|276:268,1,150.000005722046
235,265,110499,2,0,L|200:120,1,150.000005722046,8|0,0:0|0:0,0:0:0:0:
96,120,110869,6,0,B|72:192|72:192|96:264,1,150.000005722046,4|12,0:0|0:0,0:0:0:0:
200,264,111610,2,0,L|236:116,1,150.000005722046
276,118,111980,2,0,L|312:264,1,150.000005722046,8|0,0:0|0:0,0:0:0:0:
416,264,112350,6,0,B|440:192|440:192|416:120,1,150.000005722046,4|12,0:0|0:0,0:0:0:0:
312,120,113091,2,0,L|276:268,1,150.000005722046
235,265,113461,2,0,L|200:120,1,150.000005722046,8|0,0:0|0:0,0:0:0:0:
72,96,113831,2,4,L|12:176,3,100,0|0|8|0,0:0|0:0|0:0|0:0,0:0:0:0:
12,212,114572,2,4,L|72:292,3,100,0|0|8|0,0:0|0:0|0:0|0:0,0:0:0:0:
104,192,115312,1,12,0:0:0:0:
