osu file format v12

[General]
AudioFilename: Kola Kid square spooner fisher pusher.mp3
AudioLeadIn: 2000
PreviewTime: 1564
Countdown: 0
SampleSet: Normal
StackLeniency: 0.7
Mode: 0
LetterboxInBreaks: 1

[Editor]
Bookmarks: 25564,49564,61564,87064,111064,147064
DistanceSpacing: 1.7
BeatDivisor: 4
GridSize: 512

[Metadata]
Title:square spooner fisher pusher
TitleUnicode:square spooner fisher pusher
Artist:Kola Kid
ArtistUnicode:Kola Kid
Creator:Kert
Version:Endless
Source:Oban Star Racers
Tags:breakcore ending yoko kanno waratteta nold_1702 senaya
BeatmapID:142267
BeatmapSetID:45584

[Difficulty]
HPDrainRate:7
CircleSize:4
OverallDifficulty:9
ApproachRate:9
SliderMultiplier:1.7
SliderTickRate:1

[Events]
//Background and Video events
0,0,"561182_3.jpg",1,1
//Break Periods
2,49764,60026
//Storyboard Layer 0 (Background)
//Storyboard Layer 1 (Fail)
//Storyboard Layer 2 (Pass)
//Storyboard Layer 3 (Foreground)
//Storyboard Sound Samples
//Background Colour Transformations
3,100,213,106,0

[TimingPoints]
64,375,4,1,1,85,1,0
17689,-100,4,1,1,40,0,0
17876,-100,4,1,1,50,0,0
18064,-100,4,1,1,60,0,0
18439,-100,4,1,1,70,0,0
18814,-100,4,1,1,85,0,0
24157,-100,4,1,1,40,0,0
24251,-100,4,1,1,50,0,0
24439,-100,4,1,1,60,0,0
25282,-100,4,1,1,15,0,0
25564,-100,4,1,1,85,0,0
30064,-100,4,1,1,40,0,0
30251,-100,4,1,1,50,0,0
30439,-100,4,1,1,85,0,0
35782,-100,4,1,1,40,0,0
36064,-100,4,1,1,50,0,0
36439,-100,4,1,1,85,0,0
47782,-100,4,1,1,40,0,0
48064,-100,4,1,1,50,0,0
48439,-100,4,1,1,85,0,0
60626,-100,4,1,1,70,0,0
61189,-100,4,1,1,80,0,0
85001,-100,4,1,1,5,0,0
85189,-100,4,1,1,85,0,0
87064,-100,4,1,1,85,0,1
109610,-100,4,1,1,40,0,1
109751,-100,4,1,1,50,0,1
109939,-100,4,1,1,85,0,1
121235,-100,4,1,1,40,0,1
121564,-100,4,1,1,50,0,1
121939,-100,4,1,1,85,0,1
135064,-133.333333333333,4,1,1,80,0,0
135439,-133.333333333333,4,2,1,80,0,0
136564,-133.333333333333,4,2,1,75,0,0
138064,-133.333333333333,4,2,1,70,0,0
139564,-133.333333333333,4,2,1,65,0,0
141064,-133.333333333333,4,2,1,60,0,0
142564,-133.333333333333,4,2,1,55,0,0
144064,-133.333333333333,4,2,1,50,0,0
145564,-133.333333333333,4,2,1,45,0,0
146314,-133.333333333333,4,1,1,40,0,0
146689,-133.333333333333,4,1,1,35,0,0
146782,-133.333333333333,4,2,1,32,0,0
146876,-133.333333333333,4,2,1,30,0,0
146970,-133.333333333333,4,1,1,25,0,0

[Colours]
Combo1 : 62,75,123
Combo2 : 200,133,233
Combo3 : 230,232,183

[HitObjects]
296,272,814,2,0,B|331:258|331:258|355:218,1,85,0|0,0:0|0:0,0:0:0:0:
160,96,1189,2,0,B|173:131|173:131|213:155,1,85,4|0,0:0|0:0,0:0:0:0:
247,151,1470,1,0,0:0:0:0:
277,134,1564,6,0,B|357:86,1,85,0|0,0:0|0:0,0:0:0:0:
424,8,1939,1,8,0:0:0:0:
464,112,2126,2,0,B|520:136,2,42.5,0|0|2,0:0|0:0|0:0,0:0:0:0:
424,216,2501,1,2,0:0:0:0:
456,320,2689,2,0,B|472:352,4,21.25,2|0|2|0|8,0:0|0:0|0:0|0:0|0:0,0:0:0:0:
184,72,3064,6,0,B|160:160,1,85,4|0,0:0|0:0,0:0:0:0:
80,232,3439,2,0,B|155:164|267:228,1,170,8|0,0:0|0:0,0:0:0:0:
320,288,4001,1,0,0:0:0:0:
216,336,4189,1,10,0:0:0:0:
184,328,4282,1,0,0:0:0:0:
152,320,4376,1,8,0:0:0:0:
120,312,4470,1,0,0:0:0:0:
88,304,4564,6,0,B|72:192,1,85,0|0,0:0|0:0,0:0:0:0:
112,112,4939,1,2,0:0:0:0:
208,160,5126,1,0,0:0:0:0:
240,152,5220,1,0,0:0:0:0:
272,144,5314,1,0,0:0:0:0:
384,160,5501,1,0,0:0:0:0:
440,64,5689,2,0,B|424:32,4,21.25,10|0|0|0|0,0:0|0:0|0:0|0:0|0:0,0:0:0:0:
512,136,6064,6,0,B|508:176|508:176|480:224,2,85,0|0|2,0:0|0:0|0:0,0:0:0:0:
352,80,6626,1,0,0:0:0:0:
192,56,6814,1,6,0:0:0:0:
80,152,7001,1,0,0:0:0:0:
104,280,7189,1,10,0:0:0:0:
208,328,7376,1,0,0:0:0:0:
320,344,7564,6,0,B|384:280,1,85,0|0,0:0|0:0,0:0:0:0:
476,224,7939,1,8,0:0:0:0:
424,128,8126,1,0,0:0:0:0:
400,104,8220,1,0,0:0:0:0:
376,80,8314,1,2,0:0:0:0:
352,56,8407,1,0,0:0:0:0:
328,32,8501,1,2,0:0:0:0:
232,84,8689,2,0,B|200:120|200:120|192:160,1,85,2|8,0:0|0:0,0:0:0:0:
332,292,9064,6,0,B|300:259|300:259|259:245,1,85,4|2,0:0|0:0,0:0:0:0:
160,284,9439,2,0,B|140:316,4,21.25
64,232,9814,1,0,0:0:0:0:
40,124,10001,1,0,0:0:0:0:
120,48,10189,2,0,B|136:8,3,42.5,10|0|2|0,0:0|0:0|0:0|0:0,0:0:0:0:
148,64,10564,6,0,B|168:96|212:112|212:112|268:104|268:104|316:120,1,170,12|2,0:0|0:0,0:0:0:0:
372,240,11126,2,0,B|352:272|308:288|308:288|252:280|252:280|204:296,1,170,2|0,0:0|0:0,0:0:0:0:
112,340,11689,1,2,0:0:0:0:
24,260,11876,2,0,B|28:160|112:116,1,170,4|0,0:0|0:0,0:0:0:0:
256,64,12439,5,2,0:0:0:0:
416,88,12626,1,0,0:0:0:0:
486,224,12814,1,6,0:0:0:0:
396,337,13001,1,0,0:0:0:0:
262,311,13189,1,10,0:0:0:0:
188,207,13376,1,0,0:0:0:0:
148,104,13564,6,0,B|80:48,1,85
36,168,13939,1,8,0:0:0:0:
72,292,14126,2,0,B|160:308,1,85,0|2,0:0|0:0,0:0:0:0:
276,352,14501,2,0,B|324:280|424:280,1,170,2|0,0:0|0:0,0:0:0:0:
304,144,15064,6,0,B|240:136|220:92|220:92|192:80|192:80|172:36,1,170,4|8,0:0|0:0,0:0:0:0:
68,72,15626,1,0,0:0:0:0:
68,72,15814,2,0,B|88:164,1,85,0|0,0:0|0:0,0:0:0:0:
60,264,16189,1,10,0:0:0:0:
92,272,16282,1,0,0:0:0:0:
124,280,16376,1,8,0:0:0:0:
156,288,16470,1,0,0:0:0:0:
188,296,16564,6,0,B|272:272,1,85,0|0,0:0|0:0,0:0:0:0:
372,312,16939,1,8,0:0:0:0:
460,248,17126,2,0,B|476:148,1,85,0|2,0:0|0:0,0:0:0:0:
396,84,17501,1,0,0:0:0:0:
292,44,17689,2,0,B|264:20,7,21.25,2|2|2|2|2|2|2|2,0:0|0:0|0:0|0:0|0:0|0:0|0:0|0:0,0:0:0:0:
272,56,18064,6,0,B|184:80,1,85,0|0,0:0|0:0,0:0:0:0:
96,140,18439,1,2,0:0:0:0:
76,248,18626,1,0,0:0:0:0:
148,332,18814,5,6,0:0:0:0:
316,296,19001,1,0,0:0:0:0:
192,208,19189,1,10,0:0:0:0:
300,124,19376,1,0,0:0:0:0:
178,52,19564,6,0,B|138:4,3,42.5,2|0|2|0,0:0|0:0|0:0|0:0,0:0:0:0:
205,58,19939,2,0,B|297:36,1,85,8|0,0:0|0:0,0:0:0:0:
396,60,20314,1,10,0:0:0:0:
488,120,20501,2,0,B|492:168|464:200|464:200|428:216|428:216|404:264,1,170,0|0,0:0|0:0,0:0:0:0:
468,348,21064,6,0,B|384:360,1,85,0|8,0:0|0:0,0:0:0:0:
280,324,21439,2,0,B|297:297,4,21.25
188,260,21814,1,0,0:0:0:0:
160,152,22001,1,0,0:0:0:0:
188,44,22189,1,10,0:0:0:0:
220,48,22282,1,0,0:0:0:0:
252,52,22376,1,0,0:0:0:0:
284,56,22470,1,0,0:0:0:0:
316,60,22564,6,0,B|356:76|356:76|388:108,1,85,14|0,0:0|0:0,0:0:0:0:
420,212,22939,1,2,0:0:0:0:
396,320,23126,5,10,0:0:0:0:
296,272,23314,1,0,0:0:0:0:
264,288,23408,1,0,0:0:0:0:
232,304,23502,1,2,0:0:0:0:
200,196,23689,1,8,0:0:0:0:
136,108,23876,1,0,0:0:0:0:
104,100,23970,1,0,0:0:0:0:
72,92,24064,2,0,B|68:64,7,21.25,10|0|2|0|2|0|2|0,0:0|0:0|0:0|0:0|0:0|0:0|0:0|0:0,0:0:0:0:
72,96,24439,6,0,B|48:204,1,85
92,284,24814,1,2,0:0:0:0:
196,320,25001,1,0,0:0:0:0:
304,348,25189,2,0,B|404:360,1,85,2|0,0:0|0:0,0:0:0:0:
192,168,25564,6,0,B|160:135|160:135|151:70,1,85,4|0,0:0|0:0,0:0:0:0:
244,28,25939,1,8,0:0:0:0:
300,124,26126,1,0,0:0:0:0:
328,144,26220,1,0,0:0:0:0:
356,164,26314,1,2,0:0:0:0:
388,156,26407,1,0,0:0:0:0:
420,144,26501,1,2,0:0:0:0:
472,48,26689,2,0,B|460:16,4,21.25,2|0|0|0|8,0:0|0:0|0:0|0:0|0:0,0:0:0:0:
152,216,27064,6,0,B|116:188|116:188|100:148,1,85,4|0,0:0|0:0,0:0:0:0:
264,196,27439,2,0,B|256:292|164:320,1,170,8|0,0:0|0:0,0:0:0:0:
60,284,28001,1,0,0:0:0:0:
16,184,28189,5,6,0:0:0:0:
92,104,28376,1,0,0:0:0:0:
168,24,28564,2,0,B|232:40|232:40|264:64|264:64|332:80,1,170,6|8,0:0|0:0,0:0:0:0:
436,96,29126,1,0,0:0:0:0:
488,232,29314,6,0,B|476:260,4,21.25,2|0|0|0|2,0:0|0:0|0:0|0:0|0:0,0:0:0:0:
288,312,29689,2,0,B|276:284,4,21.25,10|0|0|0|0,0:0|0:0|0:0|0:0|0:0,0:0:0:0:
238,117,30064,2,0,B|262:89,7,21.25,2|0|0|0|0|0|0|0,0:0|0:0|0:0|0:0|0:0|0:0|0:0|0:0,0:0:0:0:
216,104,30439,6,0,B|176:92|176:92|148:60,1,85,2|0,0:0|0:0,0:0:0:0:
6,27,30814,1,6,0:0:0:0:
73,144,31001,1,0,0:0:0:0:
27,263,31189,1,10,0:0:0:0:
121,334,31376,1,0,0:0:0:0:
248,348,31564,5,0,0:0:0:0:
276,328,31657,1,0,0:0:0:0:
304,308,31751,1,2,0:0:0:0:
332,288,31845,1,0,0:0:0:0:
360,268,31939,1,2,0:0:0:0:
468,296,32126,1,0,0:0:0:0:
436,188,32314,2,0,B|452:88,1,85,2|0,0:0|0:0,0:0:0:0:
349,56,32689,1,8,0:0:0:0:
134,108,32876,6,0,B|106:140|106:140|92:195,1,85
136,284,33251,1,8,0:0:0:0:
228,344,33439,2,0,B|252:332,4,21.25
124,380,33814,1,0,0:0:0:0:
32,320,34001,1,0,0:0:0:0:
312,288,34189,5,8,0:0:0:0:
344,292,34282,1,0,0:0:0:0:
376,296,34376,1,2,0:0:0:0:
408,300,34470,1,0,0:0:0:0:
440,304,34564,2,0,B|472:272|472:272|488:212,1,85,10|0,0:0|0:0,0:0:0:0:
444,132,34939,1,0,0:0:0:0:
372,48,35126,1,2,0:0:0:0:
264,68,35314,2,0,B|208:56,1,42.5,4|0,0:0|0:0,0:0:0:0:
192,44,35502,2,0,B|132:48,1,42.5,2|0,0:0|0:0,0:0:0:0:
116,60,35689,6,0,B|100:32,6,21.25,0|0|0|0|0|0|0,0:0|0:0|0:0|0:0|0:0|0:0|0:0,0:0:0:0:
40,140,36064,2,0,B|12:152,7,21.25,2|0|0|0|0|0|0|0,0:0|0:0|0:0|0:0|0:0|0:0|0:0|0:0,0:0:0:0:
32,160,36439,6,0,B|40:204|40:204|72:248,1,85,2|0,0:0|0:0,0:0:0:0:
204,272,36814,1,6,0:0:0:0:
276,156,37002,1,0,0:0:0:0:
380,84,37189,1,10,0:0:0:0:
496,60,37377,1,0,0:0:0:0:
504,200,37564,6,0,B|420:224,1,85
468,324,37939,1,8,0:0:0:0:
360,344,38126,1,0,0:0:0:0:
328,332,38220,1,0,0:0:0:0:
296,320,38314,1,2,0:0:0:0:
276,292,38407,1,0,0:0:0:0:
260,264,38501,1,2,0:0:0:0:
284,156,38689,2,0,B|312:140,4,21.25,2|0|0|0|8,0:0|0:0|0:0|0:0|0:0,0:0:0:0:
152,320,39064,6,0,B|108:304|108:304|76:264,1,85,10|0,0:0|0:0,0:0:0:0:
140,188,39439,1,10,0:0:0:0:
76,100,39626,1,0,0:0:0:0:
160,28,39814,2,0,B|336:56,1,170,4|8,0:0|0:0,0:0:0:0:
396,144,40376,1,0,0:0:0:0:
464,56,40564,6,0,B|533:117|504:210,1,170,6|8,0:0|0:0,0:0:0:0:
440,296,41126,1,0,0:0:0:0:
344,352,41314,2,0,B|304:336|304:336|272:292,1,85,2|0,0:0|0:0,0:0:0:0:
168,308,41689,2,0,B|163:265|163:265|187:216,1,85,8|0,0:0|0:0,0:0:0:0:
256,148,42064,6,0,B|288:176|288:176|336:188,1,85,0|2,0:0|0:0,0:0:0:0:
420,120,42439,1,2,0:0:0:0:
336,52,42626,2,0,B|256:3|176:52,1,170,6|0,0:0|0:0,0:0:0:0:
92,120,43189,1,10,0:0:0:0:
48,220,43376,5,0,0:0:0:0:
60,252,43470,1,0,0:0:0:0:
76,280,43564,1,0,0:0:0:0:
92,308,43657,1,0,0:0:0:0:
124,312,43751,1,2,0:0:0:0:
160,316,43845,1,0,0:0:0:0:
192,320,43939,6,0,B|236:312|236:312|272:288,1,85,2|0,0:0|0:0,0:0:0:0:
248,180,44314,2,0,B|352:216,1,85
432,244,44689,1,8,0:0:0:0:
484,100,44876,6,0,B|472:56,2,42.5,0|0|0,0:0|0:0|0:0,0:0:0:0:
376,128,45251,1,10,0:0:0:0:
284,68,45439,1,0,0:0:0:0:
32,296,46189,5,10,0:0:0:0:
41,264,46282,1,0,0:0:0:0:
49,230,46376,1,2,0:0:0:0:
59,197,46470,1,0,0:0:0:0:
68,165,46564,2,0,B|93:134|93:134|142:112,1,85,8|0,0:0|0:0,0:0:0:0:
240,152,46939,1,0,0:0:0:0:
304,60,47126,1,2,0:0:0:0:
416,28,47314,5,4,0:0:0:0:
428,60,47407,1,0,0:0:0:0:
440,92,47501,1,2,0:0:0:0:
452,124,47595,1,0,0:0:0:0:
460,156,47689,6,0,B|484:176,5,21.25,0|0|0|0|0|0,0:0|0:0|0:0|0:0|0:0|0:0,0:0:0:0:
388,240,48064,2,0,B|360:228,5,21.25
296,320,48439,5,2,0:0:0:0:
264,316,48532,1,0,0:0:0:0:
232,312,48626,1,8,0:0:0:0:
200,308,48720,1,0,0:0:0:0:
168,304,48814,1,2,0:0:0:0:
100,196,49001,5,0,0:0:0:0:
208,112,49189,2,0,B|236:128|236:128|252:148|252:148|260:176,1,85,8|0,0:0|0:0,0:0:0:0:
348,68,49564,1,4,0:0:0:0:
64,40,60626,6,0,B|40:124|40:124|52:160|52:160|36:212,1,170,0|0,0:0|0:0,0:0:0:0:
136,120,61189,2,0,B|244:84,1,85,0|0,0:0|0:0,0:0:0:0:
302,186,61564,5,2,0:0:0:0:
336,192,61657,1,0,0:0:0:0:
369,197,61751,2,0,B|402:187|402:187|417:177|417:177|438:148,1,85,0|8,0:0|0:0,0:0:0:0:
336,72,62126,1,2,0:0:0:0:
192,100,62314,2,0,B|156:72|156:72|132:28,1,85,0|2,0:0|0:0,0:0:0:0:
116,224,62689,2,0,B|60:228,2,42.5,0|0|10,0:0|0:0|0:0,0:0:0:0:
200,344,63064,5,2,0:0:0:0:
292,280,63251,1,0,0:0:0:0:
336,180,63439,1,8,0:0:0:0:
336,72,63626,1,0,0:0:0:0:
444,44,63814,2,0,B|464:128,1,85,6|0,0:0|0:0,0:0:0:0:
492,236,64189,1,8,0:0:0:0:
464,256,64282,1,0,0:0:0:0:
436,276,64376,1,10,0:0:0:0:
408,292,64470,1,0,0:0:0:0:
376,308,64564,6,0,B|288:320,1,85,0|0,0:0|0:0,0:0:0:0:
172,304,64939,1,8,0:0:0:0:
65,233,65126,2,0,B|78:191,2,42.5,2|0|0,0:0|0:0|0:0,0:0:0:0:
184,115,65501,2,0,B|211:155,2,42.5,0|0|8,0:0|0:0|0:0,0:0:0:0:
315,62,65876,1,2,0:0:0:0:
458,78,66064,1,2,0:0:0:0:
420,284,66251,6,0,B|464:320,1,42.5,2|0,0:0|0:0,0:0:0:0:
460,172,66439,2,0,B|520:160,1,42.5,2|0,0:0|0:0,0:0:0:0:
288,280,66626,2,0,B|292:332,1,42.5,8|0,0:0|0:0,0:0:0:0:
404,76,66814,2,0,B|460:56,1,42.5,0|0,0:0|0:0,0:0:0:0:
304,172,67001,2,0,B|312:208,3,21.25,2|0|2|0,0:0|0:0|0:0|0:0,0:0:0:0:
320,156,67189,2,0,B|348:140,7,21.25,0|0|0|0|8|0|0|0,0:0|0:0|0:0|0:0|0:0|0:0|0:0|0:0,0:0:0:0:
288,152,67564,6,0,B|196:120,1,85,4|0,0:0|0:0,0:0:0:0:
116,44,67939,1,8,0:0:0:0:
36,132,68126,1,2,0:0:0:0:
44,164,68220,1,0,0:0:0:0:
52,196,68314,1,0,0:0:0:0:
60,228,68407,1,0,0:0:0:0:
68,260,68501,1,2,0:0:0:0:
164,328,68689,6,0,B|256:336,1,85,2|8,0:0|0:0,0:0:0:0:
296,224,69064,2,0,B|380:216,1,85,0|8,0:0|0:0,0:0:0:0:
472,140,69439,2,0,B|488:104,4,21.25
372,76,69814,1,0,0:0:0:0:
256,56,70001,1,0,0:0:0:0:
140,76,70189,2,0,B|104:32,3,42.5,8|0|2|2,0:0|0:0|0:0|0:0,0:0:0:0:
104,76,70564,6,0,B|68:108|68:108|48:160,1,85,2|0,0:0|0:0,0:0:0:0:
180,176,70939,2,0,B|207:210|207:210|214:265,1,85,0|2,0:0|0:0,0:0:0:0:
124,348,71314,2,0,B|76:324,1,42.5,4|2,0:0|0:0,0:0:0:0:
60,308,71501,2,0,B|40:256,1,42.5,0|0,0:0|0:0,0:0:0:0:
32,236,71689,2,0,B|28:204|28:204|32:176|32:176|44:148,1,85,0|0,0:0|0:0,0:0:0:0:
188,48,72064,6,0,B|244:24|288:48|288:48|312:52|312:52|356:88,1,170,4|0,0:0|0:0,0:0:0:0:
500,224,72626,2,0,B|444:200|400:224|400:224|376:228|376:228|332:264,1,170,2|0,0:0|0:0,0:0:0:0:
260,344,73189,2,0,B|176:316,1,85,8|0,0:0|0:0,0:0:0:0:
216,204,73564,6,0,B|164:120,1,85
76,56,73939,1,8,0:0:0:0:
20,160,74126,1,0,0:0:0:0:
28,192,74220,1,0,0:0:0:0:
36,224,74314,1,2,0:0:0:0:
60,248,74407,1,0,0:0:0:0:
84,272,74501,1,8,0:0:0:0:
192,328,74689,1,2,0:0:0:0:
216,304,74783,1,0,0:0:0:0:
240,280,74876,1,2,0:0:0:0:
272,272,74970,1,0,0:0:0:0:
304,264,75064,6,0,B|328:284,8,21.25,8|2|0|2|0|2|0|2|8,0:0|0:0|0:0|0:0|0:0|0:0|0:0|0:0|0:0,0:0:0:0:
408,212,75626,1,0,0:0:0:0:
460,104,75814,2,0,B|440:76,7,21.25
420,96,76189,6,0,B|368:64,1,42.5,8|0,0:0|0:0,0:0:0:0:
352,64,76376,2,0,B|284:56,1,42.5,8|0,0:0|0:0,0:0:0:0:
276,60,76564,6,0,B|168:88,1,85,0|0,0:0|0:0,0:0:0:0:
92,144,76939,2,0,B|120:252,1,85,0|2,0:0|0:0,0:0:0:0:
48,328,77314,2,0,B|24:360,3,21.25,0|0|0|0,0:0|0:0|0:0|0:0,0:0:0:0:
64,328,77501,2,0,B|148:336,1,85,0|8,0:0|0:0,0:0:0:0:
268,324,77876,1,2,0:0:0:0:
352,240,78064,1,2,0:0:0:0:
192,160,78251,6,0,B|160:188,1,42.5,2|0,0:0|0:0,0:0:0:0:
168,28,78439,2,0,B|124:24,1,42.5,2|0,0:0|0:0,0:0:0:0:
324,76,78626,2,0,B|348:96,3,21.25
316,72,78814,6,0,B|280:76|280:76|264:84|264:84|220:88,1,85,8|6,0:0|0:0,0:0:0:0:
440,116,79189,2,0,B|460:84,7,21.25,0|0|2|2|8|0|0|0,0:0|0:0|0:0|0:0|0:0|0:0|0:0|0:0,0:0:0:0:
448,128,79564,6,0,B|460:164|460:164|452:212,1,85,6|0,0:0|0:0,0:0:0:0:
380,304,79939,1,8,0:0:0:0:
268,348,80126,1,0,0:0:0:0:
240,332,80220,1,0,0:0:0:0:
212,316,80314,1,2,0:0:0:0:
184,300,80407,1,2,0:0:0:0:
156,284,80501,1,2,0:0:0:0:
132,168,80689,1,0,0:0:0:0:
248,148,80876,6,0,B|292:128|292:128|320:88,1,85,8|0,0:0|0:0,0:0:0:0:
424,52,81251,1,8,0:0:0:0:
412,172,81439,2,0,B|424:200,4,21.25
396,292,81814,2,0,B|308:304,1,85
200,340,82189,5,10,0:0:0:0:
172,320,82282,1,0,0:0:0:0:
144,300,82376,1,2,0:0:0:0:
112,304,82470,1,0,0:0:0:0:
80,308,82564,5,10,0:0:0:0:
60,280,82657,1,8,0:0:0:0:
40,252,82751,1,2,0:0:0:0:
24,224,82845,1,2,0:0:0:0:
12,192,82939,2,0,B|20:148|20:148|60:108,1,85,4|2,0:0|0:0,0:0:0:0:
152,64,83314,6,0,B|217:92,1,42.5,4|0,0:0|0:0,0:0:0:0:
225,89,83501,2,0,B|292:79,1,42.5,2|0,0:0|0:0,0:0:0:0:
298,70,83689,2,0,B|334:68|334:68|361:73|382:92,1,85
376,260,84064,6,0,B|372:316|324:344|324:344|304:364|304:364|244:352,1,170
156,224,84626,2,0,B|101:209|83:156|83:156|67:133|67:133|90:76,1,170,2|0,0:0|0:0,0:0:0:0:
256,192,85189,12,4,86314,0:0:0:0:
64,64,86689,5,8,0:0:0:0:
64,64,86782,1,0,0:0:0:0:
64,64,86876,1,8,0:0:0:0:
64,64,86970,1,0,0:0:0:0:
64,64,87064,6,0,B|148:48,1,85,6|0,0:0|0:0,0:0:0:0:
284,64,87439,1,8,0:0:0:0:
412,104,87626,1,2,0:0:0:0:
424,136,87720,1,0,0:0:0:0:
440,168,87814,1,0,0:0:0:0:
468,184,87907,1,0,0:0:0:0:
500,200,88001,2,0,B|512:168,8,21.25,2|0|0|0|0|0|0|0|8,0:0|0:0|0:0|0:0|0:0|0:0|0:0|0:0|0:0,0:0:0:0:
272,312,88564,6,0,B|308:284|308:284|348:272,1,85,4|0,0:0|0:0,0:0:0:0:
224,208,88939,1,8,0:0:0:0:
192,200,89032,1,0,0:0:0:0:
160,192,89126,1,0,0:0:0:0:
92,92,89314,2,0,B|76:60,7,21.25
108,92,89689,6,0,B|192:72,1,85,8|8,0:0|0:0,0:0:0:0:
324,92,90064,1,2,0:0:0:0:
356,108,90157,1,0,0:0:0:0:
388,124,90251,1,0,0:0:0:0:
420,116,90345,1,0,0:0:0:0:
452,108,90439,1,8,0:0:0:0:
500,236,90626,6,0,B|478:275|478:275|438:301,1,85
324,220,91001,1,0,0:0:0:0:
284,352,91189,2,0,B|196:360,1,85,10|0,0:0|0:0,0:0:0:0:
80,292,91564,5,0,0:0:0:0:
12,176,91751,1,0,0:0:0:0:
32,148,91845,1,0,0:0:0:0:
48,120,91939,1,2,0:0:0:0:
68,92,92032,1,0,0:0:0:0:
88,64,92126,1,0,0:0:0:0:
224,88,92314,6,0,B|268:80|268:80|304:56,1,85,2|0,0:0|0:0,0:0:0:0:
420,124,92689,2,0,B|408:180,2,42.5,10|0|2,0:0|0:0|0:0,0:0:0:0:
468,332,93064,5,2,0:0:0:0:
436,320,93157,1,0,0:0:0:0:
404,308,93251,1,2,0:0:0:0:
372,312,93345,1,0,0:0:0:0:
340,320,93439,1,2,0:0:0:0:
216,268,93626,2,0,B|196:216,2,42.5,0|0|2,0:0|0:0|0:0,0:0:0:0:
100,336,94001,1,0,0:0:0:0:
80,308,94095,1,0,0:0:0:0:
60,280,94189,1,8,0:0:0:0:
40,252,94282,1,0,0:0:0:0:
20,224,94376,1,2,0:0:0:0:
96,112,94564,6,0,B|84:72|84:72|48:40,1,85,0|2,0:0|0:0,0:0:0:0:
188,160,94939,2,0,B|176:192,3,21.25
204,160,95126,2,0,B|296:136,2,85
256,288,95689,6,0,B|308:304,1,42.5,10|0,0:0|0:0,0:0:0:0:
332,304,95876,2,0,B|388:296,1,42.5,2|2,0:0|0:0,0:0:0:0:
404,284,96064,2,0,B|440:256|440:256|452:212,1,85,12|0,0:0|0:0,0:0:0:0:
376,104,96439,1,0,0:0:0:0:
256,40,96626,5,2,0:0:0:0:
256,176,96814,2,0,B|256:212,4,21.25
140,104,97189,1,2,0:0:0:0:
76,224,97376,1,0,0:0:0:0:
176,316,97564,2,0,B|152:332,3,21.25
192,312,97751,2,0,B|200:276,3,21.25
204,324,97939,6,0,B|288:344,1,85
416,300,98314,1,2,0:0:0:0:
492,188,98501,2,0,B|484:144|484:144|456:108,2,85,0|10|0,0:0|0:0|0:0,0:0:0:0:
356,200,99064,5,0,0:0:0:0:
272,92,99251,1,0,0:0:0:0:
240,84,99345,1,0,0:0:0:0:
208,76,99439,1,10,0:0:0:0:
116,176,99626,1,0,0:0:0:0:
97,204,99720,1,0,0:0:0:0:
78,233,99814,1,0,0:0:0:0:
48,242,99907,1,0,0:0:0:0:
16,252,100001,2,0,B|4:220,8,21.25,2|2|2|2|2|2|2|2|2,0:0|0:0|0:0|0:0|0:0|0:0|0:0|0:0|0:0,0:0:0:0:
260,312,100564,6,0,B|227:279|227:279|213:229,1,85,4|0,0:0|0:0,0:0:0:0:
288,128,100939,1,8,0:0:0:0:
320,116,101032,1,0,0:0:0:0:
352,104,101126,1,0,0:0:0:0:
484,144,101314,2,0,B|472:236,1,85
388,336,101689,6,0,B|332:344,1,42.5,10|0,0:0|0:0,0:0:0:0:
312,348,101876,2,0,B|272:340,1,42.5,8|0,0:0|0:0,0:0:0:0:
240,328,102064,6,0,B|204:300|204:300|184:260,1,85
224,132,102439,1,8,0:0:0:0:
92,100,102626,2,0,B|68:192,1,85,0|0,0:0|0:0,0:0:0:0:
92,316,103001,1,0,0:0:0:0:
204,240,103189,2,0,B|288:256,1,85,8|0,0:0|0:0,0:0:0:0:
415,303,103564,5,0,0:0:0:0:
480,183,103751,1,0,0:0:0:0:
450,166,103845,1,0,0:0:0:0:
421,148,103939,1,2,0:0:0:0:
406,119,104032,1,0,0:0:0:0:
394,89,104126,1,0,0:0:0:0:
268,36,104314,5,2,0:0:0:0:
220,164,104501,2,0,B|228:200,4,21.25,8|0|0|0|0,0:0|0:0|0:0|0:0|0:0,0:0:0:0:
188,156,104782,1,0,0:0:0:0:
156,148,104876,1,10,0:0:0:0:
56,244,105064,5,0,0:0:0:0:
80,268,105157,1,0,0:0:0:0:
104,292,105251,1,2,0:0:0:0:
128,316,105345,1,2,0:0:0:0:
152,340,105439,1,2,0:0:0:0:
284,304,105626,2,0,B|328:292,1,42.5
346,267,105814,2,0,B|354:223|354:223|343:178,2,85,12|2|8,0:0|0:0|0:0,0:0:0:0:
460,348,106376,5,0,0:0:0:0:
460,348,106564,2,0,B|484:252,1,85,0|2,0:0|0:0,0:0:0:0:
452,132,106939,2,0,B|440:104,4,21.25,0|0|0|0|0,0:0|0:0|0:0|0:0|0:0,0:0:0:0:
320,156,107314,2,0,B|280:140|280:140|252:104,1,85
126,60,107689,1,8,0:0:0:0:
115,91,107782,1,0,0:0:0:0:
103,123,107876,1,2,0:0:0:0:
91,155,107970,1,0,0:0:0:0:
80,187,108064,6,0,B|89:231|89:231|125:272,1,85,12|0,0:0|0:0,0:0:0:0:
235,325,108439,1,0,0:0:0:0:
369,345,108626,2,0,B|406:321|406:321|431:282,1,85,2|0,0:0|0:0,0:0:0:0:
307,223,109001,1,0,0:0:0:0:
423,151,109189,2,0,B|436:69,1,85,2|0,0:0|0:0,0:0:0:0:
300,69,109564,6,0,B|317:45,7,21.25,2|0|2|0|2|0|2|0,0:0|0:0|0:0|0:0|0:0|0:0|0:0|0:0,0:0:0:0:
292,73,109939,2,0,B|193:57,1,85
73,38,110314,1,2,0:0:0:0:
174,173,110501,5,4,0:0:0:0:
110,331,110689,1,12,0:0:0:0:
7,195,110876,1,4,0:0:0:0:
174,173,111064,6,0,B|257:163,1,85,4|0,0:0|0:0,0:0:0:0:
375,92,111439,1,8,0:0:0:0:
438,211,111626,2,0,B|475:234,2,42.5,0|0|2,0:0|0:0|0:0,0:0:0:0:
364,326,112001,1,0,0:0:0:0:
230,354,112189,2,0,B|193:328|193:328|175:290,1,85,2|0,0:0|0:0,0:0:0:0:
28,118,112564,6,0,B|64:31|164:32,1,170,4|2,0:0|0:0,0:0:0:0:
294,61,113126,1,0,0:0:0:0:
408,135,113314,2,0,B|436:169|436:169|442:209,1,85,4|0,0:0|0:0,0:0:0:0:
321,273,113689,2,0,B|304:313|304:313|271:337,1,85,4|0,0:0|0:0,0:0:0:0:
140,298,114064,6,0,B|105:241|105:241|119:202|119:202|88:147,1,170,6|8,0:0|0:0,0:0:0:0:
198,67,114626,1,0,0:0:0:0:
307,147,114814,2,0,B|345:126|345:126|363:89,1,85,2|0,0:0|0:0,0:0:0:0:
486,143,115189,2,0,B|468:233,1,85,8|0,0:0|0:0,0:0:0:0:
378,327,115564,5,0,0:0:0:0:
248,286,115751,2,0,B|194:279,1,42.5,2|0,0:0|0:0,0:0:0:0:
172,272,115939,2,0,B|101:286,1,42.5,0|0,0:0|0:0,0:0:0:0:
98,292,116126,2,0,B|64:261|64:261|53:224,1,85,0|2,0:0|0:0,0:0:0:0:
113,101,116501,2,0,B|77:88,4,21.25,8|0|0|0|0,0:0|0:0|0:0|0:0|0:0,0:0:0:0:
139,81,116782,1,0,0:0:0:0:
166,61,116876,1,10,0:0:0:0:
291,115,117064,5,0,0:0:0:0:
321,123,117157,1,0,0:0:0:0:
356,132,117251,1,2,0:0:0:0:
387,140,117345,1,0,0:0:0:0:
420,150,117439,1,2,0:0:0:0:
469,276,117626,2,0,B|436:313,1,42.5,2|0,0:0|0:0,0:0:0:0:
413,329,117814,2,0,B|359:343,1,42.5,0|0,0:0|0:0,0:0:0:0:
338,334,118001,2,0,B|298:319|298:319|269:283,2,85,0|2|0,0:0|0:0|0:0,0:0:0:0:
203,120,118564,6,0,B|165:128|165:128|131:160,1,85,0|2,0:0|0:0,0:0:0:0:
43,264,118939,2,0,B|14:248,4,21.25
169,314,119314,2,0,B|253:304,1,85
379,330,119689,5,8,0:0:0:0:
406,311,119782,1,0,0:0:0:0:
434,291,119876,1,2,0:0:0:0:
442,257,119970,1,0,0:0:0:0:
446,223,120064,1,12,0:0:0:0:
422,89,120251,2,0,B|440:63,3,21.25
412,93,120439,2,0,B|323:76,1,85,0|2,0:0|0:0,0:0:0:0:
198,35,120814,5,2,0:0:0:0:
170,57,120907,1,0,0:0:0:0:
143,78,121001,1,0,0:0:0:0:
133,111,121095,1,0,0:0:0:0:
124,144,121189,2,0,B|144:163,6,21.25,0|0|0|0|0|0|0,0:0|0:0|0:0|0:0|0:0|0:0|0:0,0:0:0:0:
61,235,121564,2,0,B|40:216,7,21.25
64,249,121939,6,0,B|87:285|87:285|125:304,1,85
282,338,122314,1,2,0:0:0:0:
422,278,122501,1,0,0:0:0:0:
485,147,122689,2,0,B|474:105|474:105|443:75,1,85,12|0,0:0|0:0,0:0:0:0:
312,41,123064,6,0,B|229:60,1,85
116,137,123439,1,10,0:0:0:0:
82,268,123626,2,0,B|102:323,2,42.5,0|0|2,0:0|0:0|0:0,0:0:0:0:
237,339,124001,2,0,B|279:354|279:354|362:347|397:299,1,170,2|2,0:0|0:0,0:0:0:0:
285,162,124564,6,0,B|353:85,1,85,2|0,0:0|0:0,0:0:0:0:
464,44,124939,2,0,B|491:79|491:79|498:120,1,85,8|0,0:0|0:0,0:0:0:0:
487,256,125314,2,0,B|509:246,5,21.25
386,315,125689,5,8,0:0:0:0:
359,294,125782,1,0,0:0:0:0:
331,273,125876,1,8,0:0:0:0:
297,274,125970,1,0,0:0:0:0:
261,272,126064,2,0,B|228:230,1,42.5,6|0,0:0|0:0,0:0:0:0:
217,209,126252,2,0,B|211:153,1,42.5
199,135,126439,6,0,B|183:104|183:104|169:86|169:86|142:70,1,85,0|0,0:0|0:0,0:0:0:0:
48,169,126814,2,0,B|15:189,4,21.25,2|0|0|0|0,0:0|0:0|0:0|0:0|0:0,0:0:0:0:
129,278,127189,2,0,B|142:250,4,21.25,8|0|0|0|0,0:0|0:0|0:0|0:0|0:0,0:0:0:0:
256,325,127564,5,0,0:0:0:0:
383,278,127751,1,0,0:0:0:0:
464,169,127939,1,2,0:0:0:0:
434,36,128126,1,0,0:0:0:0:
224,217,128314,6,0,B|265:194|265:194|290:152,1,85,2|0,0:0|0:0,0:0:0:0:
196,58,128689,2,0,B|179:16,2,42.5,8|0|2,0:0|0:0|0:0,0:0:0:0:
66,101,129064,5,2,0:0:0:0:
62,133,129157,1,0,0:0:0:0:
57,167,129251,1,8,0:0:0:0:
54,201,129345,1,0,0:0:0:0:
49,235,129439,1,2,0:0:0:0:
149,326,129626,2,0,B|195:335,1,42.5,0|0,0:0|0:0,0:0:0:0:
224,330,129814,2,0,B|282:316,1,42.5,2|2,0:0|0:0,0:0:0:0:
298,311,130001,2,0,B|344:316|344:316|377:336,2,85,0|8|0,0:0|0:0|0:0,0:0:0:0:
171,138,130564,6,0,B|256:104,1,85,4|2,0:0|0:0,0:0:0:0:
310,27,130939,2,0,B|262:115|340:190,1,170,0|0,0:0|0:0,0:0:0:0:
459,233,131501,1,0,0:0:0:0:
358,324,131689,5,8,0:0:0:0:
326,330,131782,1,0,0:0:0:0:
292,335,131876,1,2,0:0:0:0:
259,342,131970,1,0,0:0:0:0:
224,346,132064,6,0,B|185:329|185:329|156:292,1,85,12|0,0:0|0:0,0:0:0:0:
256,187,132439,1,0,0:0:0:0:
388,220,132626,2,0,B|453:149|413:62,1,170,2|0,0:0|0:0,0:0:0:0:
98,62,133189,2,0,B|58:149|123:220,1,170,4|4,0:0|0:0,0:0:0:0:
256,284,133751,1,4,0:0:0:0:
352,119,133939,6,0,B|330:155,1,42.5,2|0,0:0|0:0,0:0:0:0:
159,119,134126,2,0,B|182:155,1,42.5,10|0,0:0|0:0,0:0:0:0:
359,250,134314,2,0,B|463:224,1,85,0|0,0:0|0:0,0:0:0:0:
70,229,134689,2,0,B|153:250,1,85,10|0,0:0|0:0,0:0:0:0:
484,170,135064,6,0,B|474:100|422:79|422:79|406:55|406:55|348:32,1,191.249994300306,0|0,0:0|0:0,0:0:0:0:
267,76,135814,1,2,0:0:0:0:
169,103,136001,1,0,0:0:0:0:
81,50,136189,1,0,0:0:0:0:
54,339,136564,5,2,0:0:0:0:
131,273,136751,1,0,0:0:0:0:
232,286,136939,2,0,B|287:292|287:292|338:275|338:275|359:242|359:242|385:230|403:210|403:210|424:157,1,254.999992400408,2|2,0:0|0:0,0:0:0:0:
481,77,137876,1,0,0:0:0:0:
387,37,138064,6,0,B|315:23|267:66,1,127.499996200204,0|0,0:0|0:0,0:0:0:0:
217,154,138626,1,0,0:0:0:0:
234,254,138814,6,0,B|295:274,1,63.749998100102,2|0,0:0|0:0,0:0:0:0:
97,208,139189,2,0,B|123:266,1,63.749998100102,0|0,0:0|0:0,0:0:0:0:
6,134,139564,5,0,0:0:0:0:
70,55,139751,1,2,0:0:0:0:
171,41,139939,1,0,0:0:0:0:
262,85,140126,2,0,B|314:131|383:117,1,127.499996200204,2|0,0:0|0:0,0:0:0:0:
477,85,140689,1,0,0:0:0:0:
442,293,141064,5,2,0:0:0:0:
442,293,141439,1,0,0:0:0:0:
365,226,141626,1,0,0:0:0:0:
275,176,141814,2,0,B|205:153,1,63.749998100102,2|0,0:0|0:0,0:0:0:0:
112,144,142189,1,0,0:0:0:0:
461,57,142564,6,0,B|442:130,1,63.749998100102,2|0,0:0|0:0,0:0:0:0:
348,85,142939,1,2,0:0:0:0:
51,327,143689,6,0,B|67:265,1,63.749998100102,2|0,0:0|0:0,0:0:0:0:
164,299,144064,2,0,B|214:255|282:265,1,127.499996200204,2|0,0:0|0:0,0:0:0:0:
378,300,144626,1,0,0:0:0:0:
472,261,144814,2,0,B|498:201,1,63.749998100102,2|0,0:0|0:0,0:0:0:0:
423,132,145189,2,0,B|409:64,1,63.749998100102,0|0,0:0|0:0,0:0:0:0:
314,107,145564,5,2,0:0:0:0:
267,211,145751,1,0,0:0:0:0:
155,273,145939,1,2,0:0:0:0:
20,229,146126,1,2,0:0:0:0:
57,77,146314,6,0,B|122:63,1,63.749998100102,6|0,0:0|0:0,0:0:0:0:
219,82,146689,1,2,0:0:0:0:
249,90,146782,1,0,0:0:0:0:
284,99,146876,1,0,0:0:0:0:
315,107,146970,1,2,0:0:0:0:
