osu file format v12

[General]
AudioFilename: Kola Kid square spooner fisher pusher.mp3
AudioLeadIn: 2000
PreviewTime: 1564
Countdown: 0
SampleSet: Normal
StackLeniency: 0.7
Mode: 0
LetterboxInBreaks: 1

[Editor]
Bookmarks: 25564,49564,61564,87064,111064,147064
DistanceSpacing: 1.1
BeatDivisor: 4
GridSize: 4

[Metadata]
Title:square spooner fisher pusher
TitleUnicode:square spooner fisher pusher
Artist:Kola Kid
ArtistUnicode:Kola Kid
Creator:Kert
Version:Calm
Source:Oban Star Racers
Tags:breakcore ending yoko kanno waratteta nold_1702 senaya
BeatmapID:222974
BeatmapSetID:45584

[Difficulty]
HPDrainRate:3
CircleSize:4
OverallDifficulty:3
ApproachRate:4
SliderMultiplier:1
SliderTickRate:1

[Events]
//Background and Video events
0,0,"561182_3.jpg",1,1
//Break Periods
2,49764,59306
//Storyboard Layer 0 (Background)
//Storyboard Layer 1 (Fail)
//Storyboard Layer 2 (Pass)
//Storyboard Layer 3 (Foreground)
//Storyboard Sound Samples
//Background Colour Transformations
3,100,213,106,0

[TimingPoints]
64,375,4,1,1,85,1,0
87064,-100,4,1,1,85,0,1
135064,-133.333333333333,4,1,1,80,0,0
135439,-133.333333333333,4,2,1,80,0,0
136564,-133.333333333333,4,2,1,75,0,0
138064,-133.333333333333,4,2,1,70,0,0
139564,-133.333333333333,4,2,1,65,0,0
141064,-133.333333333333,4,2,1,60,0,0
142564,-133.333333333333,4,2,1,55,0,0
144064,-133.333333333333,4,2,1,50,0,0
145564,-133.333333333333,4,2,1,45,0,0
146689,-133.333333333333,4,2,1,35,0,0
146782,-133.333333333333,4,2,1,32,0,0
146876,-133.333333333333,4,2,1,30,0,0
146970,-133.333333333333,4,2,1,5,0,0

[Colours]
Combo1 : 62,75,123
Combo2 : 200,133,233
Combo3 : 230,232,183

[HitObjects]
39,227,814,2,0,B|84:204|84:204|110:156,1,100,2|0,0:0|0:0,0:0:0:0:
72,56,1564,5,4,0:0:0:0:
292,40,2314,1,2,0:0:0:0:
456,188,3064,1,2,0:0:0:0:
352,224,3439,1,0,0:0:0:0:
280,308,3814,1,2,0:0:0:0:
64,264,4564,6,0,B|25:158|96:85,2,150,4|2|0,0:0|0:0|0:0,0:0:0:0:
164,220,6064,2,0,P|236:208|272:216,1,100,4|2,0:0|0:0,0:0:0:0:
360,260,6814,1,0,0:0:0:0:
476,72,7564,5,4,0:0:0:0:
260,104,8314,1,2,0:0:0:0:
44,72,9064,2,0,B|34:125|57:169|57:169|51:209|51:209|88:260,1,200,0|2,0:0|0:0,0:0:0:0:
296,328,10564,6,0,P|324:252|312:172,2,150,4|2|0,0:0|0:0|0:0,0:0:0:0:
188,312,12064,2,0,B|120:296|35:284,2,150,4|2|0,0:0|0:0|0:0,0:0:0:0:
268,236,13564,5,4,0:0:0:0:
476,308,14314,1,2,0:0:0:0:
436,92,15064,1,0,0:0:0:0:
268,236,15814,1,2,0:0:0:0:
200,28,16564,6,0,B|93:63|84:176,1,200,4|2,0:0|0:0,0:0:0:0:
16,264,17689,1,0,0:0:0:0:
64,364,18064,2,0,B|128:395|199:338|260:355,1,200,4|2,0:0|0:0,0:0:0:0:
372,364,19189,1,0,0:0:0:0:
332,260,19564,6,0,B|396:152|524:184,2,200,4|2|0,0:0|0:0|0:0,0:0:0:0:
372,364,21439,1,0,0:0:0:0:
472,316,21814,1,2,0:0:0:0:
360,128,22564,6,0,B|308:128|272:88,1,100,4|0,0:0|0:0,0:0:0:0:
220,76,23126,2,0,B|164:132|180:216,1,150,2|2,0:0|0:0,0:0:0:0:
288,240,24064,2,0,B|371:303,1,100,4|0,0:0|0:0,0:0:0:0:
408,264,24626,2,0,B|425:161|328:106,1,150,2|0,0:0|0:0,0:0:0:0:
256,100,25564,6,0,B|192:72|172:120|104:84,2,150,4|2|0,0:0|0:0|0:0,0:0:0:0:
364,108,27064,2,0,L|424:52,2,50
292,192,27814,2,0,P|266:235|260:308,1,100,2|0,0:0|0:0,0:0:0:0:
152,256,28564,6,0,P|142:135|168:108,2,150,4|2|0,0:0|0:0|0:0,0:0:0:0:
252,304,30064,1,0,0:0:0:0:
352,256,30439,2,0,L|372:200,1,50,2|0,0:0|0:0,0:0:0:0:
296,124,31001,2,0,L|264:196,1,50,2|0,0:0|0:0,0:0:0:0:
180,228,31564,5,4,0:0:0:0:
44,56,32314,1,2,0:0:0:0:
264,84,33064,2,0,P|320:64|368:52,2,100,2|2|0,0:0|0:0|0:0,0:0:0:0:
164,128,34189,1,0,0:0:0:0:
88,208,34564,6,0,P|88:276|132:304,1,100,4|0,0:0|0:0,0:0:0:0:
160,320,35126,2,0,P|236:311|324:304,1,150,2|0,0:0|0:0,0:0:0:0:
416,284,36064,1,0,0:0:0:0:
456,180,36439,1,0,0:0:0:0:
392,96,36814,2,0,P|272:96|268:200,1,200,2|4,0:0|0:0,0:0:0:0:
220,260,37939,6,0,L|256:296,2,50,0|0|2,0:0|0:0|0:0,0:0:0:0:
80,172,39064,2,0,L|32:192,2,50
188,168,39814,1,2,0:0:0:0:
404,124,40564,6,0,P|444:173|460:232,1,100,4|0,0:0|0:0,0:0:0:0:
380,288,41314,2,0,P|339:238|324:180,1,100,2|0,0:0|0:0,0:0:0:0:
288,104,42064,2,0,P|184:96|128:172,1,200,4|2,0:0|0:0,0:0:0:0:
64,252,43189,1,0,0:0:0:0:
124,344,43564,5,4,0:0:0:0:
344,332,44314,1,2,0:0:0:0:
412,124,45064,2,0,L|452:92,2,50
340,208,45814,1,2,0:0:0:0:
124,256,46564,5,4,0:0:0:0:
156,152,46939,2,0,L|176:100,1,50,2|0,0:0|0:0,0:0:0:0:
280,84,47501,2,0,L|260:148,1,50,2|0,0:0|0:0,0:0:0:0:
336,216,48064,2,0,P|412:256|488:232,2,150,4|2|0,0:0|0:0|0:0,0:0:0:0:
228,228,49564,1,4,0:0:0:0:
304,144,60626,6,0,L|288:92,1,50
188,52,61189,1,0,0:0:0:0:
104,124,61564,6,0,L|120:204,1,50,6|0,0:0|0:0,0:0:0:0:
168,268,62126,2,0,L|140:328,2,50,2|2|0,0:0|0:0|0:0,0:0:0:0:
268,224,62876,2,0,L|288:280,1,50,2|0,0:0|0:0,0:0:0:0:
440,328,63626,2,0,P|472:276|452:176,1,150,6|2,0:0|0:0,0:0:0:0:
384,112,64564,6,0,L|308:96,1,50,6|0,0:0|0:0,0:0:0:0:
228,76,65126,2,0,L|188:20,2,50,2|2|0,0:0|0:0|0:0,0:0:0:0:
264,180,65876,1,2,0:0:0:0:
264,180,66064,2,0,P|190:210|80:180,2,150,0|2|2,0:0|0:0|0:0,0:0:0:0:
364,224,67564,6,0,L|392:284,1,50,6|0,0:0|0:0,0:0:0:0:
284,308,68126,2,0,L|272:368,2,50,2|2|0,0:0|0:0|0:0,0:0:0:0:
196,244,68876,2,0,L|132:232,1,50,2|0,0:0|0:0,0:0:0:0:
0,196,69626,2,0,P|36:112|104:108,1,150,6|2,0:0|0:0,0:0:0:0:
196,96,70564,6,0,L|264:68,1,50,6|0,0:0|0:0,0:0:0:0:
280,180,71126,2,0,L|308:228,2,50,2|2|0,0:0|0:0|0:0,0:0:0:0:
356,104,71876,1,2,0:0:0:0:
356,104,72064,2,0,P|448:76|504:80,2,150,4|2|2,0:0|0:0|0:0,0:0:0:0:
252,144,73564,6,0,P|228:192|224:264,1,100,6|0,0:0|0:0,0:0:0:0:
284,328,74314,1,2,0:0:0:0:
64,316,75064,2,0,B|32:276|32:276|12:160,2,150,4|2|2,0:0|0:0|0:0,0:0:0:0:
168,276,76564,6,0,P|192:228|196:156,1,100,6|0,0:0|0:0,0:0:0:0:
136,92,77314,2,0,L|248:56,1,100,2|0,0:0|0:0,0:0:0:0:
340,68,78064,2,0,B|380:112|380:112|404:216,2,150,6|2|2,0:0|0:0|0:0,0:0:0:0:
231,92,79564,6,0,L|211:152,1,50,6|0,0:0|0:0,0:0:0:0:
116,184,80126,2,0,L|100:124,2,50,2|2|0,0:0|0:0|0:0,0:0:0:0:
28,248,80876,2,0,L|60:288,1,50,2|4,0:0|0:0,0:0:0:0:
224,312,81626,1,2,0:0:0:0:
384,268,82188,1,2,0:0:0:0:
284,220,82564,6,0,L|288:168,1,50,6|0,0:0|0:0,0:0:0:0:
364,88,83126,2,0,L|388:40,2,50,2|2|0,0:0|0:0|0:0,0:0:0:0:
256,84,83876,1,2,0:0:0:0:
256,84,84064,2,0,P|168:144|180:192,1,150,6|2,0:0|0:0,0:0:0:0:
256,192,85001,12,0,86314,0:0:0:0:
312,128,87064,6,0,P|364:176|372:212,1,100,4|0,0:0|0:0,0:0:0:0:
376,312,87814,1,2,0:0:0:0:
156,328,88564,1,0,0:0:0:0:
256,132,89314,1,2,0:0:0:0:
156,84,89689,1,0,0:0:0:0:
80,164,90064,6,0,P|43:233|44:316,2,150,4|2|0,0:0|0:0|0:0,0:0:0:0:
176,112,91564,2,0,L|292:84,1,100
344,172,92314,2,0,L|236:200,1,100,2|0,0:0|0:0,0:0:0:0:
148,244,93064,5,4,0:0:0:0:
352,328,93814,1,2,0:0:0:0:
448,128,94564,2,0,L|484:64,2,50
380,216,95314,1,2,0:0:0:0:
160,220,96064,6,0,P|128:120|276:120,1,300,4|0,0:0|0:0,0:0:0:0:
340,208,97564,2,0,P|434:222|476:156,2,150,4|2|0,0:0|0:0|0:0,0:0:0:0:
275,118,99064,6,0,P|234:185|271:298,1,200,4|2,0:0|0:0,0:0:0:0:
108,148,100564,2,0,P|92:104|64:48,2,100,0|0|2,0:0|0:0|0:0,0:0:0:0:
232,328,102064,6,0,P|308:328|332:244,1,150,4|0,0:0|0:0,0:0:0:0:
292,108,103189,1,2,0:0:0:0:
380,172,103564,2,0,P|440:232|428:312,2,150,0|2|0,0:0|0:0|0:0,0:0:0:0:
272,200,105064,6,0,B|180:256|136:152|60:224,2,200,4|2|0,0:0|0:0|0:0,0:0:0:0:
360,136,106939,1,0,0:0:0:0:
156,52,107689,6,0,L|112:16,2,50,0|0|4,0:0|0:0|0:0,0:0:0:0:
244,116,108439,2,0,L|260:196,1,50,2|0,0:0|0:0,0:0:0:0:
144,160,109001,2,0,L|160:220,1,50,2|0,0:0|0:0,0:0:0:0:
244,276,109564,2,0,P|212:336|116:328,2,150,4|2|0,0:0|0:0|0:0,0:0:0:0:
332,212,111064,5,4,0:0:0:0:
292,108,111439,2,0,L|304:44,2,50,0|0|2,0:0|0:0|0:0,0:0:0:0:
76,148,112564,2,0,L|48:84,2,50
160,220,113314,6,0,P|184:272|176:340,2,100,2|0|4,0:0|0:0|0:0,0:0:0:0:
268,200,114439,2,0,P|220:128|272:16,1,200
348,88,115564,2,0,P|436:81|528:72,2,150,4|2|0,0:0|0:0|0:0,0:0:0:0:
252,144,117064,5,4,0:0:0:0:
144,132,117439,2,0,L|116:84,2,50,0|0|2,0:0|0:0|0:0,0:0:0:0:
184,236,118189,1,0,0:0:0:0:
292,248,118564,2,0,P|424:192|404:136,1,200,0|2,0:0|0:0,0:0:0:0:
404,64,119689,1,0,0:0:0:0:
296,64,120064,6,0,P|218:43|148:36,2,150,4|2|0,0:0|0:0|0:0,0:0:0:0:
328,168,121564,2,0,P|324:241|304:328,2,150,4|2|0,0:0|0:0|0:0,0:0:0:0:
220,188,123064,5,4,0:0:0:0:
68,344,123814,1,2,0:0:0:0:
16,128,124564,1,4,0:0:0:0:
96,204,124939,1,0,0:0:0:0:
172,284,125314,1,2,0:0:0:0:
388,328,126064,5,4,0:0:0:0:
468,252,126439,2,0,L|496:200,1,50,2|0,0:0|0:0,0:0:0:0:
436,112,127001,2,0,L|408:160,1,50,2|0,0:0|0:0,0:0:0:0:
328,228,127564,2,0,P|277:229|208:196,1,100,4|0,0:0|0:0,0:0:0:0:
176,212,128126,2,0,P|160:164|208:56,1,150,2|0,0:0|0:0,0:0:0:0:
296,40,129064,5,4,0:0:0:0:
400,80,129439,2,0,P|416:128|368:236,1,150,0|0,0:0|0:0,0:0:0:0:
344,256,130189,1,2,0:0:0:0:
240,284,130564,2,0,L|136:264,2,100,4|2|0,0:0|0:0|0:0,0:0:0:0:
284,184,131689,5,2,0:0:0:0:
392,208,132064,2,0,P|393:164|368:96,1,100,4|0,0:0|0:0,0:0:0:0:
344,64,132626,2,0,P|265:68|188:88,1,150,2|0,0:0|0:0,0:0:0:0:
124,168,133564,2,0,P|122:211|148:280,1,100,4|0,0:0|0:0,0:0:0:0:
172,312,134126,2,0,P|250:307|328:288,1,150,2|0,0:0|0:0,0:0:0:0:
384,240,135064,5,4,0:0:0:0:
360,160,135439,2,0,L|380:96,2,37.5000014305115,2|0|4,0:0|0:0|0:0,0:0:0:0:
208,228,136564,2,0,L|220:148,1,75.0000028610231,2|0,0:0|0:0,0:0:0:0:
76,68,137689,2,0,L|68:148,1,75.0000028610231,2|4,0:0|0:0,0:0:0:0:
208,56,138814,6,0,B|320:44|320:44|376:72,1,150.000005722046,2|0,0:0|0:0,0:0:0:0:
412,120,139939,1,0,0:0:0:0:
352,180,140314,2,0,B|243:191|243:191|188:156,1,150.000005722046,2|4,0:0|0:0,0:0:0:0:
136,132,141439,5,2,0:0:0:0:
56,160,141814,2,0,L|40:124,2,37.5000014305115,2|0|0,0:0|0:0|0:0,0:0:0:0:
112,220,142564,2,0,L|100:320,1,75.0000028610231,2|0,0:0|0:0,0:0:0:0:
260,352,143689,2,0,L|276:256,1,75.0000028610231,2|4,0:0|0:0,0:0:0:0:
268,112,144814,2,0,P|380:85|448:84,2,150.000005722046,2|2|2,0:0|0:0|0:0,0:0:0:0:
256,192,146689,12,0,148564,0:0:0:0:
