osu file format v11

[General]
AudioFilename: pressstart.mp3
AudioLeadIn: 2000
PreviewTime: 20401
Countdown: 0
SampleSet: Normal
StackLeniency: 0.7
Mode: 1
LetterboxInBreaks: 0

[Editor]
DistanceSpacing: 1
BeatDivisor: 4
GridSize: 32

[Metadata]
Title:press start
TitleUnicode:press start
Artist:Kola Kid
ArtistUnicode:Kola Kid
Creator:Kokatsu
Version:Taiko Oni
Source:
Tags:8bit 8-bit chiptune cash machine makar makar8000 xakyrie xcherry
BeatmapID:204222
BeatmapSetID:71196

[Difficulty]
HPDrainRate:7
CircleSize:4
OverallDifficulty:6
ApproachRate:5
SliderMultiplier:1.4
SliderTickRate:1

[Events]
//Background and Video events
0,0,"taikobg.jpg"
//Break Periods
//Storyboard Layer 0 (Background)
//Storyboard Layer 1 (Fail)
//Storyboard Layer 2 (Pass)
//Storyboard Layer 3 (Foreground)
//Storyboard Sound Samples
//Background Colour Transformations
3,100,163,162,255

[TimingPoints]
1.71499916102559,300,4,1,0,80,1,0
19501,-95.2380952380952,4,1,0,80,0,0
19801,-90.9090909090909,4,1,0,80,0,0
20101,-86.9565217391304,4,1,0,80,0,0
20401,-83.3333333333333,4,1,0,80,0,1
30001,-83.3333333333333,4,1,0,80,0,0
30076,-100,4,1,0,80,0,0
35101,-200,4,1,0,80,0,0

[Colours]
Combo1 : 0,0,255
Combo2 : 255,0,0

[HitObjects]
256,192,1,1,8,0:0:0
256,192,301,5,8,0:0:0
256,192,601,1,8,0:0:0
256,192,901,1,8,0:0:0
256,192,1201,1,8,0:0:0
256,192,1351,5,0,0:0:0
256,192,1501,1,0,0:0:0
256,192,1651,5,8,0:0:0
256,192,1801,5,0,0:0:0
256,192,1951,1,0,0:0:0
256,192,2101,5,8,0:0:0
256,192,2251,5,0,0:0:0
256,192,2326,1,0,0:0:0
256,192,2401,5,8,0:0:0
256,192,2551,5,0,0:0:0
256,192,2701,1,0,0:0:0
256,192,2851,5,8,0:0:0
256,192,2926,1,8,0:0:0
256,192,3001,5,0,0:0:0
256,192,3076,1,0,0:0:0
256,192,3151,5,8,0:0:0
256,192,3301,5,0,0:0:0
256,192,3376,1,0,0:0:0
256,192,3451,5,8,0:0:0
256,192,3601,1,8,0:0:0
256,192,3751,5,0,0:0:0
256,192,3901,1,0,0:0:0
256,192,4051,5,8,0:0:0
256,192,4201,5,0,0:0:0
256,192,4351,1,0,0:0:0
256,192,4501,5,8,0:0:0
256,192,4651,5,0,0:0:0
256,192,4801,5,8,0:0:0
256,192,5101,1,8,0:0:0
256,192,5401,1,8,0:0:0
256,192,5701,5,0,0:0:0
256,192,6001,1,4,0:0:0
256,192,6151,1,0,0:0:0
256,192,6301,5,8,0:0:0
256,192,6451,5,0,0:0:0
256,192,6526,5,8,0:0:0
256,192,6601,5,0,0:0:0
256,192,6751,1,0,0:0:0
256,192,6901,5,8,0:0:0
256,192,7051,1,8,0:0:0
256,192,7201,5,0,0:0:0
256,192,7351,1,0,0:0:0
256,192,7501,1,0,0:0:0
256,192,7651,5,8,0:0:0
256,192,7801,5,0,0:0:0
256,192,7951,5,8,0:0:0
256,192,8101,5,0,0:0:0
256,192,8251,1,0,0:0:0
256,192,8326,1,0,0:0:0
256,192,8401,5,8,0:0:0
256,192,8701,1,8,0:0:0
256,192,9001,1,8,0:0:0
256,192,9301,5,0,0:0:0
256,192,9376,1,0,0:0:0
256,192,9451,5,8,0:0:0
256,192,9601,5,0,0:0:0
256,192,9751,1,0,0:0:0
256,192,9901,5,8,0:0:0
256,192,10051,5,0,0:0:0
256,192,10201,1,0,0:0:0
256,192,10276,1,0,0:0:0
256,192,10351,5,8,0:0:0
256,192,10501,1,12,0:0:0
256,192,10801,5,4,0:0:0
256,192,10951,1,0,0:0:0
256,192,11101,5,8,0:0:0
256,192,11251,5,0,0:0:0
256,192,11401,1,0,0:0:0
256,192,11476,5,8,0:0:0
256,192,11551,5,0,0:0:0
256,192,11701,5,8,0:0:0
256,192,11851,1,8,0:0:0
256,192,12001,5,0,0:0:0
256,192,12151,1,0,0:0:0
256,192,12301,5,8,0:0:0
256,192,12451,5,0,0:0:0
256,192,12526,1,0,0:0:0
256,192,12601,1,0,0:0:0
256,192,12751,1,0,0:0:0
256,192,12901,5,8,0:0:0
256,192,13051,1,8,0:0:0
256,192,13126,5,0,0:0:0
256,192,13201,1,0,0:0:0
256,192,13351,1,0,0:0:0
256,192,13501,5,8,0:0:0
256,192,13651,5,0,0:0:0
256,192,13801,1,0,0:0:0
256,192,13951,1,0,0:0:0
256,192,14026,1,0,0:0:0
256,192,14101,5,8,0:0:0
256,192,14251,1,8,0:0:0
256,192,14401,5,0,0:0:0
256,192,14551,1,0,0:0:0
256,192,14701,5,8,0:0:0
256,192,14776,5,0,0:0:0
256,192,14851,1,0,0:0:0
256,192,15001,1,0,0:0:0
256,192,15076,1,0,0:0:0
256,192,15151,5,8,0:0:0
256,192,15226,5,0,0:0:0
256,192,15301,5,8,0:0:0
256,192,15451,1,8,0:0:0
256,192,15601,5,0,0:0:0
256,192,15751,1,0,0:0:0
256,192,15901,5,8,0:0:0
256,192,16051,5,0,0:0:0
256,192,16201,1,0,0:0:0
256,192,16276,1,0,0:0:0
256,192,16351,1,0,0:0:0
256,192,16501,5,8,0:0:0
256,192,16651,1,8,0:0:0
256,192,16801,5,0,0:0:0
256,192,16876,5,8,0:0:0
256,192,16951,5,0,0:0:0
256,192,17101,5,8,0:0:0
256,192,17251,5,0,0:0:0
256,192,17401,5,8,0:0:0
256,192,17476,5,0,0:0:0
256,192,17551,5,8,0:0:0
256,192,17626,5,0,0:0:0
256,192,17701,5,8,0:0:0
256,192,17851,1,8,0:0:0
256,192,18001,5,0,0:0:0
256,192,18151,1,0,0:0:0
256,192,18301,5,8,0:0:0
256,192,18451,5,0,0:0:0
256,192,18526,1,0,0:0:0
256,192,18601,1,0,0:0:0
256,192,18751,1,0,0:0:0
256,192,18826,1,0,0:0:0
256,192,18901,5,8,0:0:0
256,192,19051,1,8,0:0:0
256,192,19201,5,0,0:0:0
256,192,19351,1,0,0:0:0
256,192,19501,5,8,0:0:0
256,192,19651,1,8,0:0:0
256,192,19801,1,8,0:0:0
256,192,19951,1,8,0:0:0
256,192,20101,1,8,0:0:0
256,192,20251,1,8,0:0:0
256,192,20401,1,8,0:0:0
256,192,20551,1,8,0:0:0
256,192,20701,5,0,0:0:0
256,192,20851,1,0,0:0:0
256,192,21001,5,8,0:0:0
256,192,21151,1,8,0:0:0
256,192,21301,5,0,0:0:0
256,192,21451,1,0,0:0:0
256,192,21601,5,8,0:0:0
256,192,21751,1,8,0:0:0
256,192,21901,5,0,0:0:0
256,192,22051,1,0,0:0:0
256,192,22201,5,8,0:0:0
256,192,22276,1,8,0:0:0
256,192,22351,1,8,0:0:0
256,192,22501,5,0,0:0:0
256,192,22651,1,0,0:0:0
256,192,22726,1,0,0:0:0
256,192,22801,5,8,0:0:0
256,192,22951,5,0,0:0:0
256,192,23101,5,8,0:0:0
256,192,23251,5,0,0:0:0
256,192,23401,5,8,0:0:0
256,192,23551,5,0,0:0:0
256,192,23701,5,8,0:0:0
256,192,23851,5,0,0:0:0
256,192,24001,1,0,0:0:0
256,192,24151,5,8,0:0:0
256,192,24301,5,0,0:0:0
256,192,24451,5,8,0:0:0
256,192,24601,5,0,0:0:0
256,192,24751,5,8,0:0:0
256,192,24901,5,0,0:0:0
256,192,25051,5,8,0:0:0
256,192,25126,1,8,0:0:0
256,192,25201,1,8,0:0:0
256,192,25351,1,8,0:0:0
256,192,25501,5,0,0:0:0
256,192,25651,1,0,0:0:0
256,192,25801,5,8,0:0:0
256,192,25951,1,8,0:0:0
256,192,26101,5,0,0:0:0
256,192,26251,1,0,0:0:0
256,192,26401,5,8,0:0:0
256,192,26551,1,8,0:0:0
256,192,26701,5,0,0:0:0
256,192,26851,1,0,0:0:0
256,192,27001,5,8,0:0:0
256,192,27076,1,8,0:0:0
256,192,27151,1,8,0:0:0
256,192,27301,5,0,0:0:0
256,192,27451,1,0,0:0:0
256,192,27526,1,0,0:0:0
256,192,27601,5,8,0:0:0
256,192,27751,5,0,0:0:0
256,192,27901,5,8,0:0:0
256,192,28051,5,0,0:0:0
256,192,28201,5,8,0:0:0
256,192,28351,5,0,0:0:0
256,192,28501,5,8,0:0:0
256,192,28651,5,0,0:0:0
256,192,28801,1,0,0:0:0
256,192,28951,5,8,0:0:0
256,192,29101,5,0,0:0:0
256,192,29251,5,8,0:0:0
256,192,29401,5,0,0:0:0
256,192,29551,5,8,0:0:0
256,192,29701,5,0,0:0:0
256,192,29851,5,12,0:0:0
256,192,30001,1,12,0:0:0
256,192,30151,5,0,0:0:0
256,192,30301,1,0,0:0:0
256,192,30451,5,8,0:0:0
256,192,30526,5,0,0:0:0
256,192,30601,1,0,0:0:0
256,192,30751,1,0,0:0:0
256,192,30901,5,8,0:0:0
256,192,31051,5,0,0:0:0
256,192,31201,5,8,0:0:0
256,192,31351,5,0,0:0:0
256,192,31426,1,0,0:0:0
256,192,31501,5,8,0:0:0
256,192,31651,1,8,0:0:0
256,192,31726,5,0,0:0:0
256,192,31801,5,8,0:0:0
256,192,31951,1,8,0:0:0
256,192,32026,1,8,0:0:0
256,192,32101,1,8,0:0:0
256,192,32251,1,8,0:0:0
256,192,32401,5,0,0:0:0
256,192,32551,1,0,0:0:0
256,192,32701,5,8,0:0:0
256,192,32776,5,0,0:0:0
256,192,32851,1,0,0:0:0
256,192,32926,5,8,0:0:0
256,192,33001,5,0,0:0:0
256,192,33151,1,0,0:0:0
256,192,33301,5,8,0:0:0
256,192,33451,5,0,0:0:0
256,192,33601,5,8,0:0:0
256,192,33901,1,8,0:0:0
256,192,34201,1,8,0:0:0
256,192,34501,1,8,0:0:0
256,192,34801,5,4,0:0:0
256,192,35101,5,8,0:0:0
256,192,35251,5,0,0:0:0
256,192,35401,5,8,0:0:0
256,192,35551,1,8,0:0:0
256,192,35851,5,0,0:0:0
256,192,36151,1,0,0:0:0
256,192,36301,5,8,0:0:0
256,192,36451,1,8,0:0:0
256,192,36601,5,0,0:0:0
256,192,36751,5,8,0:0:0
256,192,36901,5,0,0:0:0
256,192,37201,1,0,0:0:0
256,192,37501,5,8,0:0:0
256,192,37801,5,0,0:0:0
256,192,38251,5,8,0:0:0
256,192,38551,5,0,0:0:0
256,192,38701,5,8,0:0:0
256,192,38851,5,0,0:0:0
256,192,39001,1,0,0:0:0
256,192,39151,5,8,0:0:0
256,192,39301,5,0,0:0:0
256,192,39601,1,4,0:0:0
