osu file format v12

[General]
AudioFilename: Kola Kid-good old times.mp3
AudioLeadIn: 0
PreviewTime: 96076
Countdown: 0
SampleSet: Soft
StackLeniency: 0.7
Mode: 0
LetterboxInBreaks: 0

[Editor]
DistanceSpacing: 0.9
BeatDivisor: 4
GridSize: 4

[Metadata]
Title:good old times
TitleUnicode:good old times
Artist:Kola Kid
ArtistUnicode:Kola Kid
Creator:vipto
Version:Times
Source:
Tags:chiptune 8 bit
BeatmapID:256755
BeatmapSetID:95647

[Difficulty]
HPDrainRate:7
CircleSize:5
OverallDifficulty:7
ApproachRate:8
SliderMultiplier:1.8
SliderTickRate:1

[Events]
//Background and Video events
0,0,"hello.jpg",0,0
//Break Periods
//Storyboard Layer 0 (Background)
//Storyboard Layer 1 (Fail)
//Storyboard Layer 2 (Pass)
//Storyboard Layer 3 (Foreground)
//Storyboard Sound Samples
//Background Colour Transformations
3,100,163,162,255

[TimingPoints]
76,428.571428571429,4,2,0,40,1,0
27504,-83.3333333333333,4,2,2,60,0,0
53218,-117.647058823529,4,2,2,40,0,0
54933,-83.3333333333333,4,2,2,60,0,0
82361,-117.647058823529,4,2,0,40,0,0
96076,-83.3333333333333,4,2,2,60,0,1
109576,-83.3333333333333,4,2,2,60,0,0
109790,-83.3333333333333,4,2,2,60,0,1
123504,-100,4,2,2,60,0,0

[Colours]
Combo1 : 120,180,216
Combo2 : 255,155,205
Combo3 : 250,198,173

[HitObjects]
100,242,13790,1,2,0:0:0:0:
150,316,14004,2,0,P|214:350|328:310,1,180,2|0,0:0|0:0,0:0:0:0:
363,249,14647,2,0,P|379:176|313:80,1,180,0|0,0:0|0:0,0:0:0:0:
244,54,15290,2,0,P|160:42|47:63,2,180,2|0|0,0:0|0:0|0:0,0:0:0:0:
328,88,16361,6,0,P|379:176|363:249,1,180,2|0,0:0|0:0,0:0:0:0:
291,304,17004,2,0,B|248:333|206:304|206:300|206:296|158:265|106:312,2,180,0|0|0,0:0|0:0|0:0,0:0:0:0:
136,212,18290,2,0,P|123:168|134:117,1,90
188,57,18718,6,0,P|236:49|295:67,1,90,2|0,0:0|0:0,0:0:0:0:
291,66,19040,1,0,0:0:0:0:
359,124,19254,1,0,0:0:0:0:
369,139,19361,2,0,P|372:216|362:234,1,90,2|0,0:0|0:0,0:0:0:0:
358,241,19683,1,0,0:0:0:0:
288,298,19897,1,2,0:0:0:0:
272,306,20004,2,0,P|218:318|169:305,1,90,2|0,0:0|0:0,0:0:0:0:
110,261,20433,6,0,P|99:228|102:168,2,90,2|0|0,0:0|0:0|0:0,0:0:0:0:
179,203,21076,2,0,P|178:159|210:105,1,90
247,217,21504,2,0,P|309:182|413:235,1,180,2|0,0:0|0:0,0:0:0:0:
404,310,22147,6,0,P|342:345|238:292,2,180,2|0|0,0:0|0:0|0:0,0:0:0:0:
403,220,23218,2,0,P|309:182|247:217,1,180,2|0,0:0|0:0,0:0:0:0:
187,285,23861,6,0,P|132:314|35:239,2,180,2|0|0,0:0|0:0|0:0,0:0:0:0:
309,152,25147,2,0,P|360:130|438:149,1,135
445,161,25576,6,0,P|453:220|438:249,1,90,2|0,0:0|0:0,0:0:0:0:
429,259,25897,1,0,0:0:0:0:
360,317,26111,1,2,0:0:0:0:
345,326,26218,2,0,P|291:334|234:322,1,90,2|0,0:0|0:0,0:0:0:0:
238,324,26540,1,0,0:0:0:0:
159,280,26754,1,2,0:0:0:0:
146,266,26861,2,0,P|127:225|140:160,1,90,2|0,0:0|0:0,0:0:0:0:
179,106,27290,1,0,0:0:0:0:
269,114,27504,6,0,P|298:113|340:94,1,53.9999983520508,6|0,0:0|0:0,0:0:0:0:
371,138,27718,2,0,P|411:127|439:135,1,53.9999983520508
471,171,27933,2,0,P|480:227|447:275,1,107.999996704102,8|0,0:0|0:0,0:0:0:0:
340,331,28361,2,0,P|268:338|218:319,1,107.999996704102,4|0,0:0|0:0,0:0:0:0:
234,263,28683,1,0,0:0:0:0:
234,197,28790,2,0,P|200:186|128:193,1,107.999996704102,8|0,0:0|0:0,0:0:0:0:
111,322,29218,6,0,P|113:298|93:264,1,53.9999983520508,6|0,0:0|0:0,0:0:0:0:
69,214,29433,2,0,P|65:184|76:158,1,53.9999983520508
130,130,29647,2,0,P|188:124|254:138,1,107.999996704102,8|0,0:0|0:0,0:0:0:0:
304,242,30076,2,0,P|353:266|408:240,1,107.999996704102,4|0,0:0|0:0,0:0:0:0:
356,199,30397,1,0,0:0:0:0:
406,158,30504,2,0,P|354:133|304:158,1,107.999996704102,8|0,0:0|0:0,0:0:0:0:
241,261,30933,6,0,P|185:271|141:228,1,107.999996704102,6|0,0:0|0:0,0:0:0:0:
137,177,31254,1,0,0:0:0:0:
170,121,31361,2,0,P|226:111|270:154,1,107.999996704102,8|0,0:0|0:0,0:0:0:0:
308,262,31790,2,0,P|346:307|439:264,1,161.999995056153,4|0,0:0|0:0,0:0:0:0:
446,254,32218,2,0,P|459:201|442:137,1,107.999996704102,8|0,0:0|0:0,0:0:0:0:
320,127,32647,6,0,B|244:127|244:127|224:159|224:159|188:111|188:111|136:111,1,215.999993408203,6|8,0:0|0:0,0:0:0:0:
18,83,33290,1,0,0:0:0:0:
144,50,33504,2,0,B|220:50|220:50|240:18|240:18|276:66|276:66|328:66,1,215.999993408203,6|8,0:0|0:0,0:0:0:0:
445,90,34147,1,0,0:0:0:0:
495,212,34361,6,0,P|503:269|471:319,1,107.999996704102,6|0,0:0|0:0,0:0:0:0:
422,342,34683,1,0,0:0:0:0:
358,358,34790,2,0,P|297:360|246:338,1,107.999996704102,8|0,0:0|0:0,0:0:0:0:
191,229,35218,1,4,0:0:0:0:
197,99,35433,2,0,P|222:84|253:81,1,53.9999983520508
197,99,35647,2,0,P|144:68|95:89,1,107.999996704102,8|0,0:0|0:0,0:0:0:0:
63,204,36076,6,0,P|49:228|49:260,1,53.9999983520508,6|0,0:0|0:0,0:0:0:0:
112,250,36290,2,0,P|113:276|137:307,1,53.9999983520508
177,258,36504,2,0,P|231:275|290:252,1,107.999996704102,8|0,0:0|0:0,0:0:0:0:
356,156,36933,1,4,0:0:0:0:
280,49,37147,1,0,0:0:0:0:
248,41,37254,1,0,0:0:0:0:
216,48,37361,2,0,P|192:89|238:148,1,107.999996704102,8|0,0:0|0:0,0:0:0:0:
338,93,37790,6,0,P|399:106|420:164,1,107.999996704102,6|0,0:0|0:0,0:0:0:0:
405,205,38111,1,0,0:0:0:0:
354,244,38218,2,0,P|293:251|242:216,1,107.999996704102,8|0,0:0|0:0,0:0:0:0:
177,124,38647,1,4,0:0:0:0:
293,67,38861,2,0,P|317:51|343:23,1,53.9999983520508
293,67,39076,2,0,P|361:57|405:91,1,107.999996704102,8|0,0:0|0:0,0:0:0:0:
427,130,39397,1,0,0:0:0:0:
444,192,39504,6,0,P|445:253|413:305,1,107.999996704102,6|0,0:0|0:0,0:0:0:0:
305,345,39933,1,8,0:0:0:0:
207,258,40147,1,0,0:0:0:0:
104,336,40361,2,0,B|40:336|40:336|16:279,1,107.999996704102,6|0,0:0|0:0,0:0:0:0:
22,230,40683,1,0,0:0:0:0:
87,236,40790,2,0,B|130:207|130:207|143:131,1,107.999996704102,8|0,0:0|0:0,0:0:0:0:
106,95,41111,1,0,0:0:0:0:
141,41,41218,6,0,B|199:33|199:33|246:73,1,107.999996704102,6|0,0:0|0:0,0:0:0:0:
229,195,41647,2,0,P|221:260|266:301,1,107.999996704102,8|0,0:0|0:0,0:0:0:0:
373,309,42076,1,4,0:0:0:0:
464,217,42290,1,0,0:0:0:0:
473,186,42397,1,0,0:0:0:0:
472,153,42504,2,0,P|443:102|385:102,1,107.999996704102,8|0,0:0|0:0,0:0:0:0:
289,167,42933,6,0,P|262:177|230:168,1,53.9999983520508,6|0,0:0|0:0,0:0:0:0:
260,111,43147,2,0,P|234:99|219:73,1,53.9999983520508
278,48,43361,2,0,P|320:13|369:36,1,107.999996704102,8|0,0:0|0:0,0:0:0:0:
420,148,43790,2,0,P|426:206|390:256,1,107.999996704102,4|0,0:0|0:0,0:0:0:0:
340,268,44111,1,0,0:0:0:0:
275,268,44218,2,0,B|195:268|195:268|167:240,1,107.999996704102,8|0,0:0|0:0,0:0:0:0:
224,204,44540,1,0,0:0:0:0:
288,204,44647,6,0,B|368:204|368:204|396:176,1,107.999996704102,6|0,0:0|0:0,0:0:0:0:
340,140,44968,1,0,0:0:0:0:
276,140,45076,2,0,B|196:140|196:140|172:164,1,107.999996704102,8|0,0:0|0:0,0:0:0:0:
165,289,45504,2,0,P|204:319|266:299,1,107.999996704102,4|0,0:0|0:0,0:0:0:0:
301,184,45933,1,8,0:0:0:0:
228,76,46147,1,0,0:0:0:0:
103,111,46361,6,0,P|68:110|44:89,1,53.9999983520508,6|0,0:0|0:0,0:0:0:0:
113,177,46576,2,0,P|74:188|55:179,1,53.9999983520508
136,246,46790,2,0,P|82:273|22:259,2,107.999996704102,8|0|6,0:0|0:0|0:0,0:0:0:0:
191,129,47433,2,0,P|196:105|185:68,1,53.9999983520508
191,129,47647,2,0,P|246:104|304:122,1,107.999996704102,8|0,0:0|0:0,0:0:0:0:
354,226,48076,5,6,0:0:0:0:
282,334,48290,1,0,0:0:0:0:
256,353,48397,1,0,0:0:0:0:
224,362,48504,2,0,P|166:358|130:322,1,107.999996704102,8|0,0:0|0:0,0:0:0:0:
172,202,48933,2,0,P|190:150|168:98,1,107.999996704102,4|0,0:0|0:0,0:0:0:0:
48,62,49361,1,8,0:0:0:0:
16,187,49576,2,0,P|6:218|-22:243,1,53.9999983520508,0|0,0:0|0:0,0:0:0:0:
16,187,49790,6,0,P|62:219|119:205,1,107.999996704102,6|0,0:0|0:0,0:0:0:0:
225,151,50218,2,0,P|278:137|331:167,1,107.999996704102,8|0,0:0|0:0,0:0:0:0:
376,278,50647,1,4,0:0:0:0:
265,344,50861,2,0,P|231:350|203:340,1,53.9999983520508
265,344,51076,2,0,P|236:296|251:248,1,107.999996704102,8|0,0:0|0:0,0:0:0:0:
296,203,51397,1,0,0:0:0:0:
341,157,51504,6,0,P|370:109|355:62,1,107.999996704102,6|0,0:0|0:0,0:0:0:0:
296,36,51826,1,0,0:0:0:0:
232,32,51933,2,0,B|164:32|164:32|148:72,1,107.999996704102,8|0,0:0|0:0,0:0:0:0:
192,192,52361,1,4,0:0:0:0:
136,308,52576,1,0,0:0:0:0:
252,365,52790,1,8,0:0:0:0:
371,314,53004,1,0,0:0:0:0:
391,288,53111,1,0,0:0:0:0:
403,258,53218,6,0,P|414:215|402:171,1,76.5000014591217,2|0,0:0|0:0,0:0:0:0:
366,129,53647,1,8,0:0:0:0:
299,109,53861,1,0,0:0:0:0:
238,141,54076,1,2,0:0:0:0:
193,193,54290,1,0,0:0:0:0:
128,218,54504,1,8,0:0:0:0:
62,195,54718,1,0,0:0:0:0:
34,129,54933,6,0,P|30:71|71:32,1,107.999996704102,6|0,0:0|0:0,0:0:0:0:
126,31,55254,1,0,0:0:0:0:
181,63,55361,2,0,P|195:123|171:161,1,107.999996704102,8|0,0:0|0:0,0:0:0:0:
56,220,55790,1,4,0:0:0:0:
91,344,56004,1,0,0:0:0:0:
217,371,56218,1,8,0:0:0:0:
319,292,56433,2,0,P|328:270|322:232,1,53.9999983520508
319,292,56647,6,0,P|375:303|423:268,1,107.999996704102,6|0,0:0|0:0,0:0:0:0:
420,148,57076,1,8,0:0:0:0:
394,128,57183,1,0,0:0:0:0:
363,117,57290,2,0,P|301:122|275:170,1,107.999996704102,0|4,0:0|0:0,0:0:0:0:
249,283,57718,2,0,P|242:320|250:343,1,53.9999983520508
307,313,57933,2,0,P|361:330|416:302,1,107.999996704102,8|0,0:0|0:0,0:0:0:0:
478,203,58361,6,0,P|487:171|477:145,1,53.9999983520508,6|0,0:0|0:0,0:0:0:0:
420,172,58576,2,0,P|400:150|369:143,1,53.9999983520508
368,207,58790,2,0,P|301:197|262:220,1,107.999996704102,8|0,0:0|0:0,0:0:0:0:
203,327,59218,2,0,P|141:337|105:303,1,107.999996704102,4|0,0:0|0:0,0:0:0:0:
46,196,59647,2,0,P|38:129|62:89,1,107.999996704102,8|0,0:0|0:0,0:0:0:0:
177,50,60076,6,8,B|220:41|257:66|257:66|275:35|275:35|285:59|285:59|318:44|353:59,1,215.999993408203,6|8,0:0|0:0,0:0:0:0:
473,107,60718,1,0,0:0:0:0:
344,120,60933,2,0,B|292:120|292:120|252:160|252:160|138:160,1,215.999993408203,6|0,0:0|0:0,0:0:0:0:
161,31,61576,1,0,0:0:0:0:
161,31,61790,6,0,B|237:31|237:31|265:63,1,107.999996704102,6|0,0:0|0:0,0:0:0:0:
325,64,62111,1,0,0:0:0:0:
389,64,62218,2,0,B|461:64|461:64|485:96,1,107.999996704102,8|0,0:0|0:0,0:0:0:0:
438,215,62647,1,4,0:0:0:0:
492,332,62861,1,0,0:0:0:0:
362,322,63076,1,8,0:0:0:0:
284,217,63290,2,0,P|280:185|291:161,1,53.9999983520508
352,158,63504,6,0,P|405:132|457:155,1,107.999996704102,6|0,0:0|0:0,0:0:0:0:
497,266,63933,1,8,0:0:0:0:
497,266,64040,1,0,0:0:0:0:
497,266,64147,1,0,0:0:0:0:
396,347,64361,2,0,P|336:357|292:320,1,107.999996704102,4|0,0:0|0:0,0:0:0:0:
312,268,64683,1,0,0:0:0:0:
286,207,64790,2,0,P|230:187|174:211,1,107.999996704102,8|0,0:0|0:0,0:0:0:0:
130,318,65218,6,0,P|91:332|64:324,1,53.9999983520508,6|0,0:0|0:0,0:0:0:0:
59,268,65433,2,0,P|37:242|37:211,1,53.9999983520508
84,180,65647,2,0,P|71:124|98:85,1,107.999996704102,8|0,0:0|0:0,0:0:0:0:
219,39,66076,2,0,P|273:32|340:53,1,107.999996704102,4|0,0:0|0:0,0:0:0:0:
403,147,66504,2,8,P|411:210|382:248,1,107.999996704102
268,292,66933,6,0,B|196:292|196:292|168:256,1,107.999996704102,6|0,0:0|0:0,0:0:0:0:
84,357,67361,2,0,B|84:285|84:285|120:257,1,107.999996704102,8|0,0:0|0:0,0:0:0:0:
18,173,67790,2,0,B|90:173|90:173|118:209,1,107.999996704102,6|0,0:0|0:0,0:0:0:0:
202,108,68218,2,0,B|202:180|202:180|166:208,1,107.999996704102,8|0,0:0|0:0,0:0:0:0:
224,321,68647,6,0,P|286:335|330:310,1,107.999996704102,6|0,0:0|0:0,0:0:0:0:
357,260,68968,1,0,0:0:0:0:
383,201,69076,2,0,P|392:135|373:83,1,107.999996704102,8|0,0:0|0:0,0:0:0:0:
263,38,69504,1,4,0:0:0:0:
175,133,69718,2,0,P|168:158|180:193,1,53.9999983520508
234,159,69933,2,0,P|237:110|186:68,1,107.999996704102,8|0,0:0|0:0,0:0:0:0:
74,112,70361,6,0,P|54:171|96:225,1,107.999996704102,6|0,0:0|0:0,0:0:0:0:
193,257,70790,1,8,0:0:0:0:
193,257,70897,1,0,0:0:0:0:
193,257,71004,1,0,0:0:0:0:
298,182,71218,2,0,P|323:132|297:70,1,107.999996704102,4|0,0:0|0:0,0:0:0:0:
252,52,71540,1,0,0:0:0:0:
189,34,71647,2,0,P|126:30|76:39,1,107.999996704102,8|0,0:0|0:0,0:0:0:0:
27,155,72076,6,0,P|24:187|11:211,1,53.9999983520508,6|0,0:0|0:0,0:0:0:0:
77,221,72290,2,0,P|83:251|111:289,1,53.9999983520508
152,242,72504,2,0,P|205:255|265:225,1,107.999996704102,8|0,0:0|0:0,0:0:0:0:
288,111,72933,2,0,P|284:169|327:211,1,107.999996704102,4|0,0:0|0:0,0:0:0:0:
418,127,73361,2,0,P|422:69|379:27,1,107.999996704102,8|0,0:0|0:0,0:0:0:0:
261,33,73790,6,0,L|132:51,1,107.999996704102,6|0,0:0|0:0,0:0:0:0:
77,152,74218,1,8,0:0:0:0:
77,152,74326,1,0,0:0:0:0:
77,152,74433,1,0,0:0:0:0:
96,280,74647,1,6,0:0:0:0:
209,341,74861,1,0,0:0:0:0:
240,346,74968,1,0,0:0:0:0:
271,350,75076,2,0,B|343:350|343:350|370:314,1,107.999996704102,8|0,0:0|0:0,0:0:0:0:
344,192,75504,6,0,B|344:128|344:128|380:104,1,107.999996704102,6|0,0:0|0:0,0:0:0:0:
408,164,75826,1,0,0:0:0:0:
408,228,75933,2,0,B|408:293|408:293|371:323,1,107.999996704102,8|0,0:0|0:0,0:0:0:0:
244,319,76361,2,0,P|221:267|243:210,1,107.999996704102,4|0,0:0|0:0,0:0:0:0:
293,193,76683,1,0,0:0:0:0:
338,146,76790,2,0,P|357:95|322:44,1,107.999996704102,8|0,0:0|0:0,0:0:0:0:
206,21,77218,6,0,P|149:15|94:23,1,107.999996704102,6|0,0:0|0:0,0:0:0:0:
24,128,77647,2,0,P|16:196|33:236,1,107.999996704102,8|0,0:0|0:0,0:0:0:0:
135,306,78076,1,4,0:0:0:0:
260,271,78290,1,0,0:0:0:0:
260,271,78397,1,0,0:0:0:0:
260,271,78504,1,8,0:0:0:0:
369,339,78718,1,0,0:0:0:0:
471,259,78933,6,0,P|494:203|463:148,1,107.999996704102,6|0,0:0|0:0,0:0:0:0:
370,87,79361,1,8,0:0:0:0:
250,137,79576,1,0,0:0:0:0:
133,78,79790,1,4,0:0:0:0:
55,181,80004,2,0,P|25:189|3:185,1,53.9999983520508
55,181,80218,2,0,P|43:240|70:292,1,107.999996704102,8|0,0:0|0:0,0:0:0:0:
175,344,80647,6,0,P|228:359|283:336,1,107.999996704102,6|0,0:0|0:0,0:0:0:0:
340,229,81076,1,8,0:0:0:0:
266,122,81290,1,0,0:0:0:0:
169,208,81504,2,0,P|109:216|77:179,1,107.999996704102,6|0,0:0|0:0,0:0:0:0:
105,58,81933,1,8,0:0:0:0:
228,18,82147,1,0,0:0:0:0:
341,80,82361,6,0,P|348:124|328:168,1,76.5000014591217,2|0,0:0|0:0,0:0:0:0:
260,215,82790,2,0,P|209:225|169:199,1,76.5000014591217,2|0,0:0|0:0,0:0:0:0:
93,186,83218,2,0,P|42:180|11:197,1,76.5000014591217,2|0,0:0|0:0,0:0:0:0:
10,289,83647,1,0,0:0:0:0:
79,360,83861,1,0,0:0:0:0:
160,300,84076,6,2,B|195:258|163:197|159:197|155:197|116:134|174:74,2,229.500004377365,2|2|2,0:0|0:0|0:0,0:0:0:0:
73,249,85576,1,0,0:0:0:0:
23,162,85790,6,0,P|10:106|30:62,1,76.5000014591217,2|0,0:0|0:0,0:0:0:0:
106,124,86218,2,0,P|125:77|177:60,1,76.5000014591217,2|0,0:0|0:0,0:0:0:0:
214,135,86647,2,0,P|281:119|303:136,1,76.5000014591217,2|0,0:0|0:0,0:0:0:0:
351,181,87076,2,2,P|364:228|333:273,1,76.5000014591217,2|2,0:0|0:0,0:0:0:0:
292,320,87504,6,2,B|235:361|163:335|148:270|148:270|121:282|81:263,2,229.500004377365
351,249,89004,1,0,0:0:0:0:
335,158,89218,6,0,P|293:143|244:161,1,76.5000014591217,2|0,0:0|0:0,0:0:0:0:
195,223,89647,2,0,P|167:247|105:232,1,76.5000014591217,2|0,0:0|0:0,0:0:0:0:
54,181,90076,2,0,P|45:137|68:92,1,76.5000014591217,2|0,0:0|0:0,0:0:0:0:
142,59,90504,1,0,0:0:0:0:
241,54,90718,1,0,0:0:0:0:
316,116,90933,6,2,B|316:204|316:204|344:256|344:256|344:352,2,229.500004377365
412,140,92433,1,0,0:0:0:0:
440,236,92647,6,0,B|440:284|440:284|424:308,1,76.5000014591217,2|0,0:0|0:0,0:0:0:0:
328,280,93076,2,0,B|272:280|272:280|256:300,1,76.5000014591217,2|0,0:0|0:0,0:0:0:0:
178,354,93504,2,0,P|127:359|93:326,1,76.5000014591217,2|0,0:0|0:0,0:0:0:0:
48,266,93933,2,2,P|36:218|50:188,1,76.5000014591217,2|2,0:0|0:0,0:0:0:0:
120,128,94361,6,2,B|173:106|212:148|212:148|240:181|240:181|276:215|325:183,2,229.500004377365
57,205,95861,2,0,P|35:208|3:196,1,38.2500007295609
57,205,96076,6,0,P|45:259|79:309,1,107.999996704102,6|0,0:0|0:0,0:0:0:0:
137,325,96397,1,0,0:0:0:0:
208,328,96504,2,0,L|316:328,1,107.999996704102,8|0,0:0|0:0,0:0:0:0:
416,228,96933,1,4,0:0:0:0:
384,92,97147,1,0,0:0:0:0:
384,92,97254,1,0,0:0:0:0:
384,92,97361,1,8,0:0:0:0:
281,187,97576,1,0,0:0:0:0:
250,49,97790,6,0,P|199:24|144:49,1,107.999996704102,6|0,0:0|0:0,0:0:0:0:
90,165,98218,1,8,0:0:0:0:
87,181,98326,1,0,0:0:0:0:
84,197,98433,1,0,0:0:0:0:
170,308,98647,2,0,P|223:325|267:296,1,107.999996704102,4|0,0:0|0:0,0:0:0:0:
294,235,98968,1,0,0:0:0:0:
324,171,99076,2,0,P|375:151|416:192,1,107.999996704102,8|0,0:0|0:0,0:0:0:0:
431,320,99504,5,6,0:0:0:0:
295,354,99718,1,0,0:0:0:0:
295,354,99826,1,0,0:0:0:0:
295,354,99933,1,8,0:0:0:0:
222,233,100147,1,0,0:0:0:0:
83,214,100361,2,0,P|57:162|83:106,1,107.999996704102,4|0,0:0|0:0,0:0:0:0:
193,46,100790,2,0,P|259:31|366:56,1,161.999995056153,8|0,0:0|0:0,0:0:0:0:
349,64,101218,6,0,P|338:129|401:166,1,107.999996704102,6|0,0:0|0:0,0:0:0:0:
495,206,101647,1,8,0:0:0:0:
444,336,101861,1,0,0:0:0:0:
306,363,102076,1,4,0:0:0:0:
210,259,102290,1,0,0:0:0:0:
210,259,102397,1,0,0:0:0:0:
210,259,102504,1,8,0:0:0:0:
77,304,102718,1,0,0:0:0:0:
49,166,102933,6,0,P|44:130|51:101,1,53.9999983520508,6|0,0:0|0:0,0:0:0:0:
115,129,103147,2,0,P|118:95|137:75,1,53.9999983520508
186,121,103361,2,0,P|239:103|293:119,1,107.999996704102,8|0,0:0|0:0,0:0:0:0:
375,225,103790,1,4,0:0:0:0:
315,352,104004,1,0,0:0:0:0:
315,352,104111,1,0,0:0:0:0:
315,352,104218,2,0,P|246:363|213:330,1,107.999996704102,8|0,0:0|0:0,0:0:0:0:
139,226,104647,5,6,0:0:0:0:
186,93,104861,1,0,0:0:0:0:
324,70,105076,1,8,0:0:0:0:
339,73,105183,1,0,0:0:0:0:
354,76,105290,1,0,0:0:0:0:
446,181,105504,1,4,0:0:0:0:
401,314,105718,2,0,P|395:348|401:367,1,53.9999983520508
401,314,105933,2,0,P|346:335|293:315,1,107.999996704102,8|0,0:0|0:0,0:0:0:0:
213,210,106361,6,0,P|203:146|235:109,1,107.999996704102,6|0,0:0|0:0,0:0:0:0:
267,170,106683,1,0,0:0:0:0:
275,240,106790,2,0,P|231:276|163:254,1,107.999996704102,8|0,0:0|0:0,0:0:0:0:
108,151,107218,2,0,P|99:92|131:47,1,107.999996704102,4|0,0:0|0:0,0:0:0:0:
190,31,107540,1,0,0:0:0:0:
260,31,107647,2,0,L|372:31,1,107.999996704102,8|0,0:0|0:0,0:0:0:0:
474,121,108076,6,0,P|484:179|459:231,1,107.999996704102,6|0,0:0|0:0,0:0:0:0:
336,278,108504,1,8,0:0:0:0:
212,211,108718,1,0,0:0:0:0:
87,276,108933,1,4,0:0:0:0:
94,135,109147,1,0,0:0:0:0:
94,135,109254,1,0,0:0:0:0:
94,135,109361,1,8,0:0:0:0:
212,211,109576,1,0,0:0:0:0:
320,121,109790,6,0,P|336:64|290:18,1,107.999996704102,6|0,0:0|0:0,0:0:0:0:
170,15,110218,1,8,0:0:0:0:
94,135,110433,1,0,0:0:0:0:
131,270,110647,2,0,P|186:293|228:270,1,107.999996704102,4|0,0:0|0:0,0:0:0:0:
267,138,111076,2,0,P|259:187|297:237,1,107.999996704102,8|0,0:0|0:0,0:0:0:0:
414,299,111504,6,0,P|344:284|258:336,1,161.999995056153,6|0,0:0|0:0,0:0:0:0:
257,337,111933,2,8,P|204:358|159:328,1,107.999996704102,8|8,0:0|0:0,0:0:0:0:
97,209,112361,1,4,0:0:0:0:
155,81,112576,1,0,0:0:0:0:
291,45,112790,2,0,P|352:39|411:61,1,107.999996704102,8|0,0:0|0:0,0:0:0:0:
472,169,113218,6,0,P|478:235|442:278,1,107.999996704102,6|0,0:0|0:0,0:0:0:0:
323,219,113647,2,0,P|317:153|353:110,1,107.999996704102,8|0,0:0|0:0,0:0:0:0:
384,252,114076,2,0,P|390:318|354:361,1,107.999996704102,4|0,0:0|0:0,0:0:0:0:
235,302,114504,2,0,P|229:236|265:193,1,107.999996704102,8|0,0:0|0:0,0:0:0:0:
385,163,114933,6,0,P|415:116|349:37,1,161.999995056153,6|0,0:0|0:0,0:0:0:0:
340,36,115361,2,0,L|224:36,1,107.999996704102,8|0,0:0|0:0,0:0:0:0:
129,133,115790,2,0,P|117:191|153:238,1,107.999996704102,6|0,0:0|0:0,0:0:0:0:
272,279,116218,1,8,0:0:0:0:
394,210,116433,1,0,0:0:0:0:
365,71,116647,6,0,P|338:62|310:68,1,53.9999983520508,6|0,0:0|0:0,0:0:0:0:
298,135,116861,2,0,P|262:123|245:95,1,53.9999983520508
244,41,117076,2,0,P|187:52|136:36,1,107.999996704102,8|0,0:0|0:0,0:0:0:0:
200,165,117504,2,0,P|211:225|184:280,1,107.999996704102,4|0,0:0|0:0,0:0:0:0:
61,311,117933,1,8,0:0:0:0:
8,180,118147,1,0,0:0:0:0:
124,104,118361,6,0,P|200:84|288:108,1,161.999995056153,6|0,0:0|0:0,0:0:0:0:
291,121,118790,2,0,P|280:68|330:9,1,107.999996704102,8|0,0:0|0:0,0:0:0:0:
443,44,119218,2,0,P|454:97|404:156,1,107.999996704102,4|0,0:0|0:0,0:0:0:0:
297,194,119647,1,8,0:0:0:0:
165,145,119861,1,0,0:0:0:0:
69,247,120076,6,0,P|53:312|88:351,1,107.999996704102,6|0,0:0|0:0,0:0:0:0:
211,372,120504,1,8,0:0:0:0:
330,298,120718,1,0,0:0:0:0:
466,330,120933,1,4,0:0:0:0:
425,195,121147,1,0,0:0:0:0:
304,124,121361,2,0,P|256:103|208:124,1,107.999996704102,8|0,0:0|0:0,0:0:0:0:
176,264,121790,6,2,P|256:377|336:264,2,323.999990112305,6|2|2,0:0|0:0|0:0,0:0:0:0:
200,136,123290,1,2,0:0:0:0:
312,136,123504,1,4,0:0:0:0:
