osu file format v12

[General]
AudioFilename: Kola Kid-good old times.mp3
AudioLeadIn: 0
PreviewTime: 96076
Countdown: 0
SampleSet: Soft
StackLeniency: 0.7
Mode: 0
LetterboxInBreaks: 0

[Editor]
DistanceSpacing: 1.2
BeatDivisor: 4
GridSize: 4

[Metadata]
Title:good old times
TitleUnicode:good old times
Artist:Kola Kid
ArtistUnicode:Kola Kid
Creator:vipto
Version:Easy
Source:
Tags:chiptune 8 bit
BeatmapID:256752
BeatmapSetID:95647

[Difficulty]
HPDrainRate:2
CircleSize:3
OverallDifficulty:2
ApproachRate:2
SliderMultiplier:0.7
SliderTickRate:1

[Events]
//Background and Video events
0,0,"hello.jpg",0,0
//Break Periods
//Storyboard Layer 0 (Background)
//Storyboard Layer 1 (Fail)
//Storyboard Layer 2 (Pass)
//Storyboard Layer 3 (Foreground)
//Storyboard Sound Samples
//Background Colour Transformations
3,100,163,162,255

[TimingPoints]
76,428.571428571429,4,2,0,40,1,0
27504,-100,4,2,1,60,0,0
82361,-100,4,2,0,40,0,0
96076,-100,4,2,1,60,0,1
109576,-100,4,2,1,60,0,0
109790,-100,4,2,1,60,0,1
123504,-100,4,2,1,60,0,0

[Colours]
Combo1 : 120,180,216
Combo2 : 255,155,205
Combo3 : 250,198,173

[HitObjects]
292,154,13790,2,0,P|360:122|420:149,2,140,2|0|2,0:0|0:0|0:0,0:0:0:0:
358,205,15933,1,0,0:0:0:0:
280,240,16362,2,0,L|160:240,1,105,2|0,0:0|0:0,0:0:0:0:
110,185,17433,6,0,P|101:140|115:104,1,70,2|0,0:0|0:0,0:0:0:0:
172,64,18291,1,0,0:0:0:0:
255,64,18719,2,2,P|334:133|270:239,1,245,2|2,0:0|0:0,0:0:0:0:
290,320,20648,6,0,B|184:320|184:320|157:282,1,140,2|0,0:0|0:0,0:0:0:0:
130,214,21933,1,0,0:0:0:0:
101,182,22148,2,0,L|101:102,1,70,2|0,0:0|0:0,0:0:0:0:
216,64,23219,6,0,L|336:64,1,105,2|2,0:0|0:0,0:0:0:0:
372,130,24291,2,0,L|380:209,2,70
304,80,25576,2,0,B|203:65|203:65|142:59|108:111|109:151,1,245,2|0,0:0|0:0,0:0:0:0:
139,228,27505,6,0,P|202:256|279:227,1,140,2|0,0:0|0:0,0:0:0:0:
276,153,28791,1,8,0:0:0:0:
284,69,29219,2,0,P|221:41|144:70,1,140,2|0,0:0|0:0,0:0:0:0:
121,136,30505,1,8,0:0:0:0:
77,207,30933,6,0,P|40:214|2:200,2,70,2|8|0,0:0|0:0|0:0,0:0:0:0:
160,211,32219,1,8,0:0:0:0:
224,264,32648,2,0,B|324:264|324:264|352:232,2,140,2|2|2,0:0|0:0|0:0,0:0:0:0:
176,196,34791,6,0,L|168:112,1,70,8|0,0:0|0:0,0:0:0:0:
253,126,35648,1,8,0:0:0:0:
336,126,36076,2,0,L|342:195,1,70,2|8,0:0|0:0,0:0:0:0:
306,271,36933,2,0,P|265:277|222:266,1,70,0|8,0:0|0:0,0:0:0:0:
182,208,37791,6,0,P|161:148|201:77,1,140,2|0,0:0|0:0,0:0:0:0:
275,65,39076,1,8,0:0:0:0:
343,114,39505,2,0,B|394:93|455:114|455:114|463:98|484:89,2,140,0|2|2,0:0|0:0|0:0,0:0:0:0:
278,167,41648,5,8,0:0:0:0:
294,249,42076,2,0,P|297:286|293:326,1,70,0|8,0:0|0:0,0:0:0:0:
218,355,42933,2,0,P|171:359|138:352,1,70,2|8,0:0|0:0,0:0:0:0:
73,317,43791,1,0,0:0:0:0:
43,238,44219,1,8,0:0:0:0:
74,159,44648,6,0,P|134:131|207:165,1,140,2|0,0:0|0:0,0:0:0:0:
256,220,45933,1,8,0:0:0:0:
312,156,46362,2,0,P|378:131|438:159,2,140,2|2|2,0:0|0:0|0:0,0:0:0:0:
256,220,48505,5,8,0:0:0:0:
180,256,48933,2,0,P|128:260|104:252,1,70,0|8,0:0|0:0,0:0:0:0:
53,193,49791,1,2,0:0:0:0:
120,144,50219,2,0,P|48:109|-14:140,1,140,8|0,0:0|0:0,0:0:0:0:
53,194,51505,6,0,P|104:228|183:198,1,140,2|0,0:0|0:0,0:0:0:0:
208,129,52791,1,8,0:0:0:0:
268,72,53219,2,0,B|320:72|320:72|352:96|352:96|404:96,2,140,2|2|2,0:0|0:0|0:0,0:0:0:0:
195,115,55362,5,8,0:0:0:0:
123,159,55791,2,0,L|51:159,2,70,0|8|2,0:0|0:0|0:0,0:0:0:0:
197,198,57076,2,0,P|215:265|160:322,1,140,0|8,0:0|0:0,0:0:0:0:
91,305,58362,6,0,P|73:238|128:181,1,140,2|0,0:0|0:0,0:0:0:0:
197,198,59648,1,8,0:0:0:0:
272,160,60076,2,0,B|312:148|344:160|344:164|344:168|380:184|420:160,2,140,2|2|2,0:0|0:0|0:0,0:0:0:0:
214,221,62219,6,0,P|203:258|273:325,1,140,8|8,0:0|0:0,0:0:0:0:
348,328,63505,1,2,0:0:0:0:
420,284,63933,2,0,B|420:188|420:188|384:148,1,140,8|8,0:0|0:0,0:0:0:0:
308,156,65219,6,0,L|228:156,1,70,2|8,0:0|0:0,0:0:0:0:
256,236,66076,2,0,L|184:236,1,70,0|8,0:0|0:0,0:0:0:0:
200,320,66933,2,0,L|52:320,2,140,0|0|2,0:0|0:0|0:0,0:0:0:0:
255,256,69076,6,0,P|262:219|254:182,1,70,8|0,0:0|0:0,0:0:0:0:
195,129,69933,1,8,0:0:0:0:
112,147,70362,2,0,P|77:199|117:255,2,140,2|0|2,0:0|0:0|0:0,0:0:0:0:
195,129,72505,6,0,L|280:129,1,70,8|0,0:0|0:0,0:0:0:0:
298,206,73362,1,8,0:0:0:0:
332,282,73791,2,0,P|388:315|465:285,2,140,2|2|2,0:0|0:0|0:0,0:0:0:0:
399,232,75933,5,8,0:0:0:0:
322,197,76362,2,0,L|242:197,1,70,0|8,0:0|0:0,0:0:0:0:
168,186,77219,2,0,P|134:137|179:64,1,140,2|0,0:0|0:0,0:0:0:0:
249,63,78505,1,8,0:0:0:0:
300,128,78933,6,0,B|332:164|332:164|432:164,1,140,2|0,0:0|0:0,0:0:0:0:
507,164,80219,1,8,0:0:0:0:
500,248,80648,2,0,B|496:296|448:312|448:312|384:312,1,140,2|0,0:0|0:0,0:0:0:0:
312,312,81933,1,8,0:0:0:0:
252,252,82362,6,0,L|172:252,2,70,2|0|0,0:0|0:0|0:0,0:0:0:0:
336,104,84076,2,0,L|452:104,2,105,2|2|2,0:0|0:0|0:0,0:0:0:0:
276,164,85791,6,0,L|200:164,2,70,2|0|0,0:0|0:0|0:0,0:0:0:0:
304,243,87076,1,0,0:0:0:0:
332,322,87505,2,0,P|385:335|437:313,2,105,2|2|2,0:0|0:0|0:0,0:0:0:0:
262,274,89219,6,0,P|220:266|189:273,1,70,2|0,0:0|0:0,0:0:0:0:
129,325,90076,2,0,P|92:332|60:321,1,70
16,251,90933,2,0,P|5:198|31:140,2,105,2|2|2,0:0|0:0|0:0,0:0:0:0:
61,322,92648,6,0,P|92:332|129:325,1,70,2|0,0:0|0:0,0:0:0:0:
177,256,93505,2,0,L|185:184,1,70
220,110,94362,2,0,P|299:63|402:122,1,210,2|2,0:0|0:0,0:0:0:0:
403,195,96076,6,0,P|401:231|387:263,1,70,2|8,0:0|0:0,0:0:0:0:
321,314,96933,2,0,P|276:320|244:313,1,70,0|8,0:0|0:0,0:0:0:0:
172,288,97791,2,0,P|116:279|59:292,2,105,2|0|8,0:0|0:0|0:0,0:0:0:0:
251,260,99505,6,0,P|285:206|255:129,1,140,2|0,0:0|0:0,0:0:0:0:
202,195,100791,1,8,0:0:0:0:
150,128,101219,2,0,P|116:182|146:259,1,140,2|0,0:0|0:0,0:0:0:0:
215,280,102505,1,8,0:0:0:0:
288,240,102933,6,0,B|332:240|332:240|384:220|384:220|428:220,1,140,2|0,0:0|0:0,0:0:0:0:
468,148,104219,1,8,0:0:0:0:
412,84,104648,2,0,P|352:72|304:88,2,105,2|0|8,0:0|0:0|0:0,0:0:0:0:
468,148,106362,6,0,L|468:228,1,70,2|8,0:0|0:0,0:0:0:0:
504,296,107219,2,0,L|424:296,1,70,0|8,0:0|0:0,0:0:0:0:
372,240,108076,2,0,B|280:240|280:240|252:200,1,140,2|0,0:0|0:0,0:0:0:0:
196,264,109362,1,8,0:0:0:0:
117,235,109791,6,0,B|77:207|77:207|77:115,1,140,2|0,0:0|0:0,0:0:0:0:
105,36,111076,1,8,0:0:0:0:
171,89,111505,2,0,P|230:105|316:88,1,140,2|0,0:0|0:0,0:0:0:0:
385,61,112791,1,8,0:0:0:0:
455,106,113219,6,0,P|479:178|450:242,1,140,2|0,0:0|0:0,0:0:0:0:
377,265,114505,1,8,0:0:0:0:
302,225,114933,2,0,P|287:184|304:126,2,105,2|0|8,0:0|0:0|0:0,0:0:0:0:
372,178,116648,5,2,0:0:0:0:
408,102,117076,2,0,P|417:66|405:27,1,70,8|0,0:0|0:0,0:0:0:0:
332,69,117933,1,8,0:0:0:0:
256,104,118362,2,0,B|184:104|184:104|144:76,2,105,2|0|8,0:0|0:0|0:0,0:0:0:0:
328,146,120076,6,0,P|349:209|320:279,1,140,2|0,0:0|0:0,0:0:0:0:
245,307,121362,1,8,0:0:0:0:
164,288,121791,2,4,B|112:220|172:168|176:168|180:168|240:92|144:32,1,280,0|4,0:0|0:0,0:0:0:0:
