osu file format v14

[General]
AudioFilename: Kola Kid-cash machine go! (www.myfree.cc).mp3
AudioLeadIn: 0
PreviewTime: 76843
Countdown: 0
SampleSet: Soft
StackLeniency: 0.7
Mode: 0
LetterboxInBreaks: 1
WidescreenStoryboard: 1

[Editor]
Bookmarks: 45,9645,19245,57645,67245,76845,105643,115243,124843
DistanceSpacing: 1.2
BeatDivisor: 4
GridSize: 8
TimelineZoom: 1.6

[Metadata]
Title:cash machine go!
TitleUnicode:cash machine go!
Artist:Kola Kid
ArtistUnicode:Kola Kid
Creator:HapiiKat
Version:Normal
Source:
Tags:Kola Kid cash machine go
BeatmapID:557072
BeatmapSetID:233870

[Difficulty]
HPDrainRate:3
CircleSize:3
OverallDifficulty:4
ApproachRate:5
SliderMultiplier:0.8
SliderTickRate:1

[Events]
//Background and Video events
0,0,"kola kid.jpg",0,0
//Break Periods
2,57843,66043
2,105842,109543
//Storyboard Layer 0 (Background)
//Storyboard Layer 1 (Fail)
//Storyboard Layer 2 (Pass)
//Storyboard Layer 3 (Foreground)
//Storyboard Sound Samples

[TimingPoints]
43.1516308991304,300,4,2,0,45,1,0
19243,-90.9090909090909,4,3,0,45,0,0
38443,-90.9090909090909,4,1,0,55,0,0
66493,-100,4,2,0,45,0,0
76843,-83.3333333333333,4,1,1,45,0,1
105643,-83.3333333333333,4,2,0,45,0,0
115243,-100,4,3,0,45,0,0
124843,-83.3333333333333,4,1,1,45,0,1
134443,-90.9090909090909,4,1,1,30,0,0
144043,-83.3333333333333,4,1,1,55,0,1
163243,-100,4,2,0,45,0,0

[Colours]
Combo1 : 247,242,74
Combo2 : 35,24,231
Combo3 : 248,12,12
Combo4 : 26,157,6

[HitObjects]
256,192,43,6,0,P|312:184|352:192,1,80,0|2,0:0|0:0,0:0:0:0:
256,192,643,2,0,P|264:248|256:288,1,80
256,192,1243,2,0,P|200:200|160:192,1,80,2|0,0:0|0:0,0:0:0:0:
256,192,1843,2,0,P|248:136|256:96,1,80,2|0,0:0|0:0,0:0:0:0:
168,56,2443,6,0,P|128:80|96:96,1,80,0|2,0:0|0:0,0:0:0:0:
112,192,3043,2,0,P|152:224|184:248,1,80
272,232,3643,2,0,P|275:185|280:144,1,80,2|0,0:0|0:0,0:0:0:0:
232,64,4243,1,2,0:0:0:0:
232,64,4543,1,0,0:0:0:0:
144,120,4843,6,0,P|144:176|152:200,1,80,0|2,0:0|0:0,0:0:0:0:
248,216,5443,2,0,P|273:246|307:267,1,80
400,224,6043,1,2,0:0:0:0:
368,136,6343,1,0,0:0:0:0:
280,88,6643,1,2,0:0:0:0:
184,96,6943,1,0,0:0:0:0:
240,176,7243,6,0,P|264:120|264:96,1,80,0|2,0:0|0:0,0:0:0:0:
328,176,7843,2,0,P|336:216|360:256,1,80
416,176,8443,2,0,P|440:120|440:96,1,80,2|0,0:0|0:0,0:0:0:0:
352,56,9043,2,0,P|296:48|256:48,1,80,2|0,0:0|0:0,0:0:0:0:
176,56,9643,6,0,L|152:104,1,40
160,144,9943,1,2,0:0:0:0:
248,256,10393,2,0,L|296:248,1,40,0|2,0:0|0:0,0:0:0:0:
336,168,10843,2,0,P|296:176|256:176,1,80,0|2,0:0|0:0,0:0:0:0:
200,96,11443,2,0,P|160:96|104:112,1,80,0|2,0:0|0:0,0:0:0:0:
144,200,12043,6,0,P|128:232|112:248,2,40,0|0|2,0:0|0:0|0:0,0:0:0:0:
272,136,12793,2,0,L|312:144,1,40,0|2,0:0|0:0,0:0:0:0:
352,232,13243,2,0,L|296:288,1,80,0|2,0:0|0:0,0:0:0:0:
216,232,13843,2,0,P|184:208|144:192,1,80,0|2,0:0|0:0,0:0:0:0:
192,112,14443,6,0,P|240:104|248:104,1,40
280,96,14743,1,2,0:0:0:0:
384,200,15193,2,0,L|336:232,1,40,0|2,0:0|0:0,0:0:0:0:
256,224,15643,2,0,P|208:168|200:152,2,80,0|2|0,0:0|0:0|0:0,0:0:0:0:
288,264,16393,2,0,L|344:264,1,40,0|2,0:0|0:0,0:0:0:0:
424,240,16843,6,0,L|392:208|368:184,1,80,0|2,0:0|0:0,0:0:0:0:
304,112,17443,2,0,P|352:120|392:120,1,80,0|2,0:0|0:0,0:0:0:0:
320,192,18043,1,0,0:0:0:0:
232,224,18343,1,2,0:0:0:0:
136,208,18643,1,0,0:0:0:0:
80,128,18943,1,2,0:0:0:0:
184,96,19243,6,0,P|272:80|280:80,1,88.000002685547,4|2,1:0|0:0,0:0:0:0:
360,128,19843,2,0,L|344:216,1,88.000002685547,0|0,1:0|0:0,0:0:0:0:
248,256,20443,2,0,P|200:248|160:264,2,88.000002685547,4|2|0,0:0|0:0|1:0,0:0:0:0:
288,224,21193,2,0,L|312:176,1,44.0000013427735,0|2,0:0|0:0,0:0:0:0:
232,112,21643,6,0,P|272:104|320:88,1,88.000002685547,4|2,0:0|0:0,0:0:0:0:
416,120,22243,1,0,1:0:0:0:
384,224,22543,2,0,P|344:232|296:248,1,88.000002685547,2|4,0:0|0:0,0:0:0:0:
248,256,22993,2,0,L|208:232,1,44.0000013427735,0|2,0:0|0:0,0:0:0:0:
136,152,23443,1,0,1:0:0:0:
208,72,23743,1,2,0:0:0:0:
312,96,24043,6,0,P|368:120|400:128,1,88.000002685547,4|2,0:0|0:0,0:0:0:0:
344,224,24643,2,0,P|272:232|240:224,1,88.000002685547,0|2,1:0|0:0,0:0:0:0:
192,144,25243,2,0,L|168:240,2,88.000002685547,4|2|0,0:0|0:0|1:0,0:0:0:0:
192,88,25993,2,0,P|168:88|144:96,1,44.0000013427735,0|2,0:0|0:0,0:0:0:0:
48,120,26443,6,0,P|104:176|128:176,1,88.000002685547,4|2,0:0|0:0,0:0:0:0:
216,184,27043,2,0,P|264:168|312:168,1,88.000002685547,0|0,1:0|0:0,0:0:0:0:
400,200,27643,2,0,L|392:248,2,44.0000013427735,4|0|2,0:0|0:0|0:0,0:0:0:0:
296,192,28243,1,0,1:0:0:0:
192,208,28543,2,0,P|152:184|120:136,1,88.000002685547,2|4,0:0|0:0,0:0:0:0:
88,248,29143,6,0,B|104:272|104:272|168:272,1,88.000002685547,2|0,0:0|1:0,0:0:0:0:
272,272,29743,1,2,0:0:0:0:
344,200,30043,2,0,B|328:128|328:128|304:128,1,88.000002685547,4|2,0:0|0:0,0:0:0:0:
216,168,30643,2,0,P|152:160|120:136,1,88.000002685547,0|2,1:0|0:0,0:0:0:0:
192,64,31243,6,0,L|240:56,1,44.0000013427735,4|0,0:0|0:0,0:0:0:0:
288,64,31543,2,0,P|312:112|320:160,1,88.000002685547,2|0,0:0|1:0,0:0:0:0:
328,248,32143,2,0,P|272:248|224:256,1,88.000002685547,2|4,0:0|0:0,0:0:0:0:
184,256,32593,2,0,L|128:240,1,44.0000013427735,0|2,0:0|0:0,0:0:0:0:
112,144,33043,1,0,1:0:0:0:
40,224,33343,1,2,0:0:0:0:
128,280,33643,6,0,B|162:248|143:226|175:202,1,88.000002685547,4|2,0:0|0:0,0:0:0:0:
272,224,34243,2,0,B|306:217|312:184|343:175,1,88.000002685547,0|2,1:0|0:0,0:0:0:0:
432,112,34843,2,0,P|376:88|336:88,1,88.000002685547,4|2,0:0|0:0,0:0:0:0:
240,96,35443,2,0,L|248:144,1,44.0000013427735,0|0,1:0|0:0,0:0:0:0:
208,176,35743,2,0,P|176:168|128:208,1,88.000002685547,2|4,0:0|0:0,0:0:0:0:
200,280,36343,6,0,L|296:248,1,88.000002685547,2|0,0:0|1:0,0:0:0:0:
336,160,36943,2,0,P|288:152|248:136,1,88.000002685547,2|4,0:0|0:0,0:0:0:0:
200,128,37393,2,0,L|160:168,1,44.0000013427735,0|2,0:0|0:0,0:0:0:0:
216,256,37843,1,0,1:0:0:0:
320,280,38143,1,2,0:0:0:0:
408,224,38443,6,0,P|400:192|384:136,1,88.000002685547,4|2,0:0|0:0,0:0:0:0:
288,104,39043,2,0,L|280:192,1,88.000002685547,2|2,0:0|0:0,0:0:0:0:
176,184,39643,1,2,0:0:0:0:
176,184,39943,1,2,0:0:0:0:
280,304,40393,2,0,L|336:280,1,44.0000013427735,0|2,0:0|0:0,0:0:0:0:
408,160,41143,6,0,P|360:128|320:120,1,88.000002685547,2|2,0:0|0:0,0:0:0:0:
232,160,41743,1,2,0:0:0:0:
216,264,42043,2,0,P|152:256|120:240,2,88.000002685547,2|2|2,0:0|0:0|0:0,0:0:0:0:
320,272,42943,2,0,L|352:176,1,88.000002685547,2|0,0:0|0:0,0:0:0:0:
312,88,43543,6,0,P|280:104|224:120,1,88.000002685547,2|2,0:0|0:0,0:0:0:0:
128,104,44143,1,2,0:0:0:0:
72,192,44443,2,0,P|96:248|128:272,1,88.000002685547,2|2,0:0|0:0,0:0:0:0:
272,232,45193,2,0,L|296:184,1,44.0000013427735,0|2,0:0|0:0,0:0:0:0:
328,96,45943,5,2,0:0:0:0:
296,192,46243,2,0,P|240:200|200:224,2,88.000002685547,2|2|2,0:0|0:0|0:0,0:0:0:0:
336,224,46993,2,0,L|384:256,1,44.0000013427735,0|2,0:0|0:0,0:0:0:0:
464,192,47443,2,2,P|424:136|400:120,1,88.000002685547
328,56,48043,2,0,P|296:80|240:96,1,88.000002685547,0|2,0:0|0:0,0:0:0:0:
152,136,48643,5,2,0:0:0:0:
96,224,48943,2,0,P|144:256|184:256,1,88.000002685547,2|2,0:0|0:0,0:0:0:0:
280,264,49543,1,2,0:0:0:0:
392,152,49993,2,0,L|344:136,1,44.0000013427735,0|2,0:0|0:0,0:0:0:0:
152,56,50743,6,0,P|152:112|128:152,1,88.000002685547,2|2,0:0|0:0,0:0:0:0:
136,248,51343,1,2,0:0:0:0:
240,248,51643,2,0,P|272:264|288:264,2,44.0000013427735,2|2|2,0:0|0:0|0:0,0:0:0:0:
288,152,52243,2,0,B|320:160|320:160|352:144|352:144|384:144,1,88.000002685547,2|0,0:0|0:0,0:0:0:0:
312,48,52843,1,2,0:0:0:0:
200,48,53143,6,0,P|128:88|112:104,1,88.000002685547,2|2,0:0|0:0,0:0:0:0:
96,200,53743,2,0,B|112:272|112:272|128:280,1,88.000002685547,2|2,0:0|0:0,0:0:0:0:
240,296,54343,1,2,0:0:0:0:
384,224,54793,2,0,L|384:180,1,44.0000013427735,0|2,0:0|0:0,0:0:0:0:
296,120,55243,2,0,P|240:96|200:72,1,88.000002685547,0|2,0:0|0:0,0:0:0:0:
112,72,55843,1,2,0:0:0:0:
56,160,56143,1,2,0:0:0:0:
104,256,56443,6,0,L|160:264,2,44.0000013427735,2|0|2,0:0|0:0|0:0,0:0:0:0:
176,176,57043,2,0,P|224:160|280:160,1,88.000002685547,2|2,0:0|0:0,0:0:0:0:
344,224,57643,1,4,0:0:0:0:
112,80,67243,6,0,P|160:80|200:72,1,80,4|2,0:0|0:0,0:0:0:0:
280,120,67843,2,0,P|288:176|312:208,1,80,0|2,0:0|0:0,0:0:0:0:
216,240,68443,2,0,P|176:256|136:248,1,80,0|2,0:0|0:0,0:0:0:0:
176,160,69043,2,0,P|216:144|256:152,1,80,0|2,0:0|0:0,0:0:0:0:
320,80,69643,2,0,L|360:112,1,40
384,144,69943,2,0,P|376:216|368:240,2,80,2|0|2,0:0|0:0|0:0,0:0:0:0:
288,136,70843,6,0,L|192:144,1,80,0|2,0:0|0:0,0:0:0:0:
136,80,71443,2,0,P|128:152|120:160,1,80,0|2,0:0|0:0,0:0:0:0:
144,248,72043,2,0,P|192:272|232:264,1,80,0|2,0:0|0:0,0:0:0:0:
288,200,72643,2,0,P|336:192|368:208,1,80,0|2,0:0|0:0,0:0:0:0:
448,160,73243,2,0,L|464:64,2,80,0|2|0,0:0|0:0|0:0,0:0:0:0:
384,232,74143,1,2,0:0:0:0:
320,160,74443,6,0,L|280:128,1,40,0|0,0:0|0:0,0:0:0:0:
248,112,74743,2,0,P|192:112|168:128,1,80,2|0,0:0|0:0,0:0:0:0:
144,216,75343,2,0,L|184:216,1,40,2|0,0:0|0:0,0:0:0:0:
232,232,75643,2,0,P|256:256|272:304,2,80,0|2|0,0:0|0:0|0:0,0:0:0:0:
256,152,76543,1,2,0:0:0:0:
160,80,76843,6,0,P|128:104|96:168,1,95.9999970703126,4|8,0:0|0:0,0:0:0:0:
72,240,77443,2,0,P|136:232|168:216,1,95.9999970703126,4|8,3:0|0:0,0:0:0:0:
243,165,78043,1,4,3:0:0:0:
335,192,78343,1,8,0:0:0:0:
365,100,78643,1,4,3:0:0:0:
273,71,78943,1,8,0:0:0:0:
184,72,79243,6,0,P|152:64|128:56,2,47.9999985351563,4|0|8,0:0|0:0|0:0,0:0:0:0:
256,136,79843,2,0,B|288:152|264:216|312:232,2,95.9999970703126,4|8|4,3:0|0:0|3:0,0:0:0:0:
168,184,80743,1,8,0:0:0:0:
96,248,81043,2,0,P|136:288|184:288,1,95.9999970703126,4|8,3:0|0:0,0:0:0:0:
256,248,81643,6,0,B|272:208|272:208|288:216|320:224|344:216,1,95.9999970703126,4|8,0:0|0:0,0:0:0:0:
408,176,82243,1,4,3:0:0:0:
320,136,82543,1,8,0:0:0:0:
232,96,82843,2,0,P|168:96|120:112,1,95.9999970703126,4|8,3:0|0:0,0:0:0:0:
80,184,83443,1,4,3:0:0:0:
176,208,83743,2,0,P|240:200|272:208,1,95.9999970703126,8|4,0:0|3:0,0:0:0:0:
312,224,84193,6,0,L|376:208,1,47.9999985351563,0|8,0:0|0:0,0:0:0:0:
408,128,84643,1,0,0:0:0:0:
336,72,84943,2,0,P|272:72|232:80,2,95.9999970703126,8|4|8,0:0|3:0|0:0,0:0:0:0:
344,168,85843,2,0,B|312:192|312:192|304:256,1,95.9999970703126,4|8,3:0|0:0,0:0:0:0:
208,272,86443,6,0,P|136:232|136:208,1,95.9999970703126,4|8,0:0|0:0,0:0:0:0:
128,136,87043,2,0,P|168:128|224:96,1,95.9999970703126,4|8,3:0|0:0,0:0:0:0:
136,48,87643,1,4,3:0:0:0:
64,112,87943,1,8,0:0:0:0:
72,208,88243,2,0,L|112:256,1,47.9999985351563,4|0,3:0|0:0,0:0:0:0:
144,272,88543,2,0,P|208:280|256:264,1,95.9999970703126,8|4,0:0|3:0,0:0:0:0:
248,176,89143,5,8,0:0:0:0:
320,112,89443,2,0,P|368:120|416:112,2,95.9999970703126,4|8|4,3:0|0:0|3:0,0:0:0:0:
376,192,90343,2,0,B|400:232|400:232|376:288,1,95.9999970703126,8|4,0:0|3:0,0:0:0:0:
296,320,90943,2,0,L|240:296,1,47.9999985351563,8|0,0:0|0:0,0:0:0:0:
216,264,91243,6,0,P|256:240|288:184,1,95.9999970703126,4|8,0:0|0:0,0:0:0:0:
184,184,91843,2,0,P|176:136|144:96,1,95.9999970703126,4|8,3:0|0:0,0:0:0:0:
88,176,92443,1,4,3:0:0:0:
184,184,92743,2,0,L|240:184,2,47.9999985351563,8|0|4,0:0|0:0|3:0,0:0:0:0:
144,96,93343,1,8,0:0:0:0:
328,304,93943,5,8,0:0:0:0:
232,296,94243,2,0,B|240:248|240:248|176:248,1,95.9999970703126,4|8,3:0|0:0,0:0:0:0:
96,224,94843,2,0,P|120:160|152:144,1,95.9999970703126,4|8,3:0|0:0,0:0:0:0:
232,120,95443,1,4,3:0:0:0:
336,112,95743,1,8,0:0:0:0:
424,136,96043,6,0,L|400:248,2,95.9999970703126,4|8|4,0:0|0:0|3:0,0:0:0:0:
328,128,96943,2,0,L|280:136|232:128,1,95.9999970703126,8|4,0:0|3:0,0:0:0:0:
136,104,97543,1,8,0:0:0:0:
72,176,97843,2,0,L|112:224,1,47.9999985351563,4|0,3:0|0:0,0:0:0:0:
136,248,98143,2,0,P|216:272|248:264,1,95.9999970703126,8|4,0:0|3:0,0:0:0:0:
264,184,98743,5,8,0:0:0:0:
336,120,99043,1,4,3:0:0:0:
360,216,99343,1,8,0:0:0:0:
288,280,99643,2,0,L|176:280,1,95.9999970703126,4|8,3:0|0:0,0:0:0:0:
120,216,100243,2,0,P|112:144|136:112,1,95.9999970703126,4|8,3:0|0:0,0:0:0:0:
216,104,100843,6,0,B|280:112|280:112|296:144,1,95.9999970703126,4|8,0:0|0:0,0:0:0:0:
368,200,101443,1,4,3:0:0:0:
320,280,101743,2,0,P|272:272|216:264,2,95.9999970703126,8|4|8,0:0|3:0|0:0,0:0:0:0:
392,216,102643,2,0,L|400:160,1,47.9999985351563,4|0,3:0|0:0,0:0:0:0:
392,120,102943,2,0,P|352:128|288:128,1,95.9999970703126,8|4,0:0|3:0,0:0:0:0:
208,88,103543,6,0,P|160:96|160:152,1,95.9999970703126,8|4,0:0|3:0,0:0:0:0:
168,232,104143,2,0,P|232:248|264:248,2,95.9999970703126,8|4|8,0:0|3:0|0:0,0:0:0:0:
104,168,105043,2,0,L|152:144,1,47.9999985351563,4|0,3:0|0:0,0:0:0:0:
192,128,105343,2,0,P|256:136|304:136,1,95.9999970703126,8|4,0:0|0:0,0:0:0:0:
256,192,110743,5,8,0:0:0:0:
96,80,111343,5,8,0:0:0:0:
88,272,111943,5,8,0:0:0:0:
280,280,112543,6,0,P|328:232|336:184,1,95.9999970703126,8|8,0:0|0:0,0:0:0:0:
296,120,113143,2,0,L|240:112,1,47.9999985351563,8|8,0:0|0:0,0:0:0:0:
200,112,113443,2,0,P|160:160|136:200,1,95.9999970703126,8|8,0:0|0:0,0:0:0:0:
192,272,114043,1,8,0:0:0:0:
288,256,114343,6,0,L|336:232,1,47.9999985351563,8|8,0:0|0:0,0:0:0:0:
368,200,114643,2,0,P|352:152|352:96,1,95.9999970703126,8|12,0:0|0:0,0:0:0:0:
272,80,115243,6,0,P|224:112|200:296,1,240,4|6,0:0|0:0,0:0:0:0:
272,280,116443,2,0,B|328:248|376:248|376:248|416:224|416:176|408:144|384:136,1,240,4|6,0:0|0:0,0:0:0:0:
304,128,117643,6,0,P|256:128|216:120,1,80,4|6,0:0|0:0,0:0:0:0:
144,136,118243,1,4,0:0:0:0:
128,216,118543,2,0,P|160:248|200:264,1,80,6|4,0:0|0:0,0:0:0:0:
272,272,119143,2,0,P|336:264|368:256,2,80,6|4|6,0:0|0:0|0:0,0:0:0:0:
200,232,120043,2,0,B|168:184|104:152|104:80|152:56|200:104,1,240,4|6,0:0|0:0,0:0:0:0:
280,104,121243,2,0,B|328:56|376:80|376:152|312:184|280:232,1,240,4|6,0:0|0:0,0:0:0:0:
240,304,122443,2,0,P|272:296|296:288,1,40,4|0,0:0|0:0,0:0:0:0:
320,288,122743,2,0,L|392:288|408:288,1,80,6|4,0:0|0:0,0:0:0:0:
408,208,123343,6,0,L|392:160,1,40,6|0,0:0|0:0,0:0:0:0:
360,144,123643,2,0,P|328:152|272:144,2,80,4|6|4,0:0|0:0|0:0,0:0:0:0:
392,72,124543,1,6,0:0:0:0:
288,64,124843,6,0,P|224:80|192:96,1,95.9999970703126,4|8,0:0|0:0,0:0:0:0:
120,160,125443,2,0,P|192:192|224:184,1,95.9999970703126,4|8,3:0|0:0,0:0:0:0:
256,192,126043,12,4,127243,3:0:0:0:
208,144,127543,6,0,P|256:120|312:112,1,95.9999970703126,8|4,0:0|3:0,0:0:0:0:
400,152,128143,1,8,0:0:0:0:
344,240,128443,2,0,P|312:256|240:272,1,95.9999970703126,4|8,3:0|0:0,0:0:0:0:
152,232,129043,2,0,L|120:184,1,47.9999985351563,4|0,3:0|0:0,0:0:0:0:
104,144,129343,2,0,P|144:120|208:112,1,95.9999970703126,8|4,0:0|0:0,0:0:0:0:
296,80,129943,6,0,P|344:104|392:136,1,95.9999970703126,8|4,0:0|3:0,0:0:0:0:
352,232,130543,2,0,P|304:256|264:288,1,95.9999970703126,8|4,0:0|3:0,0:0:0:0:
144,264,131143,1,8,0:0:0:0:
136,152,131443,2,0,B|184:144|184:144|248:168,1,95.9999970703126,4|8,3:0|0:0,0:0:0:0:
328,208,132043,6,0,P|296:232|224:256,3,95.9999970703126,4|8|4|8,3:0|0:0|3:0|0:0,0:0:0:0:
160,192,133243,2,0,P|192:168|264:144,3,95.9999970703126,4|8|4|8,3:0|0:0|3:0|0:0,0:0:0:0:
344,144,134443,6,0,B|336:200|336:200|288:224|272:248|312:288|312:312,1,176.000005371094,4|8,0:0|0:0,0:0:0:0:
264,312,135193,2,0,L|200:320,1,44.0000013427735,0|2,0:0|3:0,0:0:0:0:
144,256,135643,2,0,L|112:200,1,44.0000013427735,4|0,3:0|0:0,0:0:0:0:
112,168,135943,2,0,B|160:144|216:192|240:176|288:160,1,176.000005371094,2|2,3:0|3:0,0:0:0:0:
352,96,136843,6,0,P|416:144|416:160,2,88.000002685547,4|2|8,3:0|3:0|0:0,0:0:0:0:
256,120,137743,1,2,3:0:0:0:
176,64,138043,2,0,B|136:112|160:152|176:160|192:176|176:232,2,176.000005371094,4|8|4,3:0|0:0|0:0,0:0:0:0:
224,72,139393,2,0,L|272:80,1,44.0000013427735,0|2,0:0|3:0,0:0:0:0:
320,160,139843,1,8,0:0:0:0:
176,288,140443,5,4,3:0:0:0:
120,208,140743,2,0,P|112:152|136:112,2,88.000002685547,2|8|2,3:0|0:0|3:0,0:0:0:0:
216,176,141643,2,0,P|256:176|304:152,1,88.000002685547,4|2,3:0|3:0,0:0:0:0:
312,64,142243,1,8,0:0:0:0:
384,128,142543,1,2,3:0:0:0:
320,200,142843,6,0,P|280:200|232:224,1,88.000002685547,0|2,0:0|3:0,0:0:0:0:
224,312,143443,1,8,0:0:0:0:
152,248,143743,1,8,0:0:0:0:
152,152,144043,6,0,P|216:120|256:104,1,95.9999970703126,4|8,0:0|0:0,0:0:0:0:
344,104,144643,2,0,P|424:136|440:152,1,95.9999970703126,4|8,3:0|0:0,0:0:0:0:
400,240,145243,2,0,P|384:272|368:280,1,47.9999985351563,4|4,3:0|3:0,0:0:0:0:
328,296,145543,2,0,L|272:296|216:296,1,95.9999970703126,8|4,0:0|3:0,0:0:0:0:
184,264,145993,1,4,3:0:0:0:
152,216,146143,2,0,P|168:176|224:128,1,95.9999970703126,8|4,0:0|0:0,0:0:0:0:
256,48,146743,6,0,P|200:56|144:72,1,95.9999970703126,8|4,0:0|3:0,0:0:0:0:
88,144,147343,1,8,0:0:0:0:
88,248,147643,2,0,P|136:264|192:240,1,95.9999970703126,4|8,3:0|0:0,0:0:0:0:
264,184,148243,2,0,P|312:168|368:192,1,95.9999970703126,4|8,3:0|0:0,0:0:0:0:
368,288,148843,6,0,B|360:256|376:224|384:192,1,95.9999970703126,4|8,0:0|0:0,0:0:0:0:
352,96,149443,2,0,B|296:88|296:88|256:112,1,95.9999970703126,4|8,3:0|0:0,0:0:0:0:
192,184,150043,1,4,3:0:0:0:
256,264,150343,1,8,0:0:0:0:
152,272,150643,2,0,P|96:216|80:184,1,95.9999970703126,4|8,3:0|0:0,0:0:0:0:
192,168,151243,1,4,0:0:0:0:
152,272,151543,6,0,L|216:256,1,47.9999985351563,8|4,0:0|3:0,0:0:0:0:
248,264,151843,2,0,P|328:248|352:256,1,95.9999970703126,4|8,3:0|0:0,0:0:0:0:
448,264,152443,1,4,3:0:0:0:
456,160,152743,2,0,P|432:120|416:64,1,95.9999970703126,8|4,0:0|3:0,0:0:0:0:
368,72,153193,2,0,L|304:72,3,47.9999985351563,8|8|8|4,0:0|0:0|0:0|0:0,0:0:0:0:
224,120,153943,6,0,B|200:152|200:152|232:200,2,95.9999970703126,8|4|8,0:0|3:0|0:0,0:0:0:0:
320,168,154843,2,0,L|392:256,1,95.9999970703126,4|8,3:0|0:0,0:0:0:0:
360,288,155293,1,4,3:0:0:0:
312,312,155443,2,0,P|240:320|208:312,1,95.9999970703126,4|8,3:0|0:0,0:0:0:0:
48,192,156343,6,0,P|112:200|152:200,1,95.9999970703126,8|4,0:0|3:0,0:0:0:0:
216,128,156943,1,8,0:0:0:0:
312,96,157243,2,0,L|360:120,1,47.9999985351563,4|4,3:0|3:0,0:0:0:0:
384,160,157543,2,0,P|368:224|336:248,2,95.9999970703126,8|4|8,0:0|3:0|0:0,0:0:0:0:
456,232,158443,6,0,L|352:248,1,95.9999970703126,4|8,0:0|0:0,0:0:0:0:
256,248,159043,2,0,L|144:224,1,95.9999970703126,4|8,3:0|0:0,0:0:0:0:
120,128,159643,2,0,L|176:112,1,47.9999985351563,4|4,3:0|3:0,0:0:0:0:
216,88,159943,2,0,P|256:104|312:112,1,95.9999970703126,8|4,0:0|3:0,0:0:0:0:
360,96,160393,1,4,3:0:0:0:
416,104,160543,2,0,L|384:208,1,95.9999970703126,8|4,0:0|0:0,0:0:0:0:
352,296,161143,6,0,P|280:312|256:304,1,95.9999970703126,8|4,0:0|3:0,0:0:0:0:
160,272,161743,1,8,0:0:0:0:
96,184,162043,2,0,L|152:176,1,47.9999985351563,4|4,3:0|3:0,0:0:0:0:
192,160,162343,2,0,P|208:112|240:80,2,95.9999970703126,8|4|8,0:0|3:0|0:0,0:0:0:0:
272,200,163243,1,4,0:0:0:0:
