osu file format v14

[General]
AudioFilename: Kola Kid-cash machine go! (www.myfree.cc).mp3
AudioLeadIn: 0
PreviewTime: 76843
Countdown: 0
SampleSet: Soft
StackLeniency: 0.7
Mode: 0
LetterboxInBreaks: 1
WidescreenStoryboard: 0

[Editor]
Bookmarks: 45,9645,19245,38443,57645,67245,76845,86443,98143,105643,115243,124843,160543
DistanceSpacing: 1.3
BeatDivisor: 1
GridSize: 8
TimelineZoom: 1.6

[Metadata]
Title:cash machine go!
TitleUnicode:cash machine go!
Artist:Kola Kid
ArtistUnicode:Kola Kid
Creator:HapiiKat
Version:Insane
Source:
Tags:Kola Kid cash machine go
BeatmapID:542625
BeatmapSetID:233870

[Difficulty]
HPDrainRate:5
CircleSize:3.5
OverallDifficulty:6
ApproachRate:9
SliderMultiplier:1.6
SliderTickRate:1

[Events]
//Background and Video events
0,0,"kola kid.jpg",0,0
//Break Periods
2,57843,66043
//Storyboard Layer 0 (Background)
//Storyboard Layer 1 (Fail)
//Storyboard Layer 2 (Pass)
//Storyboard Layer 3 (Foreground)
//Storyboard Sound Samples

[TimingPoints]
43.1516308991304,300,4,2,0,45,1,0
19243,-83.3333333333333,4,3,0,65,0,0
38443,-83.3333333333333,4,1,0,70,0,0
66493,-83.3333333333333,4,2,0,45,0,0
76843,-76.9230769230769,4,1,1,55,0,1
86443,-76.9230769230769,4,1,1,65,0,1
105718,-76.9230769230769,4,2,0,45,0,0
115243,-100,4,2,0,45,0,0
124843,-76.9230769230769,4,1,1,45,0,1
134443,-100,4,1,1,35,0,0
144043,-76.9230769230769,4,1,1,65,0,1
162643,-76.9230769230769,4,1,1,45,0,1
163243,-100,4,2,0,45,0,0

[Colours]
Combo1 : 247,242,74
Combo2 : 35,24,231
Combo3 : 248,12,12
Combo4 : 26,157,6

[HitObjects]
216,96,47,6,0,P|152:52|64:72,2,160,0|2|0,0:0|0:0|0:0,0:0:0:0:
256,192,943,1,0,0:0:0:0:
296,288,1243,2,0,P|360:332|448:312,2,160,2|0|2,0:0|0:0|0:0,0:0:0:0:
136,304,2143,1,0,0:0:0:0:
48,136,2443,5,0,0:0:0:0:
128,64,2593,1,0,0:0:0:0:
216,120,2743,1,2,0:0:0:0:
152,256,3043,2,0,L|312:288,2,160,0|0|2,0:0|0:0|0:0,0:0:0:0:
288,200,3943,1,0,0:0:0:0:
416,144,4243,2,0,B|392:88|376:56|376:56|296:72,1,160,2|0,0:0|0:0,0:0:0:0:
80,160,4843,6,0,L|128:80,1,80
216,48,5143,1,2,0:0:0:0:
216,152,5443,1,0,0:0:0:0:
320,160,5743,2,0,P|368:224|344:312,2,160,0|2|0,0:0|0:0|0:0,0:0:0:0:
200,144,6643,2,0,P|152:208|176:296,1,160,2|0,0:0|0:0,0:0:0:0:
272,104,7243,5,0,0:0:0:0:
288,200,7393,1,0,0:0:0:0:
382,194,7543,1,2,0:0:0:0:
382,194,7843,1,0,0:0:0:0:
384,64,8143,1,0,0:0:0:0:
256,64,8443,1,2,0:0:0:0:
248,192,8743,1,0,0:0:0:0:
120,240,9043,2,0,P|72:192|64:104,2,160,2|0|0,0:0|0:0|0:0,0:0:0:0:
240,312,9793,6,0,L|264:224,1,80,0|2,0:0|0:0,0:0:0:0:
328,72,10393,2,0,L|368:160,1,80,0|2,0:0|0:0,0:0:0:0:
392,288,10843,1,0,0:0:0:0:
288,288,10993,1,0,0:0:0:0:
224,176,11143,2,0,P|160:208|88:192,1,120,2|0,0:0|0:0,0:0:0:0:
80,184,11443,1,0,0:0:0:0:
64,144,11518,1,0,0:0:0:0:
80,104,11593,1,0,0:0:0:0:
224,96,11743,2,0,L|224:176,2,80,2|0|0,0:0|0:0|0:0,0:0:0:0:
312,216,12193,6,0,L|312:304,1,80,0|2,0:0|0:0,0:0:0:0:
112,192,12793,2,0,L|112:88,2,80,0|2|0,0:0|0:0|0:0,0:0:0:0:
128,304,13243,2,0,P|200:312|304:296,2,160,0|2|0,0:0|0:0|0:0,0:0:0:0:
176,216,13993,2,0,L|136:128,1,80,0|2,0:0|0:0,0:0:0:0:
280,120,14443,5,0,0:0:0:0:
376,216,14593,1,0,0:0:0:0:
280,304,14743,1,2,0:0:0:0:
384,80,15043,2,0,L|344:152,1,80,0|0,0:0|0:0,0:0:0:0:
320,272,15343,1,2,0:0:0:0:
176,304,15493,1,0,0:0:0:0:
320,272,15643,5,0,0:0:0:0:
176,304,15793,1,0,0:0:0:0:
168,112,15943,2,0,P|56:176|48:216,1,160,2|0,0:0|0:0,0:0:0:0:
72,240,16318,1,0,0:0:0:0:
112,264,16393,2,0,L|208:248,1,80,0|2,0:0|0:0,0:0:0:0:
280,168,16693,1,0,0:0:0:0:
336,48,16843,5,0,0:0:0:0:
464,96,16993,1,0,0:0:0:0:
336,144,17143,1,2,0:0:0:0:
88,152,17443,2,0,L|184:112,1,80
344,256,17743,2,0,L|256:216,1,80,2|0,0:0|0:0,0:0:0:0:
88,288,18043,5,0,0:0:0:0:
88,288,18193,1,0,0:0:0:0:
200,104,18343,2,0,P|232:152|240:256,1,160,2|0,0:0|0:0,0:0:0:0:
336,320,18793,1,0,0:0:0:0:
424,248,18943,5,2,0:0:0:0:
414,209,19018,1,0,0:0:0:0:
401,171,19093,1,2,0:0:0:0:
385,134,19168,1,0,0:0:0:0:
366,99,19243,1,4,1:0:0:0:
256,96,19393,2,0,L|216:48,2,47.9999985351563,0|0|2,0:0|0:0|0:0,0:0:0:0:
144,160,19693,1,0,0:0:0:0:
80,272,19843,2,0,P|160:288|200:272,1,95.9999970703126,0|0,1:0|0:0,0:0:0:0:
216,248,20068,1,0,0:0:0:0:
248,200,20143,2,0,P|304:176|352:192,1,95.9999970703126,2|0,0:0|0:0,0:0:0:0:
352,344,20443,6,0,P|272:280|248:160,1,191.999994140625,4|2,0:0|0:0,0:0:0:0:
88,120,20893,1,0,0:0:0:0:
128,96,20968,1,0,0:0:0:0:
176,96,21043,1,0,1:0:0:0:
176,224,21193,2,0,P|216:232|280:224,1,95.9999970703126,0|2,0:0|0:0,0:0:0:0:
360,80,21643,5,4,0:0:0:0:
424,176,21793,1,0,0:0:0:0:
352,280,21943,1,2,0:0:0:0:
312,304,22018,1,0,0:0:0:0:
264,312,22093,1,0,0:0:0:0:
160,272,22243,2,0,P|160:224|264:112,1,191.999994140625,0|2,1:0|0:0,0:0:0:0:
64,88,22843,1,4,0:0:0:0:
64,200,22993,5,0,0:0:0:0:
80,240,23068,1,0,0:0:0:0:
104,272,23143,2,0,P|144:304|208:304,1,95.9999970703126,2|0,0:0|0:0,0:0:0:0:
240,304,23368,1,0,0:0:0:0:
288,280,23443,2,0,P|336:256|400:272,1,95.9999970703126,0|0,1:0|0:0,0:0:0:0:
312,96,23743,2,0,L|368:184,1,95.9999970703126,2|0,0:0|0:0,0:0:0:0:
208,88,24043,5,4,0:0:0:0:
112,240,24343,2,0,L|72:280,2,47.9999985351563,2|0|0,0:0|0:0|0:0,0:0:0:0:
104,80,24643,1,0,1:0:0:0:
112,304,24943,2,0,B|176:288|184:208|184:208|280:192,1,191.999994140625,2|4,0:0|0:0,0:0:0:0:
320,104,25393,1,0,0:0:0:0:
424,192,25543,2,0,P|416:256|304:224,1,191.999994140625,2|0,0:0|1:0,0:0:0:0:
272,216,25918,1,0,0:0:0:0:
216,208,25993,2,0,L|96:208,1,95.9999970703126,0|2,0:0|0:0,0:0:0:0:
280,88,26443,5,4,0:0:0:0:
320,200,26593,1,0,0:0:0:0:
416,272,26743,2,0,B|448:200|440:144|440:144|416:168|384:184,1,191.999994140625,2|0,0:0|1:0,0:0:0:0:
304,256,27193,1,0,0:0:0:0:
232,320,27343,2,0,B|144:280|144:280|128:208|192:208,1,191.999994140625,2|4,0:0|0:0,0:0:0:0:
216,192,27718,1,0,0:0:0:0:
256,176,27793,1,0,0:0:0:0:
296,160,27868,1,0,0:0:0:0:
336,144,27943,2,0,P|416:160|432:200,2,95.9999970703126,2|0|0,0:0|0:0|1:0,0:0:0:0:
160,120,28393,1,0,0:0:0:0:
160,120,28543,2,0,B|96:152|176:240|184:264|120:320,1,191.999994140625,2|4,0:0|0:0,0:0:0:0:
424,168,29143,5,2,0:0:0:0:
328,280,29293,1,0,0:0:0:0:
272,144,29443,1,0,1:0:0:0:
152,168,29593,1,0,0:0:0:0:
112,152,29668,1,0,0:0:0:0:
64,160,29743,1,2,0:0:0:0:
96,280,29893,2,0,P|152:304|216:288,1,95.9999970703126,0|4,0:0|0:0,0:0:0:0:
272,208,30193,5,0,0:0:0:0:
384,248,30343,1,2,0:0:0:0:
384,80,30643,6,0,P|424:64|456:64,2,47.9999985351563,0|0|0,1:0|0:0|0:0,0:0:0:0:
288,104,30943,1,2,0:0:0:0:
120,112,31243,1,4,0:0:0:0:
144,208,31393,1,0,0:0:0:0:
224,272,31543,1,2,0:0:0:0:
352,296,31693,2,0,P|336:232|344:160,1,95.9999970703126,0|0,0:0|1:0,0:0:0:0:
344,160,31918,1,0,0:0:0:0:
344,112,31993,2,0,B|280:120|256:88|216:96,1,95.9999970703126,0|2,0:0|0:0,0:0:0:0:
88,208,32443,1,4,0:0:0:0:
104,328,32593,1,0,0:0:0:0:
232,296,32743,5,2,0:0:0:0:
272,312,32818,1,0,0:0:0:0:
320,312,32893,1,0,0:0:0:0:
368,296,32968,1,0,0:0:0:0:
400,264,33043,1,0,1:0:0:0:
440,120,33193,1,0,0:0:0:0:
352,184,33343,1,2,0:0:0:0:
320,56,33493,2,0,P|272:88|224:88,1,95.9999970703126,0|4,0:0|0:0,0:0:0:0:
72,240,33943,6,0,B|136:280|160:232|224:216|256:256,1,191.999994140625,2|0,0:0|1:0,0:0:0:0:
352,328,34393,2,0,P|392:280|400:240,1,95.9999970703126,0|2,0:0|0:0,0:0:0:0:
416,56,34843,1,4,0:0:0:0:
160,80,35143,1,2,0:0:0:0:
56,80,35293,1,0,0:0:0:0:
56,80,35443,2,0,L|80:184,1,95.9999970703126,0|0,1:0|0:0,0:0:0:0:
120,280,35743,1,2,0:0:0:0:
344,288,36043,1,4,0:0:0:0:
344,288,36193,2,0,L|304:184,1,95.9999970703126,0|2,0:0|0:0,0:0:0:0:
256,72,36493,6,0,P|320:72|360:96,1,95.9999970703126,0|0,0:0|1:0,0:0:0:0:
336,192,36793,1,0,0:0:0:0:
344,304,36943,2,0,P|288:320|224:304,1,95.9999970703126,2|0,0:0|0:0,0:0:0:0:
128,312,37243,2,0,P|72:320|16:280,2,95.9999970703126,4|0|2,0:0|0:0|0:0,0:0:0:0:
206,246,37693,1,0,0:0:0:0:
263,118,37843,1,0,1:0:0:0:
292,255,37993,1,0,0:0:0:0:
188,162,38143,1,2,0:0:0:0:
327,176,38293,1,0,0:0:0:0:
384,288,38443,6,0,P|408:208|400:88,2,191.999994140625,4|2|2,0:0|0:0|0:0,0:0:0:0:
176,288,39343,1,2,0:0:0:0:
248,184,39493,1,2,0:0:0:0:
192,72,39643,1,2,0:0:0:0:
96,216,39943,2,0,P|152:248|248:184,1,191.999994140625,2|0,0:0|0:0,0:0:0:0:
280,160,40318,2,0,L|320:128,3,47.9999985351563,0|0|0|2,0:0|0:0|0:0|0:0,0:0:0:0:
360,312,40843,5,0,0:0:0:0:
456,192,41143,2,2,P|408:152|264:168,1,191.999994140625
192,208,41593,1,2,0:0:0:0:
144,120,41743,1,2,0:0:0:0:
240,72,41893,2,0,P|304:96|328:144,2,95.9999970703126,0|2|2,0:0|0:0|0:0,0:0:0:0:
96,72,42343,2,0,P|72:120|104:168,1,95.9999970703126,2|2,0:0|0:0,0:0:0:0:
160,232,42643,2,0,P|184:288|160:336,1,95.9999970703126,2|0,0:0|0:0,0:0:0:0:
304,320,42943,1,2,0:0:0:0:
408,320,43093,1,0,0:0:0:0:
352,224,43243,6,0,L|344:128,1,95.9999970703126,0|0,0:0|0:0,0:0:0:0:
352,224,43543,1,2,0:0:0:0:
264,168,43693,1,2,0:0:0:0:
176,112,43843,1,2,0:0:0:0:
104,264,44143,2,0,B|160:288|240:256|304:272,1,191.999994140625,2|2,0:0|0:0,0:0:0:0:
352,184,44593,1,0,0:0:0:0:
296,80,44743,2,0,B|240:104|160:72|96:88,1,191.999994140625,2|0,0:0|0:0,0:0:0:0:
80,128,45118,1,0,0:0:0:0:
88,176,45193,1,0,0:0:0:0:
208,164,45343,1,0,0:0:0:0:
208,304,45643,5,0,0:0:0:0:
296,240,45793,1,0,0:0:0:0:
400,280,45943,1,2,0:0:0:0:
312,344,46093,1,0,0:0:0:0:
208,304,46243,2,0,P|248:248|288:232,2,95.9999970703126,2|0|2,0:0|0:0|0:0,0:0:0:0:
160,192,46693,2,0,L|64:128,1,95.9999970703126,0|2,0:0|0:0,0:0:0:0:
56,104,46918,1,0,0:0:0:0:
72,64,46993,2,0,P|120:48|184:64,1,95.9999970703126,0|2,0:0|0:0,0:0:0:0:
256,104,47293,1,2,0:0:0:0:
144,144,47443,6,0,B|124:203|186:211|186:211|206:274|206:274|239:282|234:304,1,191.999994140625,2|0,0:0|0:0,0:0:0:0:
320,224,47893,2,0,L|352:320,1,95.9999970703126
96,120,48343,2,0,P|148:198|236:230,1,191.999994140625,2|2,0:0|0:0,0:0:0:0:
304,64,48943,1,2,0:0:0:0:
384,144,49093,1,2,0:0:0:0:
304,232,49243,1,2,0:0:0:0:
112,104,49543,2,0,B|112:224|112:224|152:192|176:224,1,191.999994140625,2|0,0:0|0:0,0:0:0:0:
200,248,49918,1,0,0:0:0:0:
224,288,49993,1,0,0:0:0:0:
272,312,50068,1,0,0:0:0:0:
320,312,50143,1,2,0:0:0:0:
472,240,50443,5,0,0:0:0:0:
408,112,50593,2,0,P|350:103|314:60,1,95.9999970703126,0|2,0:0|0:0,0:0:0:0:
232,128,50893,1,0,0:0:0:0:
152,192,51043,1,2,0:0:0:0:
56,152,51193,1,0,0:0:0:0:
136,80,51343,2,0,B|184:104|248:52|336:76,1,191.999994140625,2|2,0:0|0:0,0:0:0:0:
376,152,51793,1,2,0:0:0:0:
288,224,51943,6,0,P|298:270|318:314,2,95.9999970703126,2|2|2,0:0|0:0|0:0,0:0:0:0:
200,304,52393,1,0,0:0:0:0:
152,272,52468,1,0,0:0:0:0:
128,224,52543,1,0,0:0:0:0:
64,104,52693,2,0,P|112:112|176:112,1,95.9999970703126
328,96,53143,5,2,0:0:0:0:
464,200,53293,1,2,0:0:0:0:
296,264,53443,1,2,0:0:0:0:
120,312,53743,2,0,P|80:200|104:120,2,191.999994140625,2|2|2,0:0|0:0|0:0,0:0:0:0:
216,200,54493,2,0,L|200:304,1,95.9999970703126
240,120,54793,1,0,0:0:0:0:
360,120,54943,1,2,0:0:0:0:
384,168,55018,1,0,0:0:0:0:
376,216,55093,1,0,0:0:0:0:
272,312,55243,5,0,0:0:0:0:
272,312,55393,1,0,0:0:0:0:
200,160,55543,2,0,L|168:256,1,95.9999970703126,2|0,0:0|0:0,0:0:0:0:
56,112,55843,2,0,L|160:104,1,95.9999970703126,2|0,0:0|0:0,0:0:0:0:
316,84,56143,1,0,0:0:0:0:
456,120,56293,1,0,0:0:0:0:
420,272,56443,1,2,0:0:0:0:
276,232,56593,1,2,0:0:0:0:
80,232,56743,6,0,P|120:256|167:262,1,95.9999970703126
232,184,57043,2,0,L|264:144,2,47.9999985351563,2|0|2,0:0|0:0|0:0,0:0:0:0:
88,112,57343,1,0,0:0:0:0:
232,160,57493,1,0,0:0:0:0:
352,80,57643,1,4,0:0:0:0:
256,192,66643,5,0,2:0:0:0:
256,192,66718,1,0,2:0:0:0:
256,192,66793,1,0,2:0:0:0:
256,192,66868,1,0,2:0:0:0:
256,192,66943,1,0,2:0:0:0:
256,192,67018,1,0,2:0:0:0:
256,192,67093,1,0,2:0:0:0:
256,192,67168,1,0,2:0:0:0:
256,192,67243,2,0,P|296:136|344:112,1,95.9999970703126,4|0,2:0|0:0,0:0:0:0:
360,112,67468,5,0,0:0:0:0:
400,136,67543,2,0,P|424:184|392:248,1,95.9999970703126,2|0,0:0|0:0,0:0:0:0:
328,312,67843,2,0,P|240:328|200:320,1,95.9999970703126,0|0,0:0|0:0,0:0:0:0:
192,320,68068,1,0,0:0:0:0:
152,296,68143,1,2,0:0:0:0:
56,224,68293,1,0,0:0:0:0:
88,104,68443,6,0,P|136:120|184:112,1,95.9999970703126
224,88,68668,1,0,0:0:0:0:
272,112,68743,2,0,P|320:120|376:96,1,95.9999970703126,2|0,0:0|0:0,0:0:0:0:
448,192,69043,1,0,0:0:0:0:
272,224,69193,1,0,0:0:0:0:
456,288,69343,1,2,0:0:0:0:
272,128,69493,1,0,0:0:0:0:
144,176,69643,6,0,P|120:192|88:184,3,47.9999985351563,0|0|0|0,0:0|0:0|0:0|0:0,0:0:0:0:
72,240,69943,2,0,P|104:264|112:296,3,47.9999985351563,2|0|0|0,0:0|0:0|0:0|0:0,0:0:0:0:
160,272,70243,2,0,P|160:256|168:232,3,23.9999992675781,0|0|0|0,0:0|0:0|0:0|0:0,0:0:0:0:
272,280,70543,1,2,0:0:0:0:
320,184,70693,5,0,0:0:0:0:
392,296,70843,2,0,P|408:232|408:160,1,95.9999970703126
408,160,71068,2,0,L|376:120,1,47.9999985351563,0|2,0:0|0:0,0:0:0:0:
264,80,71293,1,0,0:0:0:0:
144,72,71443,1,0,0:0:0:0:
120,112,71518,1,0,0:0:0:0:
112,160,71593,1,0,0:0:0:0:
248,232,71743,2,0,P|208:280|152:288,1,95.9999970703126,2|0,0:0|0:0,0:0:0:0:
56,224,72043,6,0,P|120:160|224:104,1,191.999994140625,0|2,0:0|0:0,0:0:0:0:
224,328,72643,1,0,0:0:0:0:
328,304,72793,2,0,B|392:272|392:272|384:216,1,95.9999970703126,0|2,0:0|0:0,0:0:0:0:
384,200,73018,1,0,0:0:0:0:
392,152,73093,1,0,0:0:0:0:
280,80,73243,6,0,L|224:72,4,47.9999985351563,0|0|0|0|2,0:0|0:0|0:0|0:0|0:0,0:0:0:0:
224,200,73693,1,0,0:0:0:0:
160,304,73843,2,0,B|232:336|208:288|280:296,1,95.9999970703126
296,288,74068,2,0,L|368:288,1,47.9999985351563,0|2,0:0|0:0,0:0:0:0:
440,176,74443,1,0,0:0:0:0:
320,96,74593,1,0,0:0:0:0:
168,96,74743,2,0,L|152:136,8,23.9999992675781,2|0|0|0|0|0|0|0|0,0:0|0:0|0:0|0:0|0:0|0:0|0:0|0:0|0:0,0:0:0:0:
344,104,75193,1,0,0:0:0:0:
320,144,75268,1,0,0:0:0:0:
320,192,75343,2,0,L|432:240,1,95.9999970703126,2|0,0:0|0:0,0:0:0:0:
208,176,75643,1,0,0:0:0:0:
200,280,75793,5,0,0:0:0:0:
240,288,75868,1,0,0:0:0:0:
280,288,75943,1,2,0:0:0:0:
376,232,76093,1,0,0:0:0:0:
445,143,76243,1,0,0:0:0:0:
416,128,76318,1,0,0:0:0:0:
383,118,76393,1,0,0:0:0:0:
350,117,76468,1,0,0:0:0:0:
317,122,76543,1,2,0:0:0:0:
280,128,76618,6,0,P|240:152|200:144,3,47.9999985351563,0|2|0|4,0:0|0:0|0:0|0:0,0:0:0:0:
104,112,76993,5,2,3:0:0:0:
88,224,77143,2,0,P|160:256|272:200,1,207.999990478516,8|4,0:0|3:0,0:0:0:0:
400,160,77593,1,2,3:0:0:0:
384,288,77743,2,0,P|288:304|272:304,1,103.999995239258,8|2,0:0|3:0,0:0:0:0:
240,240,78043,1,4,3:0:0:0:
128,224,78193,1,2,3:0:0:0:
200,128,78343,1,8,0:0:0:0:
320,144,78493,1,2,3:0:0:0:
384,88,78643,6,0,P|408:176|304:216,1,207.999990478516,4|8,3:0|0:0,0:0:0:0:
232,152,79093,1,2,3:0:0:0:
112,136,79243,1,4,3:0:0:0:
80,176,79318,1,0,3:0:0:0:
72,224,79393,1,2,3:0:0:0:
160,296,79543,1,8,0:0:0:0:
264,312,79693,1,2,3:0:0:0:
160,296,79843,2,0,P|168:232|200:176,1,103.999995239258,4|2,3:0|3:0,0:0:0:0:
304,128,80143,2,0,P|296:192|264:248,1,103.999995239258,8|2,0:0|3:0,0:0:0:0:
392,260,80443,5,4,3:0:0:0:
440,252,80518,1,0,3:0:0:0:
464,212,80593,1,2,3:0:0:0:
400,112,80743,1,8,0:0:0:0:
288,64,80893,1,2,3:0:0:0:
176,80,81043,6,0,P|112:112|96:160,1,103.999995239258,4|2,3:0|3:0,0:0:0:0:
96,256,81343,2,0,L|192:296,1,103.999995239258,8|2,0:0|3:0,0:0:0:0:
272,192,81643,5,4,3:0:0:0:
352,96,81793,1,2,3:0:0:0:
400,208,81943,1,8,0:0:0:0:
352,96,82093,1,2,3:0:0:0:
272,192,82243,1,4,3:0:0:0:
320,304,82393,2,0,P|248:312|176:288,1,103.999995239258,2|8,3:0|0:0,0:0:0:0:
128,240,82693,1,2,3:0:0:0:
80,136,82843,5,4,3:0:0:0:
112,96,82918,1,0,3:0:0:0:
160,80,82993,1,2,3:0:0:0:
264,96,83143,1,8,0:0:0:0:
224,192,83293,1,2,3:0:0:0:
328,232,83443,2,0,P|296:296|240:304,1,103.999995239258,4|2,3:0|3:0,0:0:0:0:
160,304,83743,2,0,L|112:200,1,103.999995239258,8|2,0:0|3:0,0:0:0:0:
156,72,84043,1,4,3:0:0:0:
256,128,84193,5,2,3:0:0:0:
256,240,84343,1,8,0:0:0:0:
440,296,84643,2,0,B|440:200|432:168|432:168|376:152|368:112,1,207.999990478516,4|8,3:0|0:0,0:0:0:0:
288,64,85093,1,2,3:0:0:0:
176,80,85243,2,0,B|144:128|112:88|96:88|96:88|104:240,1,207.999990478516,4|8,3:0|0:0,0:0:0:0:
128,240,85618,1,0,3:0:0:0:
168,256,85693,1,2,3:0:0:0:
208,240,85768,1,0,3:0:0:0:
232,208,85843,2,0,P|288:192|344:200,1,103.999995239258,4|2,3:0|3:0,0:0:0:0:
368,304,86143,5,8,0:0:0:0:
232,328,86293,1,8,0:0:0:0:
72,296,86443,2,0,B|136:312|216:296|264:216,1,207.999990478516,6|8,0:0|0:0,0:0:0:0:
136,152,87043,2,0,B|184:88|216:72|216:72|288:128|320:144,1,207.999990478516,2|8,0:0|0:0,0:0:0:0:
392,280,87643,2,0,P|424:216|408:80,2,207.999990478516,2|10|0,0:0|0:0|0:0,0:0:0:0:
272,280,88393,1,0,0:0:0:0:
256,160,88543,2,0,P|208:160|144:192,1,103.999995239258,10|0,0:0|0:0,0:0:0:0:
128,280,88843,2,0,P|80:304|64:296,2,51.999997619629,0|0|0,0:0|0:0|0:0,0:0:0:0:
96,160,89143,5,10,0:0:0:0:
48,72,89293,1,0,0:0:0:0:
184,96,89443,2,0,P|208:40|200:24,2,51.999997619629,2|0|0,0:0|0:0|0:0,0:0:0:0:
256,192,89743,1,10,0:0:0:0:
344,112,89893,1,0,0:0:0:0:
224,88,90043,2,0,P|216:144|232:232,1,103.999995239258,2|0,0:0|0:0,0:0:0:0:
312,260,90343,1,10,0:0:0:0:
408,200,90493,5,0,0:0:0:0:
416,296,90643,1,2,0:0:0:0:
376,320,90718,1,0,0:0:0:0:
328,320,90793,1,0,0:0:0:0:
224,248,90943,1,10,0:0:0:0:
96,288,91093,1,8,0:0:0:0:
64,176,91243,2,0,P|88:112|216:80,2,207.999990478516,6|10|2,0:0|0:0|0:0,0:0:0:0:
104,208,91918,1,0,0:0:0:0:
152,200,91993,1,0,0:0:0:0:
256,96,92143,6,0,P|304:144|304:192,1,103.999995239258,10|0,0:0|0:0,0:0:0:0:
352,280,92443,1,2,0:0:0:0:
448,216,92593,1,0,0:0:0:0:
408,120,92743,2,0,L|272:144,1,103.999995239258,10|0,0:0|0:0,0:0:0:0:
192,104,93043,1,2,0:0:0:0:
120,184,93193,1,0,0:0:0:0:
148,304,93343,1,10,0:0:0:0:
196,312,93418,1,0,0:0:0:0:
244,308,93493,1,0,0:0:0:0:
376,280,93643,6,0,L|352:224,2,51.999997619629,0|0|0,0:0|0:0|0:0,0:0:0:0:
440,152,93943,1,10,0:0:0:0:
304,104,94093,1,0,0:0:0:0:
432,72,94243,1,2,0:0:0:0:
304,176,94393,1,0,0:0:0:0:
136,128,94543,2,0,B|80:200|80:200|144:208|200:256,1,207.999990478516,10|2,0:0|0:0,0:0:0:0:
344,208,94993,2,0,L|304:312,1,103.999995239258,2|10,0:0|0:0,0:0:0:0:
264,312,95218,1,0,0:0:0:0:
216,304,95293,1,0,0:0:0:0:
176,288,95368,5,0,0:0:0:0:
144,264,95443,2,0,P|144:216|184:152,1,103.999995239258,2|0,0:0|0:0,0:0:0:0:
208,128,95668,2,0,L|272:112,5,51.999997619629,0|10|0|8|0|6,0:0|0:0|0:0|0:0|0:0|0:0,0:0:0:0:
80,104,96193,1,0,0:0:0:0:
80,200,96343,2,0,P|120:232|192:208,1,103.999995239258,8|0,0:0|0:0,0:0:0:0:
296,224,96643,1,2,0:0:0:0:
288,64,96793,5,0,0:0:0:0:
400,104,96943,1,8,0:0:0:0:
336,240,97093,1,0,0:0:0:0:
400,104,97243,1,2,0:0:0:0:
272,160,97393,2,0,P|208:176|144:160,1,103.999995239258,0|10,0:0|0:0,0:0:0:0:
96,80,97693,1,0,0:0:0:0:
80,120,97768,1,0,0:0:0:0:
72,168,97843,2,0,P|96:240|128:256,1,103.999995239258
224,296,98143,1,8,0:0:0:0:
464,196,98443,1,0,0:0:0:0:
352,144,98593,5,0,0:0:0:0:
408,296,98743,1,10,0:0:0:0:
312,224,98893,1,0,0:0:0:0:
192,200,99043,1,2,0:0:0:0:
80,208,99193,1,0,0:0:0:0:
72,96,99343,1,10,0:0:0:0:
120,80,99418,1,0,0:0:0:0:
168,80,99493,1,0,0:0:0:0:
256,256,99643,2,0,B|256:128|256:128|312:80|336:88,1,207.999990478516,2|8,0:0|0:0,0:0:0:0:
416,136,100093,5,0,0:0:0:0:
352,216,100243,2,0,P|288:224|224:208,2,103.999995239258,2|0|10,0:0|0:0|0:0,0:0:0:0:
472,240,100693,1,8,0:0:0:0:
368,304,100843,2,0,B|304:344|208:280|128:320,1,207.999990478516,6|8,0:0|0:0,0:0:0:0:
120,304,101218,2,0,L|80:256,1,51.999997619629
64,144,101443,2,0,B|112:112|144:168|184:216|256:216,1,207.999990478516,2|8,0:0|0:0,0:0:0:0:
288,192,101818,2,0,L|320:144,1,51.999997619629
432,96,102043,5,2,0:0:0:0:
80,96,102343,1,10,0:0:0:0:
192,272,102643,2,0,L|192:336,2,51.999997619629,0|0|0,0:0|0:0|0:0,0:0:0:0:
296,240,102943,2,2,L|424:240,1,103.999995239258,10|0,0:0|0:0,0:0:0:0:
336,152,103243,2,0,L|224:152,1,103.999995239258,2|2,0:0|0:0,0:0:0:0:
112,152,103543,1,8,0:0:0:0:
288,48,103693,1,0,0:0:0:0:
112,56,103843,5,0,0:0:0:0:
48,192,103993,1,2,0:0:0:0:
184,192,104143,1,8,0:0:0:0:
48,288,104293,2,0,B|136:296|136:296|160:280,1,103.999995239258,0|2,0:0|0:0,0:0:0:0:
184,264,104518,1,0,0:0:0:0:
232,256,104593,2,0,L|336:256,1,103.999995239258,2|10,0:0|0:0,0:0:0:0:
400,176,104893,1,0,0:0:0:0:
296,128,105043,6,0,L|240:104,3,51.999997619629,2|0|0|0,0:0|0:0|0:0|0:0,0:0:0:0:
208,104,105343,1,10,0:0:0:0:
171,104,105418,1,0,0:0:0:0:
136,112,105493,1,8,0:0:0:0:
102,125,105568,1,0,0:0:0:0:
72,144,105643,2,0,L|152:232,1,103.999995239258,4|2,0:0|3:0,0:0:0:0:
96,280,105943,6,0,L|200:288,1,103.999995239258,2|0,3:0|0:0,0:0:0:0:
144,216,106243,2,0,L|256:224,1,103.999995239258,2|0,3:0|0:0,0:0:0:0:
200,160,106543,2,0,L|304:168,1,103.999995239258,2|0,3:0|0:0,0:0:0:0:
248,96,106843,2,0,L|360:104,1,103.999995239258,2|0,3:0|0:0,0:0:0:0:
416,280,107143,6,0,L|312:288,1,103.999995239258,2|0,3:0|0:0,0:0:0:0:
368,216,107443,2,0,L|256:224,1,103.999995239258,2|0,3:0|0:0,0:0:0:0:
312,160,107743,2,0,L|208:168,1,103.999995239258,2|0,3:0|0:0,0:0:0:0:
264,96,108043,1,2,3:0:0:0:
152,104,108193,1,0,0:0:0:0:
280,184,108343,1,2,3:0:0:0:
400,168,108493,1,0,0:0:0:0:
304,272,108643,1,2,3:0:0:0:
176,288,108793,1,0,0:0:0:0:
192,184,108943,6,0,P|184:88|192:56,1,103.999995239258,2|0,3:0|0:0,0:0:0:0:
320,200,109243,2,0,P|328:296|320:328,1,103.999995239258,2|0,3:0|0:0,0:0:0:0:
152,136,109543,2,0,P|190:48|212:23,1,103.999995239258,2|0,3:0|0:0,0:0:0:0:
368,240,109843,2,0,P|330:328|308:353,1,103.999995239258,2|0,3:0|0:0,0:0:0:0:
376,128,110143,2,0,P|468:100|501:102,1,103.999995239258,2|0,3:0|0:0,0:0:0:0:
136,256,110443,2,0,P|44:284|11:282,2,103.999995239258,2|0|8,3:0|0:0|0:0,0:0:0:0:
400,88,111043,5,2,3:0:0:0:
448,208,111193,1,0,0:0:0:0:
400,88,111343,1,8,0:0:0:0:
112,88,111643,1,2,3:0:0:0:
64,208,111793,1,0,0:0:0:0:
112,88,111943,1,8,0:0:0:0:
256,312,112243,6,0,L|360:272,1,103.999995239258,2|0,3:0|0:0,0:0:0:0:
256,312,112543,2,0,L|144:272,1,103.999995239258,8|0,0:0|0:0,0:0:0:0:
256,216,112843,1,8,0:0:0:0:
200,168,112993,1,0,0:0:0:0:
304,136,113143,1,8,0:0:0:0:
152,80,113293,1,8,0:0:0:0:
344,48,113443,1,8,0:0:0:0:
376,176,113593,6,0,B|384:96|384:96|336:104,1,103.999995239258,0|8,0:0|0:0,0:0:0:0:
256,192,113893,1,0,0:0:0:0:
136,208,114043,2,0,B|128:288|128:288|176:280,1,103.999995239258,8|8,0:0|0:0,0:0:0:0:
304,304,114343,1,8,0:0:0:0:
352,296,114418,1,8,0:0:0:0:
392,272,114493,1,8,0:0:0:0:
416,224,114568,1,8,0:0:0:0:
424,176,114643,1,8,0:0:0:0:
300,28,114793,5,0,0:0:0:0:
192,192,114943,2,0,B|160:232|120:256|200:304|312:232|296:224,1,207.999990478516,8|12,0:0|1:0,0:0:0:0:
336,112,115393,1,2,0:0:0:0:
232,72,115543,2,0,P|144:80|128:88,1,80,4|2,3:0|0:0,0:0:0:0:
72,152,115843,1,4,3:0:0:0:
128,240,115993,2,0,P|200:256|232:240,1,80,2|4,0:0|3:0,0:0:0:0:
288,200,116293,1,2,0:0:0:0:
368,144,116443,6,0,P|416:184|408:232,2,80,4|2|4,3:0|0:0|3:0,0:0:0:0:
253,112,116893,1,2,0:0:0:0:
176,194,117043,1,4,3:0:0:0:
258,271,117193,1,2,0:0:0:0:
336,192,117343,1,4,3:0:0:0:
312,248,117493,5,2,0:0:0:0:
200,248,117643,1,4,3:0:0:0:
200,136,117793,1,2,0:0:0:0:
312,136,117943,1,4,3:0:0:0:
240,336,118093,2,0,P|192:336|144:304,1,80,2|4,0:0|3:0,0:0:0:0:
88,256,118393,1,2,0:0:0:0:
64,160,118543,2,0,P|104:128|120:80,1,80,4|2,3:0|0:0,0:0:0:0:
208,48,118843,1,4,3:0:0:0:
416,40,119143,5,4,3:0:0:0:
448,144,119293,2,0,P|432:208|440:248,1,80,2|4,0:0|3:0,0:0:0:0:
336,280,119593,1,2,0:0:0:0:
216,288,119743,2,0,P|176:304|120:312,2,80,4|2|4,3:0|0:0|3:0,0:0:0:0:
200,184,120193,1,2,0:0:0:0:
112,128,120343,2,0,P|160:88|200:72,1,80,4|2,3:0|0:0,0:0:0:0:
280,88,120643,1,4,3:0:0:0:
368,144,120793,1,2,0:0:0:0:
408,240,120943,1,4,3:0:0:0:
240,272,121093,6,0,B|304:304|304:304|320:280,1,80,2|4,0:0|3:0,0:0:0:0:
408,240,121393,1,2,0:0:0:0:
448,136,121543,1,4,3:0:0:0:
344,96,121693,1,2,0:0:0:0:
296,200,121843,1,4,3:0:0:0:
192,200,121993,2,0,P|144:216|80:216,1,80,2|4,0:0|3:0,0:0:0:0:
56,136,122293,1,2,0:0:0:0:
136,72,122443,5,4,3:0:0:0:
240,104,122593,1,2,0:0:0:0:
320,48,122743,1,4,3:0:0:0:
392,112,122893,2,0,L|392:192,1,80,2|4,0:0|3:0,0:0:0:0:
216,192,123343,2,0,P|176:224|120:224,2,80,4|2|4,3:0|0:0|3:0,3:0:0:0:
352,264,123793,1,2,0:0:0:0:
280,128,123943,2,0,P|308:101|347:91,1,80,4|2,3:0|0:0,0:0:0:0:
192,96,124243,5,4,3:0:0:0:
72,144,124393,1,2,0:0:0:0:
176,232,124543,1,4,3:0:0:0:
215,228,124618,1,4,3:0:0:0:
255,233,124693,1,4,3:0:0:0:
295,232,124768,1,4,3:0:0:0:
333,221,124843,1,4,0:0:0:0:
368,208,124918,2,0,P|400:184|400:160,3,51.999997619629,0|0|0|8,0:0|0:0|0:0|0:0,0:0:0:0:
384,80,125293,5,0,0:0:0:0:
296,112,125443,2,0,B|248:128|264:176|216:192|176:184,1,103.999995239258,4|0,3:0|0:0,0:0:0:0:
176,184,125668,1,0,0:0:0:0:
128,192,125743,2,0,P|112:272|120:304,1,103.999995239258,8|0,0:0|0:0,0:0:0:0:
256,328,126043,2,0,P|352:296|408:200,1,207.999990478516,4|8,3:0|0:0,0:0:0:0:
176,72,126643,5,4,3:0:0:0:
144,112,126718,1,0,3:0:0:0:
136,152,126793,2,0,P|128:224|136:272,1,103.999995239258,0|8,0:0|0:0,0:0:0:0:
320,304,127243,1,4,3:0:0:0:
240,128,127543,1,8,0:0:0:0:
432,64,127843,1,4,3:0:0:0:
448,104,127918,1,0,0:0:0:0:
440,152,127993,1,0,0:0:0:0:
360,224,128143,2,0,P|296:200|248:224,1,103.999995239258,8|0,0:0|0:0,0:0:0:0:
208,304,128443,1,4,3:0:0:0:
304,272,128593,5,0,0:0:0:0:
424,272,128743,1,8,0:0:0:0:
424,144,128893,1,0,0:0:0:0:
304,144,129043,1,4,3:0:0:0:
264,160,129118,1,0,0:0:0:0:
232,192,129193,1,0,0:0:0:0:
320,280,129343,1,8,0:0:0:0:
168,272,129493,1,0,0:0:0:0:
80,168,129643,1,4,0:0:0:0:
240,136,129943,5,8,0:0:0:0:
120,176,130093,1,0,0:0:0:0:
120,296,130243,2,0,B|216:320|216:240|320:248,1,207.999990478516,4|8,3:0|0:0,0:0:0:0:
360,248,130618,2,0,L|432:208,1,51.999997619629
392,112,130843,1,4,3:0:0:0:
272,192,130993,1,0,0:0:0:0:
392,112,131143,1,8,0:0:0:0:
272,192,131293,2,0,L|168:200,1,103.999995239258,0|4,0:0|3:0,0:0:0:0:
136,168,131518,5,0,0:0:0:0:
120,128,131593,2,0,P|128:72|192:48,1,103.999995239258,0|8,0:0|0:0,0:0:0:0:
400,72,132043,2,0,B|432:144|344:176|320:192|344:272,2,207.999990478516,4|8|4,3:0|0:0|3:0,0:0:0:0:
424,240,132793,1,0,0:0:0:0:
336,320,132943,1,8,0:0:0:0:
288,320,133018,1,0,0:0:0:0:
240,320,133093,1,0,0:0:0:0:
144,272,133243,6,0,B|152:216|216:224|264:232,1,103.999995239258,4|0,3:0|0:0,0:0:0:0:
335,221,133543,2,0,B|344:224|408:232|416:176,1,103.999995239258,8|0,0:0|0:0,0:0:0:0:
368,96,133843,2,0,L|256:112,1,103.999995239258,4|0,3:0|0:0,0:0:0:0:
144,96,134143,2,0,L|256:112,1,103.999995239258,8|0,0:0|0:0,0:0:0:0:
232,224,134443,1,4,0:0:0:0:
280,328,134593,1,0,0:0:0:0:
392,296,134743,6,0,P|432:256|440:200,1,80,8|0,0:0|0:0,0:0:0:0:
328,56,135193,2,0,L|240:112,1,80,0|8,0:0|0:0,0:0:0:0:
120,136,135493,1,8,0:0:0:0:
48,224,135643,1,4,3:0:0:0:
216,288,135793,1,0,0:0:0:0:
224,176,135943,1,12,0:0:0:0:
112,312,136093,1,0,0:0:0:0:
400,128,136393,6,0,L|416:224,2,80,0|8|8,0:0|0:0|0:0,0:0:0:0:
348,256,136843,2,4,P|292:248|264:228,1,80,0|0,0:0|0:0,0:0:0:0:
144,88,137143,2,0,P|136:160|168:256,1,160,12|0,0:0|0:0,0:0:0:0:
200,272,137518,1,0,0:0:0:0:
248,280,137593,1,0,0:0:0:0:
280,184,137743,2,0,P|336:192|376:224,1,80,8|8,0:0|0:0,0:0:0:0:
344,304,138043,2,0,P|392:312|432:304,2,80,4|0|12,3:0|0:0|0:0,0:0:0:0:
232,320,138493,5,0,0:0:0:0:
128,296,138643,1,0,0:0:0:0:
56,224,138793,1,0,0:0:0:0:
48,120,138943,2,0,B|96:80|96:80|144:120|216:120,1,160,8|4,0:0|0:0,0:0:0:0:
232,104,139318,1,0,0:0:0:0:
280,112,139393,1,0,0:0:0:0:
312,144,139468,1,0,0:0:0:0:
312,192,139543,1,8,0:0:0:0:
128,296,139843,6,0,L|232:304,1,80
304,296,140143,1,8,0:0:0:0:
376,224,140293,1,8,0:0:0:0:
328,136,140443,2,0,L|240:120,2,80,4|0|8,0:0|0:0|0:0,0:0:0:0:
288,256,140893,6,0,P|224:272|176:272,1,80
168,264,141118,1,0,0:0:0:0:
128,232,141193,1,0,0:0:0:0:
104,192,141268,1,0,0:0:0:0:
96,144,141343,2,0,P|144:104|248:92,1,160,4|4,0:0|0:0,0:0:0:0:
368,144,141793,1,0,0:0:0:0:
208,192,141943,1,12,0:0:0:0:
112,264,142093,1,0,0:0:0:0:
320,280,142243,6,0,L|416:248,1,80,4|0,0:0|0:0,0:0:0:0:
192,280,142543,2,0,L|112:256,1,80,12|8,0:0|0:0,0:0:0:0:
352,200,142843,2,0,L|448:168,1,80,4|0,0:0|0:0,0:0:0:0:
160,200,143143,2,0,L|80:176,1,80,12|0,0:0|0:0,0:0:0:0:
160,96,143443,2,0,L|120:40,2,40,4|0|0,0:0|0:0|0:0,0:0:0:0:
200,96,143668,1,0,0:0:0:0:
237,83,143743,1,8,0:0:0:0:
272,99,143818,1,8,0:0:0:0:
288,135,143893,1,8,0:0:0:0:
276,172,143968,1,8,0:0:0:0:
242,191,144043,5,6,0:0:0:0:
152,264,144193,2,0,L|104:296,2,51.999997619629,0|0|8,0:0|0:0|0:0,0:0:0:0:
272,288,144493,2,2,P|328:304|376:304,1,103.999995239258,0|2,0:0|0:0,0:0:0:0:
432,232,144793,1,0,0:0:0:0:
392,136,144943,1,8,0:0:0:0:
136,56,145243,6,0,P|104:112|56:136,1,103.999995239258,2|0,0:0|0:0,0:0:0:0:
56,176,145468,1,0,0:0:0:0:
80,216,145543,2,0,B|144:256|208:184|288:192,1,207.999990478516,10|2,0:0|0:0,0:0:0:0:
288,88,145993,1,0,0:0:0:0:
376,168,146143,1,10,0:0:0:0:
392,216,146218,1,0,0:0:0:0:
384,264,146293,1,0,0:0:0:0:
288,320,146443,1,0,0:0:0:0:
160,296,146593,6,0,L|240:200,1,103.999995239258,0|10,0:0|0:0,0:0:0:0:
152,160,146893,2,0,L|224:72,1,103.999995239258,0|2,0:0|0:0,0:0:0:0:
288,200,147193,1,0,0:0:0:0:
80,200,147343,1,10,0:0:0:0:
56,296,147493,2,0,P|112:320|168:296,1,103.999995239258,0|2,0:0|0:0,0:0:0:0:
200,304,147718,1,0,0:0:0:0:
240,272,147793,2,0,L|352:272,1,103.999995239258,0|10,0:0|0:0,0:0:0:0:
440,224,148093,2,0,P|440:160|416:120,1,103.999995239258,0|2,0:0|0:0,0:0:0:0:
312,96,148393,5,0,0:0:0:0:
192,96,148543,1,10,0:0:0:0:
272,176,148693,1,2,0:0:0:0:
144,176,148843,5,2,0:0:0:0:
240,320,149143,2,0,B|272:256|272:256|312:304|368:288|400:248|392:208,1,207.999990478516,8|2,0:0|0:0,0:0:0:0:
392,200,149518,1,0,0:0:0:0:
368,160,149593,1,0,0:0:0:0:
280,96,149743,1,8,0:0:0:0:
176,216,149893,6,0,L|144:80,1,103.999995239258,0|2,0:0|0:0,0:0:0:0:
104,280,150193,1,0,0:0:0:0:
192,328,150343,2,0,P|256:336|328:320,1,103.999995239258,10|0,0:0|0:0,0:0:0:0:
336,304,150568,1,0,0:0:0:0:
368,272,150643,1,2,0:0:0:0:
336,152,150793,1,0,0:0:0:0:
232,80,150943,2,0,P|248:144|280:216,1,103.999995239258,10|0,0:0|0:0,0:0:0:0:
152,160,151243,2,0,P|152:216|136:272,2,103.999995239258,0|0|10,0:0|0:0|0:0,0:0:0:0:
72,80,151693,5,0,0:0:0:0:
192,64,151843,2,0,B|280:72|280:72|264:128|272:200,1,207.999990478516,2|10,0:0|0:0,0:0:0:0:
336,288,152293,1,2,0:0:0:0:
408,216,152443,1,2,0:0:0:0:
368,192,152518,1,0,0:0:0:0:
320,184,152593,1,0,0:0:0:0:
216,192,152743,2,0,L|120:232,1,103.999995239258,10|0,0:0|0:0,0:0:0:0:
48,176,153043,1,2,0:0:0:0:
88,328,153193,1,0,0:0:0:0:
208,312,153343,6,0,P|272:328|320:320,1,103.999995239258,10|0,0:0|0:0,0:0:0:0:
336,288,153568,1,0,0:0:0:0:
336,248,153643,2,0,L|240:200,1,103.999995239258,6|0,0:0|0:0,0:0:0:0:
120,184,153943,1,8,0:0:0:0:
152,80,154093,1,0,0:0:0:0:
256,112,154243,2,0,P|312:96|400:96,1,103.999995239258,2|0,0:0|0:0,0:0:0:0:
288,240,154543,2,0,P|216:256|80:256,1,207.999990478516,8|2,0:0|0:0,0:0:0:0:
64,152,154993,1,0,0:0:0:0:
168,176,155143,2,2,P|184:240|240:296,1,103.999995239258,10|0,0:0|0:0,0:0:0:0:
240,304,155368,5,0,0:0:0:0:
280,320,155443,1,0,0:0:0:0:
320,320,155518,1,0,0:0:0:0:
352,296,155593,2,0,L|384:168,1,103.999995239258,0|10,0:0|0:0,0:0:0:0:
312,112,155893,1,0,0:0:0:0:
200,96,156043,2,0,L|176:48,2,51.999997619629,2|0|2,0:0|0:0|0:0,0:0:0:0:
128,184,156343,1,10,0:0:0:0:
136,288,156493,1,0,0:0:0:0:
232,152,156643,2,0,P|304:144|360:160,1,103.999995239258,2|0,0:0|0:0,0:0:0:0:
368,176,156868,5,0,0:0:0:0:
368,224,156943,2,0,P|320:296|272:320,1,103.999995239258,10|0,0:0|0:0,0:0:0:0:
208,240,157243,1,2,0:0:0:0:
80,200,157393,1,0,0:0:0:0:
192,152,157543,1,10,0:0:0:0:
160,32,157693,1,2,0:0:0:0:
312,56,157843,1,2,0:0:0:0:
360,56,157918,1,0,0:0:0:0:
400,80,157993,1,0,0:0:0:0:
448,168,158143,6,0,L|408:272,1,103.999995239258,10|0,0:0|0:0,0:0:0:0:
312,312,158443,2,0,P|288:232|176:160,1,207.999990478516,2|10,0:0|0:0,0:0:0:0:
144,160,158818,1,0,0:0:0:0:
104,184,158893,2,0,B|64:216|112:232|176:216,1,103.999995239258,0|2,0:0|0:0,0:0:0:0:
256,216,159193,1,0,0:0:0:0:
360,240,159343,1,10,0:0:0:0:
448,312,159493,1,0,0:0:0:0:
448,312,159643,2,0,L|432:96,1,207.999990478516,2|10,0:0|0:0,0:0:0:0:
320,64,160093,5,0,0:0:0:0:
280,56,160168,1,0,0:0:0:0:
236,56,160243,2,0,P|176:88|128:128,1,103.999995239258,2|0,0:0|0:0,0:0:0:0:
96,248,160543,1,10,0:0:0:0:
232,312,160693,1,0,0:0:0:0:
296,240,160843,2,0,P|232:200|168:200,1,103.999995239258,0|0,0:0|0:0,0:0:0:0:
64,144,161143,2,0,P|104:104|184:96,1,103.999995239258,10|0,0:0|0:0,0:0:0:0:
272,112,161443,5,6,0:0:0:0:
400,128,161593,1,6,0:0:0:0:
384,256,161743,1,14,0:0:0:0:
256,240,161893,1,0,0:0:0:0:
272,112,162043,6,0,L|212:112,1,51.999997619629
184,112,162193,2,0,L|148:160,1,51.999997619629
136,184,162343,2,0,L|148:244,1,51.999997619629
168,264,162493,2,0,L|244:264,1,51.999997619629
260,263,162643,5,4,3:0:0:0:
297,245,162718,1,4,3:0:0:0:
333,224,162793,1,4,3:0:0:0:
369,204,162868,1,4,3:0:0:0:
408,192,162943,1,10,0:0:0:0:
433,160,163018,1,4,3:0:0:0:
433,119,163093,1,4,3:0:0:0:
408,88,163168,1,4,3:0:0:0:
368,72,163243,1,4,1:1:0:0:
