osu file format v13

[General]
AudioFilename: Kola Kid-cash machine go! (www.myfree.cc).mp3
AudioLeadIn: 1500
PreviewTime: 76843
Countdown: 0
SampleSet: None
StackLeniency: 0.7
Mode: 0
LetterboxInBreaks: 1
WidescreenStoryboard: 1

[Editor]
Bookmarks: 45,9645,19245,38443,57645,67245,76845,105643,115243,124843
DistanceSpacing: 0.6
BeatDivisor: 4
GridSize: 8
TimelineZoom: 1.5

[Metadata]
Title:cash machine go!
TitleUnicode:cash machine go!
Artist:Kola Kid
ArtistUnicode:Kola Kid
Creator:HapiiKat
Version:Easy
Source:
Tags:Kola Kid cash machine go
BeatmapID:597443
BeatmapSetID:233870

[Difficulty]
HPDrainRate:2
CircleSize:2
OverallDifficulty:3
ApproachRate:4.5
SliderMultiplier:0.800000005960464
SliderTickRate:1

[Events]
//Background and Video events
0,0,"kola kid.jpg",0,0
//Break Periods
2,57843,63583
2,105843,111583
//Storyboard Layer 0 (Background)
//Storyboard Layer 1 (Fail)
//Storyboard Layer 2 (Pass)
//Storyboard Layer 3 (Foreground)
//Storyboard Sound Samples

[TimingPoints]
43.1516308991304,300,4,2,0,45,1,0
19243,-90.9090909090909,4,3,0,50,0,0
38443,-90.9090909090909,4,1,0,55,0,0
66643,-90.9090909090909,4,2,0,45,0,0
76543,-90.9090909090909,4,2,0,55,0,0
76843,-90.9090909090909,4,1,1,55,0,1
105643,-90.9090909090909,4,1,1,45,0,0
115243,-100,4,3,0,45,0,0
124843,-90.9090909090909,4,1,1,45,0,1
134443,-100,4,1,1,35,0,0
144043,-90.9090909090909,4,1,1,55,0,1
163243,-100,4,2,0,45,0,0

[Colours]
Combo1 : 247,242,74
Combo2 : 35,24,231
Combo3 : 248,12,12
Combo4 : 26,157,6

[HitObjects]
340,136,43,6,0,P|421:177|440:256,1,160.000001192093,0|2,0:0|0:0,0:0:0:0:
340,240,1243,2,0,P|268:296|188:280,1,160.000001192093,0|2,0:0|0:0,0:0:0:0:
248,200,2443,1,0,0:0:0:0:
152,208,3043,1,2,0:0:0:0:
96,128,3643,1,0,0:0:0:0:
192,120,4243,1,2,0:0:0:0:
288,112,4843,6,0,B|320:128|320:128|304:208|384:240,1,160.000001192093,0|2,0:0|0:0,0:0:0:0:
416,152,6043,2,0,P|464:224|416:312,1,160.000001192093,0|2,0:0|0:0,0:0:0:0:
344,280,7243,1,0,0:0:0:0:
272,344,7843,1,2,0:0:0:0:
192,288,8443,1,0,0:0:0:0:
96,272,9043,1,2,0:0:0:0:
48,264,9343,1,2,0:0:0:0:
16,232,9643,6,0,P|-16:160|24:88,1,160.000001192093,0|2,0:0|0:0,0:0:0:0:
84,164,10843,2,0,P|156:132|228:172,1,160.000001192093,0|2,0:0|0:0,0:0:0:0:
288,240,12043,2,0,P|216:272|144:232,1,160.000001192093,0|2,0:0|0:0,0:0:0:0:
356,172,13243,2,0,P|388:244|348:316,1,160.000001192093,0|2,0:0|0:0,0:0:0:0:
312,336,14143,1,2,0:0:0:0:
264,344,14443,6,0,L|104:352,1,160.000001192093,0|2,0:0|0:0,0:0:0:0:
72,264,15643,2,0,L|232:256,1,160.000001192093,0|2,0:0|0:0,0:0:0:0:
256,160,16843,2,0,L|96:168,2,160.000001192093,0|2|0,0:0|0:0|0:0,0:0:0:0:
328,96,18643,2,0,P|352:144|352:184,1,80.0000005960464,2|2,0:0|0:0,0:0:0:0:
352,224,19243,5,4,1:0:0:0:
296,312,19843,1,2,0:0:0:0:
248,216,20443,2,0,P|152:216|96:152,1,176.000006682396,4|2,0:0|0:0,0:0:0:0:
200,120,21643,1,4,0:0:0:0:
304,128,22243,1,2,0:0:0:0:
256,32,22843,2,0,P|352:32|408:96,1,176.000006682396,4|2,0:0|0:0,0:0:0:0:
416,136,23743,1,2,0:0:0:0:
416,192,24043,6,0,L|416:368,1,176.000006682396,4|2,0:0|0:0,0:0:0:0:
320,328,25243,2,0,L|320:152,1,176.000006682396,4|2,0:0|0:0,0:0:0:0:
224,192,26443,2,0,L|224:368,1,176.000006682396,4|2,0:0|0:0,0:0:0:0:
128,328,27643,2,0,L|128:152,1,176.000006682396,4|2,0:0|0:0,0:0:0:0:
128,96,28543,1,2,0:0:0:0:
160,56,28843,6,0,P|240:24|320:64,1,176.000006682396,4|2,0:0|0:0,0:0:0:0:
392,136,30043,2,0,P|312:168|232:128,1,176.000006682396,4|2,0:0|0:0,0:0:0:0:
160,56,31243,2,0,P|128:136|168:216,1,176.000006682396,4|2,0:0|0:0,0:0:0:0:
240,288,32443,2,0,P|272:208|232:128,1,176.000006682396,4|2,0:0|0:0,0:0:0:0:
192,104,33343,1,2,0:0:0:0:
232,72,33643,6,0,L|424:104,1,176.000006682396,4|2,0:0|0:0,0:0:0:0:
336,184,34843,2,0,L|162:212,1,176.000006682396,4|2,0:0|0:0,0:0:0:0:
184,320,36043,2,0,L|357:291,2,176.000006682396,4|2|4,0:0|0:0|0:0,0:0:0:0:
280,224,37843,1,2,0:0:0:0:
224,248,38143,1,2,0:0:0:0:
176,248,38443,6,0,B|88:224|88:224|88:128,1,176.000006682396,4|0,0:0|0:0,0:0:0:0:
168,72,39643,2,0,P|247:40|327:72,1,176.000006682396,4|0,3:0|0:0,0:0:0:0:
152,128,40843,2,0,P|232:160|320:120,1,176.000006682396,4|0,3:0|0:0,0:0:0:0:
232,56,42043,2,0,P|152:24|64:64,1,176.000006682396,4|0,3:0|0:0,0:0:0:0:
48,104,42943,1,0,0:0:0:0:
56,160,43243,5,4,0:0:0:0:
152,128,43843,1,0,0:0:0:0:
136,232,44443,1,4,3:0:0:0:
232,192,45043,1,0,0:0:0:0:
320,231,45643,2,0,P|316:146|248:96,2,176.000006682396,4|0|4,3:0|0:0|3:0,0:0:0:0:
296,336,47443,1,0,0:0:0:0:
240,336,47743,1,0,0:0:0:0:
184,336,48043,6,0,P|104:288|96:208,1,176.000006682396,4|0,0:0|0:0,0:0:0:0:
200,232,49243,1,4,3:0:0:0:
308,248,49843,2,0,P|292:168|212:124,1,176.000006682396,0|4,0:0|3:0,0:0:0:0:
120,168,51043,1,0,0:0:0:0:
200,232,51643,1,4,3:0:0:0:
216,124,52243,1,0,0:0:0:0:
264,104,52543,1,0,0:0:0:0:
320,104,52843,6,0,L|504:120,1,176.000006682396,4|0,0:0|0:0,0:0:0:0:
512,224,54043,2,0,L|336:208,1,176.000006682396,4|0,3:0|0:0,0:0:0:0:
288,304,55243,2,0,L|472:320,2,176.000006682396,4|0|4,3:0|0:0|3:0,0:0:0:0:
184,296,57043,1,0,0:0:0:0:
184,296,57343,1,0,0:0:0:0:
184,296,57643,1,4,0:0:0:0:
256,192,64843,12,2,66643,0:0:0:0:
256,96,67243,6,0,P|336:144|352:224,1,176.000006682396,0|2,0:0|0:0,0:0:0:0:
256,288,68443,2,0,P|176:240|160:160,1,176.000006682396,0|2,0:0|0:0,0:0:0:0:
264,168,69643,2,0,P|238:257|165:293,1,176.000006682396,0|2,0:0|0:0,0:0:0:0:
168,184,70843,2,0,P|193:94|266:58,1,176.000006682396,0|2,0:0|0:0,0:0:0:0:
312,80,71743,1,2,0:0:0:0:
368,88,72043,6,0,B|432:112|384:192|416:256,1,176.000006682396,0|2,0:0|0:0,0:0:0:0:
360,336,73243,2,0,B|320:320|308:264|308:264|264:256|216:268,1,176.000006682396,0|2,0:0|0:0,0:0:0:0:
184,364,74443,2,0,P|120:272|132:216,1,176.000006682396,0|2,0:0|0:0,0:0:0:0:
32,184,75643,2,0,P|124:112|180:124,1,176.000006682396,0|2,0:0|0:0,0:0:0:0:
224,144,76543,1,2,3:0:0:0:
280,136,76843,5,4,0:0:0:0:
368,80,77443,1,8,0:0:0:0:
372,184,78043,1,4,3:0:0:0:
284,240,78643,2,0,P|327:280|370:281,2,88.000003341198,8|8|4,0:0|0:0|0:0,0:0:0:0:
192,192,79843,1,8,0:0:0:0:
280,136,80443,1,4,3:0:0:0:
368,80,81043,2,0,P|324:39|281:38,2,88.000003341198,8|8|4,0:0|0:0|0:0,0:0:0:0:
280,136,82243,5,8,0:0:0:0:
372,184,82843,1,4,3:0:0:0:
416,280,83443,2,0,P|456:248|476:200,2,88.000003341198,8|8|4,0:0|0:0|0:0,0:0:0:0:
312,296,84643,1,8,0:0:0:0:
208,272,85243,1,4,3:0:0:0:
112,224,85843,2,0,P|104:296|112:320,2,88.000003341198,8|8|4,0:0|0:0|0:0,0:0:0:0:
200,168,87043,5,8,0:0:0:0:
208,272,87643,1,4,3:0:0:0:
296,216,88243,2,0,P|312:288|288:328,2,88.000003341198,8|8|4,0:0|0:0|0:0,0:0:0:0:
288,112,89443,1,8,0:0:0:0:
296,216,90043,1,4,3:0:0:0:
384,160,90643,2,0,P|444:148|496:176,2,88.000003341198,8|8|4,0:0|0:0|0:0,0:0:0:0:
432,256,91843,6,0,B|384:276|348:260|348:260|336:316|260:328,1,176.000006682396,8|4,0:0|3:0,0:0:0:0:
252,224,93043,2,0,P|201:257|184:314,2,88.000003341198,8|8|4,0:0|0:0|0:0,0:0:0:0:
288,128,94243,1,8,0:0:0:0:
184,144,94843,1,4,3:0:0:0:
80,160,95443,2,0,P|48:112|-8:104,2,88.000003341198,8|8|4,0:0|0:0|0:0,0:0:0:0:
104,264,96643,5,8,0:0:0:0:
184,328,97243,2,0,B|256:304|272:352|392:312,1,176.000006682396,4|8,3:0|0:0,0:0:0:0:
408,304,98143,1,8,0:0:0:0:
440,264,98443,2,0,B|480:248|480:248|480:160|480:160|432:136,1,176.000006682396,4|8,0:0|0:0,0:0:0:0:
352,200,99643,2,0,B|312:184|312:184|312:96|312:96|360:72,1,176.000006682396,4|8,3:0|0:0,0:0:0:0:
400,56,100543,1,8,0:0:0:0:
452,72,100843,5,4,0:0:0:0:
456,176,101443,1,8,0:0:0:0:
352,200,102043,1,4,3:0:0:0:
352,96,102643,2,0,P|296:112|256:160,2,88.000003341198,8|8|4,0:0|0:0|0:0,0:0:0:0:
352,200,103843,1,8,0:0:0:0:
256,232,104443,1,4,3:0:0:0:
152,232,105043,2,0,P|168:288|200:320,2,88.000003341198,8|8|4,0:0|0:0|0:0,0:0:0:0:
256,192,112843,12,8,114943,0:0:0:0:
282,89,115243,6,0,P|348:51|415:88,1,160.000001192093,4|6,0:0|0:0,0:0:0:0:
416,184,116443,2,0,P|349:221|282:184,1,160.000001192093,4|6,0:0|0:0,0:0:0:0:
218,114,117643,6,0,P|151:76|84:113,1,160.000001192093,4|6,0:0|0:0,0:0:0:0:
84,208,118843,2,0,P|150:245|217:208,1,160.000001192093,4|6,0:0|0:0,0:0:0:0:
216,160,119743,1,6,0:0:0:0:
218,114,120043,6,0,B|282:66|282:66|346:114,1,160.000001192093,4|6,0:0|0:0,0:0:0:0:
424,56,121243,2,0,B|472:120|472:120|424:184,1,160.000001192093,4|6,0:0|0:0,0:0:0:0:
488,256,122443,6,0,B|424:304|424:304|360:256,1,160.000001192093,4|6,0:0|0:0,0:0:0:0:
288,320,123643,2,0,B|240:256|240:256|288:192,1,160.000001192093,4|6,0:0|0:0,0:0:0:0:
316,152,124543,1,6,0:0:0:0:
368,140,124843,5,4,0:0:0:0:
464,96,125443,1,8,0:0:0:0:
452,200,126043,1,4,3:0:0:0:
356,244,126643,2,0,P|344:192|356:160,2,88.000003341198,8|8|4,0:0|0:0|0:0,0:0:0:0:
400,340,127843,1,8,0:0:0:0:
296,328,128443,1,4,3:0:0:0:
356,244,129043,2,0,P|408:232|440:244,2,88.000003341198,8|8|4,0:0|0:0|0:0,0:0:0:0:
252,232,130243,5,8,0:0:0:0:
148,220,130843,1,4,3:0:0:0:
120,120,131443,2,0,P|64:160|48:192,2,88.000003341198,8|8|4,0:0|0:0|0:0,0:0:0:0:
212,140,132643,1,8,0:0:0:0:
148,220,133243,1,4,3:0:0:0:
252,232,133843,1,8,0:0:0:0:
280,280,134143,1,8,0:0:0:0:
328,296,134443,6,0,B|336:288|336:288|344:296|344:296|352:288|352:288|360:296|360:296|368:288|368:288|376:296|376:296|384:288|384:288|392:296|392:296|400:288|400:288|408:296|408:296|416:288|416:288|424:296|424:296|432:288|432:288|440:296|440:296|448:288|448:288,1,160.000001192093,4|8,0:0|0:0,0:0:0:0:
416,192,135643,2,0,B|408:184|408:184|400:192|400:192|392:184|392:184|384:192|384:192|376:184|376:184|368:192|368:192|360:184|360:184|352:192|352:192|344:184|344:184|336:192|336:192|328:184|328:184|320:192|320:192|312:184|312:184|304:192|304:192|296:184|296:184,1,160.000001192093,4|8,3:0|0:0,0:0:0:0:
248,272,136843,6,0,B|254:265|246:273|246:273|238:265|238:265|230:273|230:273|222:265|222:265|214:273|214:273|206:265|206:265|198:273|198:273|190:265|190:265|182:273|182:273|174:265|174:265|166:273|166:273|158:265|158:265|150:273|150:273|142:265|142:265|134:273,1,160.000001192093,4|8,3:0|0:0,0:0:0:0:
109,167,138043,2,0,B|102:160|110:168|110:168|118:160|118:160|126:168|126:168|134:160|134:160|142:168|142:168|150:160|150:160|158:168|158:168|166:160|166:160|174:168|174:168|182:160|182:160|190:168|190:168|198:160|198:160|206:168|206:168|214:160|214:160|222:168,1,160.000001192093,4|8,3:0|0:0,0:0:0:0:
264,144,138943,1,2,3:0:0:0:
296,104,139243,6,0,P|368:72|440:112,1,160.000001192093,4|8,0:0|0:0,0:0:0:0:
368,168,140443,2,0,P|399:239|360:312,1,160.000001192093,4|8,3:0|0:0,0:0:0:0:
304,240,141643,6,0,P|232:271|160:232,1,160.000001192093,4|8,3:0|0:0,0:0:0:0:
232,176,142843,1,0,0:0:0:0:
232,80,143443,2,0,P|188:88|156:124,2,80.0000005960464,8|8|4,0:0|0:0|0:0,0:0:0:0:
336,112,144643,5,8,0:0:0:0:
400,200,145243,1,4,3:0:0:0:
400,304,145843,2,0,B|424:328|456:288|488:312,2,88.000003341198,8|8|4,0:0|0:0|0:0,0:0:0:0:
300,272,147043,1,8,0:0:0:0:
204,320,147643,1,4,3:0:0:0:
152,228,148243,2,0,P|104:284|100:316,2,88.000003341198,8|8|4,0:0|0:0|0:0,0:0:0:0:
248,180,149443,5,8,0:0:0:0:
336,120,150043,1,4,3:0:0:0:
240,80,150643,2,0,P|184:104|160:136,2,88.000003341198,8|8|4,0:0|0:0|0:0,0:0:0:0:
248,180,151843,1,8,0:0:0:0:
336,120,152443,1,4,3:0:0:0:
344,224,153043,2,0,P|400:200|424:168,2,88.000003341198,8|8|4,0:0|0:0|0:0,0:0:0:0:
384,320,154243,6,0,B|308:344|260:288|260:288|220:288,1,176.000006682396,8|4,0:0|3:0,0:0:0:0:
128,240,155443,2,0,P|112:296|132:336,2,88.000003341198,8|8|4,0:0|0:0|0:0,0:0:0:0:
96,136,156643,2,0,B|165:115|216:176|216:176|272:176,1,176.000006682396,8|4,0:0|3:0,0:0:0:0:
336,248,157843,2,0,B|321:292|321:292|340:337,2,88.000003341198,8|8|4,0:0|0:0|0:0,0:0:0:0:
360,144,159043,5,8,0:0:0:0:
304,56,159643,1,4,3:0:0:0:
256,148,160243,2,0,B|216:125|216:125|204:84,2,88.000003341198,8|8|4,0:0|0:0|0:0,0:0:0:0:
360,144,161443,1,8,0:0:0:0:
456,192,162043,2,0,B|412:256|348:248|348:248|296:272,1,176.000006682396,4|8,3:0|0:0,0:0:0:0:
252,280,162943,1,8,0:0:0:0:
204,272,163243,1,4,0:0:0:0:
