osu file format v9

[General]
AudioFilename: timer.mp3
AudioLeadIn: 3000
PreviewTime: -1
Countdown: 0
SampleSet: Soft
StackLeniency: 0.7
Mode: 0
LetterboxInBreaks: 1

[Editor]
Bookmarks: 21424,42757,64090,85424,93424,117424,138757
DistanceSpacing: 1.2
BeatDivisor: 4
GridSize: 4

[Metadata]
Title:Timer
Artist:Kola Kid
Creator:Reiji-RJ
Version:Timeless
Source:
Tags:Aleks719 Vass_Bass Ch1ka IceBeam Kert

[Difficulty]
HPDrainRate:7
CircleSize:4
OverallDifficulty:7
ApproachRate:9
SliderMultiplier:1.6
SliderTickRate:1

[Events]
//Background and Video events
0,0,"mechanical_soul_by_sxserjio.jpg"
//Break Periods
2,85638,92838
//Storyboard Layer 0 (Background)
//Storyboard Layer 1 (Fail)
//Storyboard Layer 2 (Pass)
//Storyboard Layer 3 (Foreground)
//Storyboard Sound Samples
//Background Colour Transformations
3,100,163,162,255

[TimingPoints]
105,333.333333333333,4,2,0,20,1,0
105,-200,4,2,0,20,0,0
20938,-133.333333333333,4,1,0,20,0,0
21438,-100,4,2,1,50,0,0
41604,-100,4,1,0,40,0,0
42764,-100,4,1,0,50,0,0
42855,-100,4,2,0,60,0,0
44105,-100,4,1,0,50,0,0
44188,-100,4,2,0,60,0,0
45438,-100,4,1,0,50,0,0
45521,-100,4,2,0,60,0,0
46771,-100,4,1,0,50,0,0
46855,-100,4,2,0,60,0,0
48105,-100,4,1,0,50,0,0
48188,-100,4,2,0,60,0,0
49438,-100,4,1,0,50,0,0
49521,-100,4,2,0,60,0,0
50771,-100,4,1,0,50,0,0
50855,-100,4,2,0,60,0,0
52105,-100,4,1,0,50,0,0
52188,-100,4,2,0,60,0,0
52855,-100,4,1,0,50,0,0
53021,-100,4,2,0,50,0,0
53188,-100,4,1,0,50,0,0
53521,-100,4,2,0,60,0,0
56105,-100,4,1,0,50,0,0
56188,-100,4,2,0,60,0,0
58771,-100,4,1,0,50,0,0
58855,-100,4,2,0,60,0,0
61438,-100,4,1,0,50,0,0
61521,-100,4,2,0,60,0,0
62938,-100,4,1,0,50,0,0
64104,-100,4,2,1,60,0,0
75938,-100,4,2,1,50,0,0
76438,-100,4,2,1,40,0,0
76938,-100,4,2,1,30,0,0
77438,-100,4,2,1,60,0,0
78438,-100,4,2,1,50,0,0
78938,-100,4,2,1,40,0,0
79438,-100,4,2,1,30,0,0
80104,-100,4,2,1,70,0,0
81104,-100,4,2,1,60,0,0
81604,-100,4,2,1,50,0,0
82104,-100,4,2,1,40,0,0
82771,-100,4,2,1,70,0,0
83771,-100,4,2,1,63,0,0
84271,-100,4,2,1,56,0,0
84771,-100,4,2,1,49,0,0
85438,-100,4,2,1,60,0,0
93354,-100,4,1,0,35,0,0
94771,-100,4,2,0,50,0,0
95438,-100,4,1,0,60,0,0
95688,-100,4,2,0,60,0,0
95854,-100,4,1,0,60,0,0
96271,-100,4,2,0,60,0,0
97354,-100,4,1,0,60,0,0
97521,-100,4,2,0,60,0,0
98688,-100,4,1,0,60,0,0
98854,-100,4,2,0,60,0,0
100021,-100,4,1,0,60,0,0
100188,-100,4,2,0,60,0,0
100354,-100,4,1,0,60,0,0
100521,-100,4,2,0,60,0,0
100854,-100,4,1,0,60,0,0
101188,-100,4,2,0,60,0,0
101354,-100,4,1,0,60,0,0
101521,-100,4,2,0,60,0,0
101854,-100,4,1,0,60,0,0
102021,-100,4,2,0,60,0,0
102354,-100,4,1,0,60,0,0
102521,-100,4,2,0,60,0,0
102688,-100,4,1,0,60,0,0
102854,-100,4,2,0,60,0,0
103021,-100,4,1,0,60,0,0
103271,-100,4,2,0,60,0,0
103521,-100,4,1,0,60,0,0
104354,-100,4,2,0,60,0,0
104521,-100,4,1,0,60,0,0
104688,-100,4,2,0,60,0,0
105021,-100,4,1,0,60,0,0
105854,-100,4,2,0,60,0,0
106188,-100,4,1,0,60,0,0
106938,-100,4,2,0,60,0,0
108021,-100,4,1,0,60,0,0
108188,-100,4,2,0,60,0,0
109354,-100,4,1,0,60,0,0
109521,-100,4,2,0,60,0,0
110688,-100,4,1,0,60,0,0
110854,-100,4,2,0,60,0,0
111188,-100,4,1,0,60,0,0
111354,-100,4,2,0,60,0,0
111688,-100,4,1,0,60,0,0
111854,-100,4,2,0,60,0,0
112021,-100,4,1,0,60,0,0
112188,-100,4,2,0,60,0,0
112521,-100,4,1,0,60,0,0
112688,-100,4,2,0,60,0,0
113021,-100,4,1,0,60,0,0
113188,-100,4,2,0,60,0,0
113354,-100,4,1,0,60,0,0
113860,-100,4,2,0,60,0,0
114104,-100,4,1,0,60,0,0
114521,-100,4,2,0,60,0,0
114688,-100,4,1,0,60,0,0
114854,-100,4,2,0,60,0,0
115188,-100,4,1,0,60,0,0
115354,-100,4,2,0,60,0,0
115521,-100,4,2,0,60,0,0
115688,-100,4,1,0,60,0,0
115854,-100,4,2,0,60,0,0
115938,-100,4,1,0,60,0,0
116188,-100,4,2,0,60,0,0
116521,-100,4,1,0,60,0,0
117021,-100,4,2,0,60,0,0
117188,-100,4,1,0,60,0,0
117521,-100,4,2,1,60,0,0
118188,-100,4,1,1,60,0,0
118354,-100,4,2,1,60,0,0
118688,-100,4,1,1,60,0,0
118854,-100,4,2,1,60,0,0
119521,-100,4,1,1,60,0,0
119688,-100,4,2,1,60,0,0
120021,-100,4,1,1,60,0,0
120188,-100,4,2,1,60,0,0
120854,-100,4,1,1,60,0,0
121021,-100,4,2,1,60,0,0
121354,-100,4,1,1,60,0,0
121521,-100,4,2,1,60,0,0
122188,-100,4,1,1,60,0,0
122354,-100,4,2,1,60,0,0
122521,-100,4,1,1,60,0,0
122854,-100,4,2,1,60,0,0
123521,-100,4,1,1,60,0,0
123688,-100,4,2,1,60,0,0
124021,-100,4,1,1,60,0,0
124188,-100,4,2,1,60,0,0
124854,-100,4,1,1,60,0,0
125021,-100,4,2,1,60,0,0
125354,-100,4,1,1,60,0,0
125521,-100,4,2,1,60,0,0
126188,-100,4,1,1,60,0,0
126354,-100,4,2,1,60,0,0
126688,-100,4,1,1,60,0,0
126854,-100,4,2,1,60,0,0
127521,-100,4,1,1,60,0,0
127688,-100,4,2,1,60,0,0
128021,-100,4,1,1,60,0,0
128188,-100,4,2,1,60,0,0
128938,-100,4,1,1,60,0,0
129021,-100,4,2,1,60,0,0
129354,-100,4,1,1,60,0,0
129521,-100,4,2,1,60,0,0
130188,-100,4,1,1,60,0,0
130354,-100,4,2,1,60,0,0
130688,-100,4,1,1,60,0,0
130854,-100,4,2,1,60,0,0
131604,-100,4,1,1,60,0,0
131688,-100,4,2,1,60,0,0
132021,-100,4,1,1,60,0,0
132188,-100,4,2,1,60,0,0
132854,-100,4,1,1,60,0,0
133021,-100,4,2,1,60,0,0
133188,-100,4,1,1,60,0,0
133521,-100,4,2,1,60,0,0
134271,-100,4,1,1,60,0,0
134354,-100,4,2,1,60,0,0
134688,-100,4,1,1,60,0,0
134854,-100,4,2,1,60,0,0
135604,-100,4,1,1,60,0,0
135688,-100,4,2,1,60,0,0
136021,-100,4,1,1,60,0,0
136188,-100,4,2,1,60,0,0
136938,-100,4,1,1,60,0,0
137021,-100,4,2,1,60,0,0
137354,-100,4,1,1,60,0,0
137521,-100,4,2,1,60,0,0
138188,-100,4,1,1,60,0,0
138354,-100,4,2,1,60,0,0
138771,-100,4,2,1,40,0,0

[Colours]
Combo1 : 182,166,50
Combo2 : 3,118,124
Combo3 : 203,205,237

[HitObjects]
84,68,105,2,0,B|88:148,1,80
180,128,771,2,0,B|180:288,1,160,2|2
261,343,1771,2,0,B|272:264,1,80,2|0
344,200,2438,1,2
260,152,2771,6,0,B|252:64,1,80,0|0
344,200,3438,2,0,B|332:360,1,160,2|2
244,324,4438,1,2
152,352,4771,1,0
60,324,5104,1,2
132,260,5438,6,0,B|116:228|120:180,1,80,2|0
60,92,6104,2,0,B|144:64|208:124,1,160,2|2
300,152,7104,2,0,B|316:120|312:72,1,80,2|0
228,216,7771,1,2
228,216,8104,6,0,B|232:296,1,80
316,216,8771,2,0,B|320:52,1,160,2|2
412,32,9771,1,2
432,124,10104,1,0
456,216,10438,1,2
360,204,10771,5,2
340,300,11104,1,0
340,300,11438,2,0,B|252:276|188:332,1,160,2|2
92,336,12438,2,0,B|16:304,2,80,2|0|2
144,200,13438,5,0
124,108,13771,1,0
124,108,14105,2,0,B|212:132|276:76,1,160,2|2
368,56,15105,2,0,B|444:96,2,80,2|0|2
340,148,16105,5,2
364,240,16438,1,0
388,332,16771,2,0,B|224:340,1,160,2|2
172,260,17771,2,0,B|251:256,2,80,2|0|2
80,232,18771,5,0
108,140,19104,1,0
140,48,19438,1,2
144,52,20104,1,2
208,120,20438,2,0,B|288:124,1,80,2|0
296,140,20938,2,0,B|356:144,2,59.9999982118607,0|8|0
480,304,21438,6,0,B|400:320,1,80,2|0
208,324,21938,2,0,B|288:308,1,80,0|2
436,188,22438,2,0,B|356:204,2,80,8|0|2
304,48,23104,1,0
112,60,23438,1,0
52,132,23604,1,0
60,228,23771,1,8
120,308,23938,1,0
216,324,24104,5,0
216,324,24271,1,0
60,228,24604,1,0
60,228,24771,1,0
224,144,25104,1,8
224,144,25271,1,0
376,248,25604,1,0
376,248,25771,1,8
60,228,26271,1,0
60,228,26438,1,8
124,156,26604,5,0
220,176,26771,1,0
252,268,26938,2,0,B|288:184|392:196,1,160
468,236,27438,5,0
468,236,27938,2,0,B|440:164|440:164|368:140|368:140|336:56,2,240,0|8|0
428,40,29438,5,0
464,128,29604,1,0
384,180,29771,1,8
300,228,29938,1,0
340,316,30104,1,0
296,132,30438,2,0,B|287:109|287:109|272:99|272:99|271:81|271:81|258:66,1,80,8|0
472,228,30938,2,0,B|480:250|480:250|495:260|495:260|496:278|496:278|510:293,1,80,0|8
384,180,31604,1,0
48,260,31938,6,0,B|64:224|112:216,2,80
176,108,32604,2,0,B|199:139|182:185,1,80,0|0
244,296,33104,2,0,B|204:300|173:262,1,80,8|0
112,188,33438,1,2
92,44,33771,1,2
112,188,34104,1,2
92,44,34438,1,2
128,268,34771,5,0
116,376,35104,2,0,B|208:372|232:284,1,160,8|2
396,64,35771,2,0,B|304:68|280:156,1,160,8|2
384,172,36438,1,8
456,260,36771,1,2
456,372,37104,1,8
356,316,37438,6,0,B|272:308|272:308|256:316|256:316|200:312,2,160,2|8|2
256,232,38438,1,8
152,148,38771,2,0,B|236:156|236:156|252:148|252:148|308:152,2,160,2|8|2
40,136,39771,1,8
84,240,40105,5,0
80,352,40438,1,10
80,352,40771,1,2
184,308,41105,1,8
296,320,41438,1,2
184,308,41771,1,0
84,240,42105,1,0
36,156,42438,5,0
40,148,42521,1,0
44,140,42605,1,0
124,88,42771,6,0,B|156:52|204:40|252:64|268:96,1,160,4|2
328,160,43271,1,0
380,80,43438,2,0,B|468:40,1,80
440,316,43771,2,0,B|360:352,1,80,2|2
144,276,44105,2,0,B|200:304|260:292,1,120,0|0
272,288,44438,2,0,B|352:248,1,80,2|0
440,316,44771,5,0
371,236,44938,1,0
432,128,45105,2,0,B|424:84|432:48,1,80,2|0
264,40,45438,6,0,B|288:120|260:200,1,160,4|2
168,220,45938,1,0
104,148,46105,2,0,B|72:120|32:108,1,80
136,308,46438,2,0,B|168:336|208:348,1,80,2|2
444,300,46771,2,0,B|376:292|328:344,1,120,0|0
300,304,47105,2,0,B|228:272,1,80,2|0
104,148,47438,5,0
220,236,47605,1,0
344,140,47771,2,0,B|376:108|424:104,1,80,2|0
444,300,48105,6,0,B|400:372|304:372,1,160,4|2
220,336,48605,1,0
124,356,48771,2,0,B|120:308|96:276,1,80,0|0
48,52,49105,2,0,B|52:100|76:132,1,80,2|2
36,224,49438,2,0,B|76:176|152:220|184:176,1,160,0|2
183,177,50105,5,0
316,292,50271,1,0
404,152,50438,2,0,B|404:104|436:72,1,80,2|0
488,208,50771,6,0,B|472:296|416:348,1,160,4|2
316,292,51271,1,0
220,340,51438,2,0,B|140:356,1,80
40,256,51771,2,0,B|120:244,1,80,2|2
224,120,52105,2,0,B|60:144,2,160,0|2|0
264,112,52938,5,0
304,104,53105,1,2
344,100,53271,1,0
384,92,53438,6,0,B|448:128|456:228,1,160,4|2
312,352,53938,1,0
312,352,54105,2,2,B|364:280|333:200,1,160
304,104,54605,1,0
212,76,54771,2,2,B|128:56,1,80
92,168,55105,2,2,B|192:192,1,80,0|2
180,300,55438,2,0,B|20:264,1,160,2|2
324,268,56105,6,0,B|484:304,1,160,4|2
468,208,56605,1,0
456,112,56771,2,2,B|460:56|484:32,1,80
360,132,57105,2,2,B|272:144,1,80,0|2
200,196,57438,2,0,B|196:284|140:348,1,160,2|0
144,342,58105,5,2
104,340,58271,1,0
64,340,58438,1,2
24,340,58605,1,0
56,96,58771,6,0,B|56:192|80:264,1,160,4|2
160,208,59271,1,0
160,208,59438,2,2,B|264:208|304:128,1,160,2|0
176,28,59938,1,0
176,28,60105,6,2,B|180:76|200:108,1,80
340,316,60438,2,0,B|336:268|316:236,1,80,2|0
460,80,60771,2,0,B|416:80|380:104,1,80,2|0
296,140,61105,1,0
184,248,61271,1,2
100,364,61438,6,0,B|44:292|72:196,1,160,4|2
396,88,62105,2,0,B|452:160|424:256,2,160,0|2|0
348,88,63105,5,0
320,132,63438,1,0
280,152,63771,1,0
172,88,64105,6,0,B|148:48|92:60,2,80,2|0|8
88,136,64605,2,0,B|42:124|11:172,2,80,2|2|0
104,232,65105,2,0,B|64:256|76:312,3,80,8|10|2|0
152,360,65771,5,2
264,140,66271,2,0,B|304:116|360:140,1,80,0|8
312,224,66605,2,0,B|340:258|316:298,1,80,0|4
392,240,66938,6,0,B|437:228|441:184,1,80,0|10
428,88,67271,2,0,B|395:54|355:72,1,80,0|2
260,68,67605,1,0
168,96,67771,1,8
136,188,67938,1,8
224,340,68105,6,0,B|132:360,1,80,2|0
292,288,68438,2,0,B|380:300,1,80,8|0
228,204,68771,2,0,B|172:264,1,80,2|0
288,144,69105,2,0,B|344:204,1,80,8|8
396,124,69438,6,0,B|396:36,2,80,2|0|8
316,72,69938,2,2,B|239:94,1,80,2|0
144,92,70271,2,0,B|108:124|124:180,1,80,2|8
28,192,70605,2,0,B|64:160|48:104,1,80,8|2
84,208,70938,5,2
20,280,71105,2,2,B|116:360|257:303,1,240,8|2
264,212,71771,2,0,B|303:192|341:201,1,80,8|8
432,232,72105,6,0,B|452:316,2,80,2|0|8
388,148,72605,2,0,B|424:68,2,80,0|2|2
360,56,73105,2,0,B|268:56,1,80,8|0
184,72,73438,6,0,B|136:76|112:120,1,80,2|0
116,208,73771,1,8
120,212,74271,1,2
160,308,74438,2,0,B|192:344|248:352,1,80,8|0
380,332,74771,5,2
404,140,75105,2,0,B|444:212,1,80,8|0
352,184,75438,2,0,B|316:260,2,80,0|0|8
272,236,75938,2,0,B|308:312,2,80,2|2|0
260,332,76438,2,0,B|329:379,2,80,8|2|0
180,280,76938,2,0,B|144:312|173:354,2,80,2|8|0
88,252,77438,6,0,B|140:176|71:109,1,160,2|8
156,60,77938,2,0,B|196:32|256:60,2,80,2|2|0
236,116,78438,2,0,B|284:111|322:166,2,80,8|2|0
272,204,78938,2,0,B|316:224|322:290,2,80,2|8|0
236,292,79438,2,0,B|191:312|186:378,3,80,2|2|8|0
284,356,80104,6,2,B|472:356,1,160,2|8
484,268,80604,2,0,B|484:156,2,80,2|2|0
404,216,81104,2,0,B|404:104,2,80,8|2|0
320,172,81604,2,0,B|320:60,2,80,2|8|0
236,124,82104,2,0,B|236:12,2,80,0|0|8
152,172,82604,1,0
56,160,82771,6,0,B|76:248|164:280,1,160,2|8
232,220,83271,1,2
232,220,83438,1,2
320,184,83604,1,0
320,184,83771,1,8
396,244,83938,1,2
396,244,84104,5,0
480,196,84271,1,2
480,196,84438,1,8
404,140,84604,1,0
316,104,84771,2,2,B|336:74|336:60|416:64,1,80
292,24,85104,2,0,B|255:-2|215:25,1,80,8|0
256,112,85438,1,2
256,192,93438,5,4
256,192,93521,12,0,94771
80,84,95104,5,2
220,336,95604,1,0
264,252,95771,1,2
360,228,95938,1,0
448,264,96104,5,4
448,44,96438,2,0,B|416:140,1,80,0|2
332,104,96771,2,0,B|284:80|256:104|228:124|168:100,1,160
92,56,97271,1,2
148,208,97438,2,0,B|156:260|184:312,1,80,0|2
248,196,97771,2,0,B|276:288|296:356,2,160,0|2|0
216,104,98604,1,2
432,120,98771,6,0,B|416:212,1,80,0|2
380,296,99104,1,0
380,296,99271,2,0,B|296:256|212:324,1,160,2|0
120,296,99771,2,0,B|92:264|92:204,1,80,0|2
176,148,100104,2,0,B|204:180|204:240,1,80,0|2
88,112,100438,1,0
88,112,100604,2,0,B|96:80|132:44|200:40|240:72,1,160
280,136,101104,1,0
376,160,101271,1,2
460,112,101438,6,0,B|472:72|460:32,1,80,4|2
308,228,101771,2,0,B|296:268|308:308,1,80,0|0
396,336,102104,2,0,B|300:300|240:372,2,160,2|0|0
440,252,102938,1,2
440,252,103104,2,0,B|444:172|448:92,1,160,0|2
360,60,103604,1,0
364,64,103938,1,0
260,104,104104,6,0,B|168:68|92:132,1,160,0|2
76,228,104604,1,0
168,208,104771,2,0,B|176:268|192:300,1,80,2|0
260,192,105104,2,0,B|272:272|296:356,1,160,0|0
392,300,105604,1,0
396,304,105771,2,0,B|484:320,1,80,0|2
424,156,106104,2,0,B|336:140,1,80
260,104,106438,1,0
52,180,106771,5,4
56,184,107104,2,0,B|32:272|92:348,1,160,2|0
184,344,107604,2,0,B|356:332,1,160,2|2
436,308,108104,2,0,B|444:224,1,80,0|2
452,136,108438,1,0
316,40,108604,2,0,B|280:120|152:100,1,160,2|0
64,68,109104,2,0,B|52:116|92:168,1,80,0|2
176,324,109438,6,0,B|264:312|344:308,1,160,0|0
416,240,109938,2,0,B|432:192|420:160|408:136|428:80,1,160,2|2
336,48,110438,1,0
336,48,110604,1,2
196,120,110771,2,0,B|208:228|88:244,1,160
100,144,111271,1,0
104,148,111604,2,0,B|92:64,2,80,2|0|0
152,248,112104,5,4
64,280,112271,2,0,B|104:372|232:320,1,160,2|0
448,324,112771,2,0,B|408:232|280:284,1,160,2|0
240,204,113271,2,0,B|220:168|236:112,1,80,2|0
328,80,113604,2,0,B|348:116|332:172,1,80
240,24,113938,1,2
244,28,114271,1,0
196,104,114438,1,0
104,124,114604,1,2
24,92,114771,5,0
112,316,115104,1,2
116,320,115271,2,0,B|184:264|280:300,1,160,0|2
360,248,115771,2,0,B|380:288|368:344,1,80
276,200,116104,2,0,B|232:128|264:32,1,160,0|2
348,52,116604,1,0
448,268,116938,1,0
452,272,117104,1,2
256,304,117438,6,0,B|224:356|156:360|112:320,1,160,4|8
156,112,117938,2,0,B|204:148|208:212|180:256,1,160,2|0
64,104,118438,2,0,B|36:72|40:28,1,80,8|0
176,60,118771,2,0,B|256:36|256:84|336:60,1,160,0|8
452,88,119271,1,2
368,172,119438,2,0,B|371:209|372:252,1,80
252,156,119771,2,0,B|253:192|256:236,1,80,8|0
132,128,120104,6,0,B|136:200|139:287,1,160,0|8
56,284,120604,2,0,B|132:292|216:300,1,160,2|0
304,336,121104,1,8
304,336,121438,2,0,B|332:292|404:284|456:320,1,160,0|8
448,316,121938,2,0,B|464:224,1,80,2|0
368,120,122271,2,0,B|380:208,2,80,0|8|0
272,128,122771,6,0,B|220:160|160:144|136:88,1,160,0|8
220,44,123271,1,2
224,48,123604,1,0
272,128,123771,1,8
256,224,123938,1,0
204,304,124104,2,0,B|121:310|44:312,1,160,0|8
256,224,124604,2,0,B|296:220|335:220,1,80,2|0
424,256,124938,2,0,B|484:200,2,80,0|8|0
352,192,125438,6,0,B|304:164|296:96|340:52,1,160,0|8
408,116,125938,1,2
412,120,126271,1,0
352,192,126438,1,8
264,228,126604,1,0
172,208,126771,2,0,B|134:152|178:96,1,120
172,80,127104,2,0,B|88:88,1,80,8|2
270,40,127438,2,0,B|280:120,1,80,0|0
376,112,127771,2,0,B|372:192,1,80,8|2
452,248,128104,6,0,B|404:212|340:224|312:276,1,160,4|8
268,188,128604,2,0,B|220:236|156:216,1,120,2|0
144,208,128938,1,0
64,260,129104,2,0,B|48:344,1,80,8|0
144,208,129438,2,0,B|192:176|204:112|164:64,1,160,0|8
104,20,129938,2,0,B|128:72|200:84|244:40,1,160,2|0
404,68,130438,2,0,B|328:96,1,80,8|0
208,164,130771,6,0,B|368:184,1,160,0|8
452,228,131271,2,0,B|484:288|444:344,1,120,2|0
445,341,131604,1,0
352,320,131771,2,0,B|268:328,1,80,8|0
196,228,132104,2,0,B|276:244,1,80
192,224,132438,2,0,B|204:180|184:144,1,80,8|2
88,96,132771,2,0,B|76:140|96:176,1,80
196,228,133104,2,0,B|276:244,1,80,8|0
412,204,133438,6,0,B|452:252|444:316|392:348,1,160,0|8
328,172,133938,2,0,B|288:120|320:60,1,120,2|0
332,52,134271,2,0,B|248:60,1,80,0|8
160,32,134604,1,0
88,184,134771,2,0,B|56:272|112:340,1,160,0|8
188,284,135271,2,0,B|236:248|304:276,1,120,2|0
296,292,135604,2,0,B|372:260,1,80,0|8
452,308,135938,1,0
448,212,136104,6,0,B|456:52,1,160,0|8
352,180,136604,2,0,B|344:299,1,120,2|0
352,312,136938,2,0,B|264:336,1,80,0|8
72,216,137271,1,0
72,216,137438,2,0,B|228:252,1,160,0|8
352,180,137938,2,0,B|196:144,1,160,2|0
80,56,138438,1,8
84,60,138771,5,2
