osu file format v9

[General]
AudioFilename: UroboroS-Infinity.mp3
AudioLeadIn: 1500
PreviewTime: 12794
Countdown: 1
SampleSet: Normal
StackLeniency: 0.7
Mode: 0
LetterboxInBreaks: 1

[Editor]
DistanceSpacing: 0.8
BeatDivisor: 4
GridSize: 8

[Metadata]
Title:UroboroS-Infinity
Artist:Kokuyasou
Creator:Kite
Version:Normal
Source:Touhou
Tags:sanae kochiya mountain of faith mof zun metal theme arrange lkp darkdunskin lolcubes

[Difficulty]
HPDrainRate:3
CircleSize:3
OverallDifficulty:4
ApproachRate:4
SliderMultiplier:1.2
SliderTickRate:2

[Events]
//Background and Video events
0,0,"7d3e7f9d68f8efd52fb649393e7f2f26.jpg"
//Break Periods
2,46882,51009
2,80764,90538
//Storyboard Layer 0 (Background)
//Storyboard Layer 1 (Fail)
//Storyboard Layer 2 (Pass)
//Storyboard Layer 3 (Foreground)
//Storyboard Sound Samples
//Background Colour Transformations
3,100,163,162,255

[TimingPoints]
1506,352.941176470588,4,1,1,90,1,0
1858,-100,4,2,1,90,0,0
4153,-100,4,1,1,90,0,0
4682,-100,4,2,1,90,0,0
6447,-100,4,1,1,90,0,0
12800,-100,4,1,1,90,0,1
24094,-100,4,1,1,90,0,0
46682,-133.333333333333,4,1,1,90,0,0
52329,-100,4,1,1,90,0,0
57976,-100,4,1,1,90,0,1
80564,-100,4,1,1,90,0,0
91858,-100,4,1,1,90,0,1
103153,-100,4,1,1,90,0,0
120094,-100,4,1,1,90,0,1
142682,-133.333333333333,4,1,1,90,0,0

[Colours]
Combo1 : 0,233,244
Combo2 : 239,5,117

[HitObjects]
144,144,1506,2,0,B|200:112|258:146,3,120,4|0|2|0
256,240,2917,2,0,B|308:276|370:242,3,120,0|0|2|0
408,152,4329,6,0,B|360:72|244:20|104:48|28:176|40:232,1,480,4|0
88,304,6094,1,2
176,264,6447,1,0
240,336,6800,1,4
336,312,7153,5,8
344,216,7505,1,0
416,272,7858,2,0,B|456:216|432:160,1,120,8|0
464,72,8564,1,8
376,40,8917,1,0
288,72,9270,2,0,B|248:120|272:184,1,120,8|0
208,256,9976,6,0,B|200:320|128:344,1,120,12|0
40,328,10682,2,0,B|48:264|120:240,1,120,8|0
56,160,11388,1,8
112,80,11741,1,0
200,48,12094,1,8
296,56,12447,1,0
376,104,12800,6,0,B|432:144|416:208,1,120,12|0
376,296,13505,2,0,B|320:256|336:192,2,120,8|0|8
416,208,14564,1,0
448,120,14917,1,8
392,40,15270,1,0
312,96,15623,6,0,B|296:160|232:176,1,120,8|0
136,176,16329,2,0,B|152:112|216:96,2,120,8|0|8
80,256,17388,1,0
136,336,17741,1,8
232,320,18094,1,0
304,256,18447,6,0,B|360:248|416:288,2,120,12|0|8
256,168,19505,1,0
208,256,19858,2,0,B|152:248|96:288,2,120,12|0|8
256,168,20917,1,0
256,192,21270,12,12,24094
72,312,24800,6,0,B|136:240|80:136,2,180,8|0|8
168,336,26211,2,0,B|224:312|288:328,1,120,0|8
312,232,26917,2,0,B|256:256|192:240,2,120,0|8|0
392,288,27976,2,0,B|464:248|480:144|440:72,1,240,8|8
352,112,29035,1,0
272,64,29388,1,8
192,120,29741,6,0,B|200:264|64:296,1,240,4|0
64,200,30800,2,0,B|64:80,2,120,8|0|8
160,200,31858,2,0,B|160:320,1,120,0|8
256,192,32564,12,12,35388
304,320,36094,6,0,B|400:296|416:192,2,180,8|0|8
280,224,37506,2,0,B|272:160|216:128,1,120,0|8
120,112,38211,2,0,B|128:176|184:208,2,120,0|8|0
200,56,39270,2,0,B|320:40|448:112|456:248,1,360,8|0
376,304,40682,1,8
288,336,41035,6,0,B|152:360|80:248,2,240,4|0|0
376,304,42800,1,8
304,240,43153,2,0,B|288:176|224:152,1,120,0|8
256,192,43858,12,4,46682
304,336,52329,5,8
208,336,52682,1,8
168,248,53035,2,8,B|232:240|256:176,1,120
344,248,53741,2,8,B|280:240|256:176,1,120
328,112,54447,5,8
256,48,54800,1,8
184,112,55153,2,0,B|24:128|32:368|176:368,1,360,12|8
176,272,56564,2,0,B|312:224|392:336,1,240,12|4
304,160,57976,6,0,B|168:208|88:96,2,240,12|8|8
368,88,59741,1,0
400,176,60094,2,0,B|440:224|416:288,1,120,8|0
328,328,60800,6,0,B|200:272|96:336,1,240,12|8
40,264,61858,1,0
120,208,62211,2,0,B|160:152|144:96,1,120,8|0
72,32,62917,2,0,B|16:80|56:144,1,120,8|0
144,96,63623,6,0,B|256:32|376:96,2,240,12|8|8
112,184,65388,1,0
104,280,65741,1,8
184,336,66094,1,0
256,272,66447,1,8
328,336,66800,1,0
408,280,67153,1,8
400,184,67506,1,0
367,95,67858,2,0,B|256:32|138:94,1,240,8|8
138,94,68917,1,0
72,168,69270,6,0,B|160:192|176:312|96:360,2,240,12|8|8
96,72,71035,1,0
192,80,71388,2,0,B|208:144|272:160,1,120,8|0
336,88,72094,6,0,B|480:128|432:272,1,240,12|8
336,248,73153,1,0
272,320,73506,2,0,B|216:352|152:336,1,120,8|0
88,272,74211,2,0,B|144:240|208:256,1,120,8|0
296,232,74917,6,0,B|368:176|368:72|304:24,2,240,12|8|8
224,168,76682,2,0,B|192:112|128:96,2,120,0|8|0
256,192,77741,12,4,80564
136,280,91858,6,0,B|80:240|96:176,1,120,12|0
136,88,92564,2,0,B|192:128|176:192,2,120,8|0|8
96,176,93623,1,0
64,264,93976,1,8
120,344,94329,1,0
200,288,94682,6,0,B|216:224|280:208,1,120,8|0
376,208,95388,2,0,B|360:272|296:288,2,120,8|0|8
432,128,96447,1,0
376,48,96800,1,8
280,64,97153,1,0
208,128,97506,6,0,B|152:136|96:96,2,120,12|0|8
256,216,98564,1,0
304,128,98917,2,0,B|360:136|416:96,2,120,12|0|0
256,216,99976,1,0
328,280,100329,6,0,B|376:320|440:304,1,120,8|0
496,224,101035,2,0,B|448:184|384:200,1,120,8|0
328,120,101741,2,0,B|216:48|64:104|48:240,1,360,8|4
120,304,103153,6,0,B|216:368|352:328,2,240,8|8|8
56,232,104917,2,0,B|16:184|32:120,1,120,8|0
88,40,105623,2,0,B|128:88|112:152,1,120,8|0
192,208,106329,2,0,B|176:120|264:56|352:96,1,240,8|8
408,176,107388,6,0,B|456:224|440:288,2,120,4|8|0
360,256,108447,2,0,B|344:317|392:365,2,120,8|0|12
360,160,109506,1,0
296,88,109858,1,8
208,56,110211,1,0
112,72,110564,1,8
40,136,110917,1,0
24,232,111270,1,8
48,328,111623,6,0,B|168:256|272:344,1,240,4|8
360,320,112682,2,0,B|400:272|384:208,1,120,8|8
328,128,113388,2,0,B|288:176|304:240,2,120,8|0|8
248,72,114447,2,0,B|104:80|64:272|184:336,1,360,8|4
256,192,115858,12,4,119741
368,320,120094,6,0,B|424:280,6,60,12|0|0|0|8|0|8
344,192,121506,2,8,B|360:128,6,60,8|0|0|0|8|0|8
168,192,122917,6,0,B|153:133,6,60,12|0|0|0|8|0|8
144,320,124329,2,0,B|95:285,6,60,8|0|0|0|8|0|8
256,256,125741,6,0,B|256:320,6,60,12|0|0|0|8|0|8
256,128,127153,2,0,B|256:64,6,60,8|0|0|0|8|0|8
192,192,128564,6,0,B|132:192,6,60,12|0|0|0|8|0|8
320,192,129976,2,0,B|380:192,6,60,8|0|0|0|8|0|8
217,265,131388,6,0,B|120:296|40:176|136:40|200:136|240:40,1,360,12|8
294,118,132800,2,0,B|392:88|472:208|376:344|312:248|272:344,1,360,8|8
176,344,134211,6,0,B|88:288|64:112|216:48,1,360,12|8
301,50,135623,2,8,B|448:112|424:288|336:344,1,360,8|8
256,296,137035,6,0,B|135:373|16:264|152:104|176:296|256:192,1,360,12|8
256,88,138447,2,8,B|377:11|496:120|360:280|336:88|256:192,1,360
256,192,139858,12,4,142682
