osu file format v7

[General]
AudioFilename: 10 Lucent Wish.mp3
AudioLeadIn: 2000
PreviewTime: 31227
Countdown: 1
SampleSet: Soft
StackLeniency: 0.7
Mode: 0
LetterboxInBreaks: 1

[Editor]
Bookmarks: 25151,43378,55530,67678,79830,85906,91982,104134,116286,164893
DistanceSpacing: 1
BeatDivisor: 4
GridSize: 8

[Metadata]
Title:Lucent Wish
Artist:Kokucho
Creator:Shinxyn
Version:Normal
Source:Touhou
Tags:Chata The Venerable Ancient Battlefield EastNewSound Izumin Yasaka Kanako Mountain of Faith

[Difficulty]
HPDrainRate:3
CircleSize:3
OverallDifficulty:4
SliderMultiplier:1.2
SliderTickRate:1

[Events]
//Background and Video events
0,0,"kanoko.jpg"
//Break Periods
2,25347,26865
2,80029,85156
//Storyboard Layer 0 (Background)
//Storyboard Layer 1 (Fail)
//Storyboard Layer 2 (Pass)
//Storyboard Layer 3 (Foreground)
//Storyboard Sound Samples
//Background Colour Transformations
3,100,163,162,255

[TimingPoints]
829,759.493670886076,4,2,0,50,1,0
19072,506.329113924051,4,2,0,70,1,0
30784,-200,4,2,0,80,0,0
31223,379.746835443038,4,2,0,80,1,0
55526,-100,4,2,0,70,0,0
140590,-100,4,2,0,70,0,1
164893,-100,4,2,0,70,0,0
165653,-100,4,2,0,60,0,0
166033,-100,4,2,0,50,0,0
166412,-100,4,2,0,40,0,0
166792,-100,4,2,0,50,0,0
167172,-100,4,2,0,60,0,0
167552,-100,4,2,0,70,0,0
167931,-100,4,2,0,60,0,0
168311,-100,4,2,0,50,0,0
168691,-100,4,2,0,40,0,0
169071,-100,4,2,0,30,0,0
169450,-100,4,2,0,40,0,0
169830,-100,4,2,0,50,0,0
170210,-100,4,2,0,60,0,0
170590,-100,4,2,0,70,0,0

[Colours]
Combo1 : 251,79,79
Combo2 : 235,248,82
Combo3 : 233,58,189

[HitObjects]
80,48,829,2,0,B|56:112|88:192,1,120
136,152,1968,2,0,B|192:128|280:160,1,120
312,168,3107,2,0,B|376:192|440:168,1,120
488,152,4246,1,0
424,320,5385,5,0
312,320,6145,2,0,B|176:320,1,120
192,320,7284,1,0
128,320,7664,2,0,B|40:264|64:144,1,180
200,88,9942,6,0,B|256:56|336:96,1,120
315,147,11082,2,0,B|256:176|192:144,1,120
152,112,12221,2,0,B|112:168|160:240,1,120
150,224,13360,1,0
336,224,14499,5,0
216,224,15259,2,0,B|80:224,1,120
96,224,16398,1,0
32,224,16778,2,0,B|32:112|96:48,1,180
256,256,19072,5,4
256,168,19451,1,0
256,168,19641,2,0,B|256:72,2,90
336,128,20780,5,0
384,128,20970,1,0
472,128,21350,2,0,B|472:232,2,90
384,128,22489,5,0
384,176,22679,2,0,B|384:280,2,90
296,176,23818,5,0
296,176,24008,1,0
256,192,24135,12,4,25147
256,88,28185,5,4
256,296,29515,1,4
256,208,29894,1,0
256,160,30084,2,0,B|256:56,2,90,4|2|0
144,192,31223,5,4
144,192,31602,1,8
384,192,32362,1,8
168,88,33121,1,8
408,88,33881,5,8
248,272,34640,1,8
96,88,35400,1,8
336,88,36159,1,8
184,272,36919,5,8
184,152,37298,1,2
184,272,37678,1,8
424,272,38438,5,8
304,64,39197,1,8
184,272,39957,1,8
64,64,40716,1,8
272,184,41476,1,8
32,184,42235,5,8
152,184,42615,1,2
272,184,42995,1,8
392,184,43374,6,0,B|472:184,3,60,4|0|2|0
424,304,44323,1,2
304,336,44703,1,0
184,304,45082,2,0,B|48:304,1,120,2|0
64,184,45842,2,0,B|208:184,1,120,2|2
304,184,46601,6,0,B|384:184,2,60,2|0|2
248,72,47361,1,2
128,72,47741,1,0
64,184,48120,2,0,B|192:184,1,120,2|0
304,184,48880,2,0,B|168:184,1,120,2|2
184,304,49639,6,0,B|112:304,2,60,2|0|2
304,304,50399,1,2
408,248,50779,1,0
304,184,51158,1,2
184,184,51538,1,0
304,184,51918,1,2
184,184,52298,1,2
280,120,52678,6,0,B|336:72,2,60,2|0|2
160,120,53437,1,2
56,184,53817,1,2
56,304,54197,2,0,B|120:352|192:288,1,120
167,306,54767,2,0,B|240:256,2,60,0|2|4
288,288,55526,5,4
408,288,55906,1,8
456,176,56286,2,0,B|320:176,1,120,0|8
216,176,57045,2,0,B|80:176,2,120,0|8|0
272,72,58185,1,8
152,72,58564,5,0
216,176,58944,2,0,B|136:296,2,120,8|0|8
216,176,60083,2,0,B|288:296,2,120,0|8|0
216,56,61223,1,8
320,120,61602,5,0
440,120,61982,1,8
376,224,62362,2,0,B|384:296|304:320,2,120,0|8|0
256,224,63501,1,8
16,224,64260,1,8
104,144,64640,5,0
224,144,65020,1,8
344,144,65400,2,0,B|480:144,2,120,0|8|0
224,144,66539,1,8
104,352,67298,6,0,B|176:352,2,60,8|0|4
104,232,68058,5,0
104,232,68248,1,2
184,144,68628,1,2
264,232,69007,1,0
344,136,69387,2,0,B|344:64,7,60,2|0|2|0|2|0|0|0
224,80,71096,5,0
224,80,71286,1,2
104,80,71666,1,2
56,192,72045,1,2
104,304,72425,2,0,B|200:304,7,60,2|0|2|0|2|0|0|0
288,304,74134,5,0
288,304,74324,1,2
360,208,74704,1,2
288,112,75083,1,2
216,208,75463,2,0,B|128:208,1,60,2|0
156,208,75843,2,0,B|80:208,1,60,2|0
96,208,76223,2,0,B|24:208,2,60,2|0|0
96,208,76792,6,0,B|88:112|160:72,1,120
128,96,77362,1,2
248,96,77741,2,0,B|376:96,1,120,2|4
416,208,78501,2,0,B|416:304,1,60,0|4
296,272,79071,1,4
176,272,79450,2,0,B|48:272,1,120,0|4
96,88,86476,6,0,B|96:240,1,120,2|0
168,304,87235,2,0,B|168:160,1,120,2|0
240,88,87995,2,0,B|240:232,1,120,2|0
304,304,88754,1,2
352,192,89134,6,0,B|424:192,2,60,2|0|2
232,192,89893,1,2
112,192,90273,1,2
176,88,90653,2,0,B|320:88,1,120,2|0
296,88,91223,2,0,B|400:88,2,60,0|2|4
360,192,91982,5,0
296,296,92362,1,8
176,296,92741,1,0
120,192,93121,1,8
176,88,93501,1,0
296,88,93881,2,0,B|432:88,2,120,8|0|8
240,192,95020,5,0
136,136,95400,1,8
144,256,95779,2,0,B|176:320|256:336,2,120,0|8|0
136,136,96919,2,0,B|168:72|248:56,2,120,8|0|8
240,200,98058,5,0
360,192,98438,1,8
480,184,98817,2,0,B|456:112|384:88,2,120,0|8|0
432,296,99957,1,8
192,296,100716,1,8
72,296,101096,5,0
72,176,101476,1,8
72,56,101855,1,0
176,120,102235,2,0,B|320:120,1,120,8|0
296,240,102995,2,0,B|168:240,1,120,8|0
72,176,103754,2,0,B|-8:176,2,60,8|0|4
136,280,104514,5,0
136,280,104704,1,2
256,296,105084,1,2
376,272,105463,1,0
296,184,105843,2,0,B|296:112,7,60,2|0|2|0|2|0|0|0
408,160,107552,5,0
408,160,107742,1,2
352,48,108122,1,2
240,80,108501,1,2
128,112,108881,2,0,B|68:112,7,60,2|0|2|0|2|0|0|4
128,216,110590,5,0
128,216,110780,1,2
248,216,111160,1,2
368,216,111539,1,2
432,320,111919,2,0,B|344:320,1,60,2|0
312,320,112299,2,0,B|236:320,1,60,2|0
192,320,112679,2,0,B|120:320,2,60,2|0|0
192,264,113248,6,0,B|184:168|256:128,1,120,4|0
224,152,113817,1,2
304,64,114197,2,0,B|304:208,1,120,2|4
408,128,114957,2,0,B|408:224,1,60,0|4
408,312,115527,1,4
304,248,115906,1,0
184,248,116286,6,0,B|112:184|104:72,1,180,4|0
408,88,117805,2,0,B|352:176|240:200,1,180,2|0
112,288,118944,1,0
176,288,119134,2,0,B|320:288,1,120
256,192,119704,12,0,121412
72,192,122362,6,0,B|128:104|232:96,1,180,2|0
440,296,123881,2,0,B|432:184|352:128,1,180,2|0
240,272,125020,1,0
240,272,125210,2,0,B|304:152,1,120
256,192,125779,12,0,127488
256,320,128438,6,0,B|336:272|344:160,1,180,4|0
256,64,129957,2,0,B|176:112|168:224,1,180,2|0
352,208,131096,1,0
352,208,131286,2,0,B|352:288|312:336,1,120
256,192,131855,12,0,133564
168,272,134514,6,0,B|352:272,1,180
344,112,136033,2,0,B|160:112,1,180
256,272,137172,2,0,B|256:352,2,60,0|0|4
168,192,137931,5,2
256,104,138311,1,2
344,192,138691,1,0
256,272,139071,1,4
168,192,139450,1,4
256,104,139830,1,0
344,192,140210,2,0,B|480:192,1,120,0|4
400,296,140969,5,8
296,360,141349,1,0
176,360,141729,2,0,B|96:320|72:272,1,120,8|0
48,176,142488,2,0,B|48:96,2,60,8|0|0
168,208,143248,1,8
168,88,143628,5,0
272,152,144007,2,0,B|432:152,1,120,8|0
480,232,144767,1,8
392,312,145147,2,0,B|240:312,2,120,0|8|0
480,232,146286,1,8
360,232,146666,6,0,B|232:232,1,120,0|8
240,232,147425,1,0
240,232,147805,1,8
120,232,148185,6,0,B|40:208|48:104,1,120,0|8
168,128,148944,2,0,B|296:128,4,120,0|8|0|8|0
48,128,150843,2,0,B|192:128,1,120,8|0
288,128,151602,1,8
408,128,151982,2,0,B|488:128,4,60,0|0|8|0|4
408,248,153121,5,8
312,320,153501,2,0,B|144:320,1,120,0|8
96,248,154260,1,0
96,128,154640,1,8
200,192,155020,2,0,B|360:192,1,120,0|8
440,192,155779,1,0
376,88,156159,5,8
320,192,156539,1,0
256,88,156919,1,8
376,88,157298,1,0
256,88,157678,1,8
136,88,158058,2,0,B|136:224,1,120,0|8
136,328,158817,6,0,B|280:328,2,120,4|0|0
136,88,160336,1,4
376,88,161096,1,0
376,328,161855,1,4
256,328,162235,5,0
256,208,162615,1,2
344,128,162995,1,2
256,208,163374,1,4
168,128,163754,1,2
256,208,164134,1,0
256,208,164324,1,2
256,208,164514,1,4
256,192,164893,12,4,170969
