osu file format v9

[General]
AudioFilename: Magicas Esperanzas (TV Size).mp3
AudioLeadIn: 1015
PreviewTime: 52779
Countdown: 0
SampleSet: Normal
StackLeniency: 0.4
Mode: 1
LetterboxInBreaks: 1

[Editor]
DistanceSpacing: 0
BeatDivisor: 4
GridSize: 4

[Metadata]
Title:Magicas Esperanzas (TV Size)
Artist:Kokeshi Murata
Creator:Krisom
Version:Taiko
Source:Las Chicas Superpoderosas Z
Tags:Powerpuff Girls Z Kibou no Kakera PPG

[Difficulty]
HPDrainRate:7
CircleSize:5
OverallDifficulty:5
ApproachRate:5
SliderMultiplier:1.4
SliderTickRate:2

[Events]
//Background and Video events
0,0,"BGtaiko.png"
Video,-320,"HD_FLV_NOA_AURAPPGZOpening_1.avi"
//Break Periods
//Storyboard Layer 0 (Background)
//Storyboard Layer 1 (Fail)
//Storyboard Layer 2 (Pass)
//Storyboard Layer 3 (Foreground)
//Storyboard Sound Samples
//Background Colour Transformations
3,100,163,162,255

[TimingPoints]
270,479.539641943734,4,1,0,80,1,0
30960,-100,4,1,0,80,0,0
32159,-100,4,1,0,80,0,0
53978,-100,4,1,0,80,0,1
80592,-100,4,1,0,80,0,1
81791,-100,4,1,0,80,0,1
88505,-100,4,1,0,80,0,0

[Colours]
Combo1 : 253,140,140
Combo2 : 109,199,252

[HitObjects]
256,192,4106,21,4
256,192,4346,5,8
256,192,4585,5,0
256,192,4825,1,0
256,192,5305,5,8
256,192,5544,5,0
256,192,5784,1,0
256,192,6264,5,8
256,192,6504,5,0
256,192,6743,1,0
256,192,7223,5,8
256,192,7463,5,0
256,192,7702,1,0
256,192,7942,1,0
256,192,8182,1,0
256,192,8422,5,8
256,192,8661,1,8
256,192,8901,5,0
256,192,9141,5,8
256,192,9381,5,0
256,192,9621,1,0
256,192,10100,5,8
256,192,10340,5,0
256,192,10460,1,0
256,192,10699,5,8
256,192,10819,5,0
256,192,10939,1,0
256,192,11179,5,8
256,192,11299,5,0
256,192,11539,5,8
256,192,11778,5,4
256,192,12018,5,8
256,192,12258,5,0
256,192,12498,1,0
256,192,12618,1,0
256,192,12738,1,0
256,192,12977,5,8
256,192,13217,5,0
256,192,13457,1,0
256,192,13577,1,0
256,192,13697,1,0
256,192,13936,5,8
256,192,14176,5,0
256,192,14416,1,0
256,192,14895,5,8
256,192,15015,5,0
256,192,15135,1,0
256,192,15375,5,8
256,192,15615,5,0
256,192,16334,5,8
256,192,16454,5,0
256,192,16574,1,0
256,192,16814,5,8
256,192,17054,5,0
256,192,17293,1,0
256,192,17533,5,12
256,192,17773,5,0
256,192,18012,5,8
256,192,18132,1,8
256,192,18252,5,0
256,192,18492,1,0
256,192,18732,1,0
256,192,18852,1,0
256,192,18972,5,8
256,192,19211,5,0
256,192,19451,1,4
256,192,19691,5,8
256,192,19931,5,0
256,192,20051,1,0
256,192,20170,5,8
256,192,20650,1,8
256,192,20890,5,0
256,192,21010,1,0
256,192,21129,5,8
256,192,21609,1,8
256,192,21849,5,0
256,192,21969,1,0
256,192,22089,5,8
256,192,22568,1,8
256,192,22808,5,0
256,192,23048,5,8
256,192,23287,5,0
256,192,23527,1,0
256,192,23647,1,0
256,192,23767,1,0
256,192,24007,5,8
256,192,24246,5,0
256,192,24486,5,8
256,192,24726,5,0
256,192,24846,1,0
256,192,24966,5,8
256,192,25445,1,8
256,192,25685,5,0
256,192,25805,1,0
256,192,26045,5,8
256,192,26165,5,0
256,192,26285,1,0
256,192,26524,5,8
256,192,26644,5,0
256,192,26884,5,8
256,192,27124,5,0
256,192,27603,5,8
256,192,27843,5,0
256,192,28323,5,8
256,192,28562,5,0
256,192,28802,2,0,B|488:192,1,210
256,192,29761,5,8
256,192,30241,1,8
256,192,30480,5,0
256,192,30720,1,0
256,192,30960,2,0,B|152:192|152:192|152:108|152:108|256:108,1,280
256,192,32159,5,8
256,192,32399,5,0
256,192,32638,1,0
256,192,32878,1,4
256,192,33358,1,4
256,192,33837,1,4
256,192,34077,5,8
256,192,34317,1,8
256,192,34437,1,8
256,192,34557,5,0
256,192,34796,2,0,B|16:192,1,210
256,192,35755,5,8
256,192,35995,5,0
256,192,36235,1,0
256,192,36475,5,8
256,192,36715,5,0
256,192,36954,5,8
256,192,37074,5,0
256,192,37314,1,0
256,192,37554,5,8
256,192,37674,5,0
256,192,37913,1,0
256,192,38153,5,12
256,192,38633,6,0,B|496:192,1,210
256,192,39592,5,8
256,192,39832,5,0
256,192,40072,1,0
256,192,40312,5,8
256,192,40552,5,0
256,192,40791,5,8
256,192,40911,5,0
256,192,41151,1,0
256,192,41391,5,8
256,192,41511,5,0
256,192,41630,5,8
256,192,41750,5,0
256,192,41990,5,12
256,192,42469,6,0,B|256:432,1,210
256,192,43428,5,8
256,192,43668,5,0
256,192,43908,5,8
256,192,44148,5,0
256,192,44388,1,0
256,192,44627,1,0
256,192,44747,1,0
256,192,44867,5,8
256,192,45106,5,0
256,192,45586,5,8
256,192,45826,5,0
256,192,46305,2,0,B|108:192|108:192|72:68|72:68|192:48|192:48|268:144|268:144|328:112,1,560
256,192,48943,5,8
256,192,49063,5,0
256,192,49183,1,0
256,192,49422,5,8
256,192,49662,5,0
256,192,49902,5,8
256,192,50142,6,0,B|408:192|408:192|368:100|368:100|340:104,1,280
256,192,52060,5,8
256,192,52300,5,0
256,192,52419,1,0
256,192,52539,1,0
256,192,52659,1,0
256,192,52779,5,8
256,192,53019,5,4
256,192,53498,1,4
256,192,53978,5,12
256,192,54218,5,0
256,192,54338,1,0
256,192,54457,1,0
256,192,54697,5,8
256,192,54937,5,0
256,192,55417,1,0
256,192,55656,1,0
256,192,55776,1,0
256,192,55896,5,8
256,192,56136,5,0
256,192,56376,5,8
256,192,56855,1,8
256,192,57095,5,0
256,192,57215,1,0
256,192,57335,1,0
256,192,57574,5,8
256,192,57814,6,0,B|408:192|408:192|408:104,1,210
256,192,58773,1,0
256,192,59013,5,8
256,192,59133,5,0
256,192,59253,1,0
256,192,59493,5,8
256,192,59972,1,8
256,192,60452,1,8
256,192,60572,5,0
256,192,60691,1,0
256,192,60931,5,8
256,192,61171,5,0
256,192,61411,5,8
256,192,61531,5,0
256,192,61651,1,0
256,192,61890,5,8
256,192,62130,5,0
256,192,62370,5,8
256,192,62490,5,0
256,192,62610,1,0
256,192,63089,1,0
256,192,63329,5,8
256,192,63449,5,0
256,192,63569,1,0
256,192,63809,5,8
256,192,64048,5,0
256,192,64528,1,0
256,192,64768,1,0
256,192,64887,5,8
256,192,65007,5,0
256,192,65247,5,8
256,192,65727,6,0,B|432:188|432:88,1,210
256,192,66686,5,8
256,192,66926,5,0
256,192,67165,5,8
256,192,67645,1,8
256,192,67765,5,0
256,192,67885,1,0
256,192,68124,5,8
256,192,68244,5,0
256,192,68364,1,0
256,192,68604,5,8
256,192,68724,5,0
256,192,68844,1,0
256,192,69083,5,8
256,192,69323,5,4
256,192,69563,5,8
256,192,69683,5,0
256,192,69802,1,0
256,192,70042,5,8
256,192,70282,5,0
256,192,70762,1,0
256,192,71001,5,8
256,192,71121,5,0
256,192,71241,1,0
256,192,71481,5,8
256,192,71721,5,0
256,192,72200,1,0
256,192,72440,5,8
256,192,72560,5,0
256,192,72680,1,0
256,192,72919,5,8
256,192,73159,6,0,B|408:192|408:192|408:104,1,210
256,192,74118,1,0
256,192,74358,5,8
256,192,74478,1,8
256,192,74598,5,0
256,192,74838,5,8
256,192,75317,1,8
256,192,75797,1,8
256,192,75917,1,8
256,192,76036,5,0
256,192,76276,5,8
256,192,76516,5,0
256,192,76756,5,8
256,192,76876,1,8
256,192,76996,5,0
256,192,77235,5,8
256,192,77475,5,0
256,192,77715,5,8
256,192,77835,5,0
256,192,77955,1,0
256,192,78434,1,0
256,192,78674,1,0
256,192,78794,5,8
256,192,78914,5,0
256,192,79154,1,0
256,192,79274,5,8
256,192,79393,5,0
256,192,79633,5,8
256,192,79873,5,0
256,192,80353,1,0
256,192,80592,2,0,B|340:191|340:191|432:188|464:232|464:232|432:88,1,350
256,192,82271,1,0
256,192,82510,5,8
256,192,82750,5,0
256,192,83469,5,8
256,192,83589,5,0
256,192,83709,1,0
256,192,83949,5,8
256,192,84069,5,0
256,192,84189,1,0
256,192,84428,5,8
256,192,84668,5,4
256,192,85388,1,0
256,192,85628,12,0,88505
