osu file format v9

[General]
AudioFilename: Magicas Esperanzas (TV Size).mp3
AudioLeadIn: 1015
PreviewTime: 52779
Countdown: 0
SampleSet: Normal
StackLeniency: 0.4
Mode: 0
LetterboxInBreaks: 1

[Editor]
DistanceSpacing: 0.7
BeatDivisor: 4
GridSize: 4

[Metadata]
Title:Magicas Esperanzas (TV Size)
Artist:Kokeshi Murata
Creator:Krisom
Version:Hard
Source:Las Chicas Superpoderosas Z
Tags:Powerpuff Girls Z Kibou no Kakera PPG

[Difficulty]
HPDrainRate:7
CircleSize:4
OverallDifficulty:7
ApproachRate:7
SliderMultiplier:2.5
SliderTickRate:2

[Events]
//Background and Video events
0,0,"BG.png"
Video,-320,"HD_FLV_NOA_AURAPPGZOpening_1.avi"
//Break Periods
//Storyboard Layer 0 (Background)
//Storyboard Layer 1 (Fail)
//Storyboard Layer 2 (Pass)
//Storyboard Layer 3 (Foreground)
//Storyboard Sound Samples
//Background Colour Transformations
3,100,163,162,255

[TimingPoints]
270,479.539641943734,4,1,0,80,1,0
30960,-125,4,1,0,80,0,0
32159,-100,4,1,0,80,0,0
53978,-83.3333333333333,4,1,0,80,0,1
69203,-83.3333333333333,4,1,0,80,0,0
69323,-83.3333333333333,4,1,0,80,0,1
80592,-100,4,1,0,80,0,1
81791,-83.3333333333333,4,1,0,80,0,1
88505,-83.3333333333333,4,1,0,80,0,0

[Colours]
Combo1 : 85,222,27
Combo2 : 69,187,248
Combo3 : 255,28,104

[HitObjects]
32,324,4106,1,4
112,356,4346,1,8
192,324,4585,1,2
272,300,4825,2,0,B|168:300|168:300|64:300|64:220,1,250,0|8
152,224,5544,1,2
240,224,5784,2,0,B|344:224|344:224|448:224|448:144,1,250,0|8
464,64,6504,1,2
376,40,6743,2,0,B|256:-22|136:40,1,250,0|8
56,8,7463,2,4,B|120:48|80:120,1,125,0|0
48,200,7942,5,0
124,244,8182,1,8
204,212,8422,1,0
256,284,8661,1,2
308,212,8901,1,0
388,244,9141,1,8
464,200,9381,1,0
476,112,9621,2,0,B|388:8|248:52,1,250,0|8
172,96,10340,5,0
172,104,10460,1,0
116,160,10699,1,8
116,168,10819,1,0
116,176,10939,1,0
56,236,11179,1,8
56,244,11299,2,0,B|56:296|56:340|128:340|128:340|236:340,1,250,0|4
376,332,12018,5,8
456,364,12258,1,2
488,284,12498,2,0,B|480:224|412:176|332:184|288:232,1,250,0|8
204,216,13217,1,2
120,192,13457,2,0,B|128:132|196:84|276:92|320:140,1,250,0|8
392,184,14176,1,2
372,268,14416,2,0,B|316:248|256:296|256:296|196:248|140:268,1,250,0|8
56,240,15135,1,0
120,184,15375,1,0
136,96,15615,6,2,B|224:72|256:112|288:152|376:128,1,250,2|0
456,92,16334,1,8
512,160,16574,1,0
436,208,16814,1,0
448,296,17053,1,8
368,264,17293,1,0
300,316,17533,5,4
212,316,17773,1,0
148,260,18012,1,8
140,268,18132,1,8
132,276,18252,1,0
48,280,18492,1,0
36,200,18732,1,0
44,192,18852,1,0
52,184,18972,1,8
16,104,19211,1,0
112,48,19451,5,4
196,68,19691,1,8
280,48,19931,1,2
364,72,20170,2,0,B|364:140|364:140|364:228|312:252|256:228|256:200,1,250,0|8
256,112,20890,1,2
256,112,21129,2,0,B|256:180|256:180|256:268|204:292|148:268|148:240,1,250,0|8
148,153,21849,1,2
148,65,22089,2,0,B|176:16|256:-8|336:16|364:64,1,250,0|8
448,40,22808,2,0,B|376:80|396:156,1,125
428,224,23287,5,0
372,292,23527,1,8
292,328,23767,1,2
256,248,24007,1,8
220,328,24246,1,0
140,292,24486,1,8
84,224,24726,1,0
136,152,24966,2,0,B|148:152|148:152|164:156|164:156|176:152|176:152|188:148|188:148|200:152|200:152|212:156|212:156|224:152|224:152|236:148|236:148|248:152|248:152|260:156|260:156|272:152|272:152|284:148|284:148|296:152|296:152|308:156|308:156|320:152|320:152|332:148|332:148|344:152|344:152|356:156|356:156|368:152|368:152|384:152,1,250,2|2
460,136,25685,5,8
460,144,25805,1,8
460,152,25925,1,0
460,236,26165,1,0
392,296,26404,1,0
392,288,26524,1,0
392,280,26644,1,8
392,196,26884,1,0
356,68,27124,6,0,B|336:12|256:-20|176:12|156:68,1,250,4|8
156,152,27843,2,0,B|176:208|256:240|336:208|356:152,1,250,2|2
440,128,28562,1,8
412,212,28802,6,2,B|360:304|256:324|152:304|100:212,1,375
140,136,29761,2,2,B|196:116|256:164|256:164|316:116|372:136,1,250,2|8
460,156,30480,1,0
504,228,30720,1,0
480,312,30960,6,0,B|360:368|256:252|256:252|152:368|32:312,1,500,4|8
8,228,32399,1,0
60,156,32638,1,0
140,196,32878,1,4
372,196,33358,1,4
212,264,33837,1,4
300,264,34077,1,8
364,316,34317,1,8
372,316,34437,1,8
380,316,34557,1,0
472,236,34796,6,0,B|484:100|308:28|196:112,1,375,4|8
276,152,35755,2,0,B|212:196|156:180,1,125,2|0
280,232,36235,2,0,B|148:272,1,125,8|0
76,284,36715,1,0
56,200,36954,1,8
48,192,37074,2,0,B|124:72|268:116,1,250,0|8
272,124,37674,1,0
320,196,37913,1,0
372,264,38153,1,8
364,272,38273,1,8
356,280,38393,1,0
288,324,38633,6,0,B|178:406|2:334|14:198,1,375,4|8
32,112,39592,2,0,B|108:87|136:48,1,125,2|0
80,172,40071,2,0,B|196:124,1,125,8|0
276,88,40552,1,0
344,144,40791,1,8
352,152,40911,2,0,B|284:272|136:228,1,250,0|8
128,220,41511,1,0
124,120,41750,1,0
48,164,41990,1,8
48,172,42110,1,8
48,180,42230,1,0
100,248,42469,6,0,B|152:340|256:360|360:340|412:248,1,375,4|0
404,156,43428,2,0,B|320:156|280:216,1,125,2|0
108,156,43908,2,0,B|192:156|232:216,1,125,8|0
256,120,44388,1,0
300,44,44627,1,8
212,44,44867,1,0
148,104,45106,2,0,B|184:152|256:184|328:152|364:104,1,250,2|8
416,176,45826,1,4
416,176,46305,6,0,B|364:268|260:288|156:268|104:176,1,375,4|8
104,176,47264,1,0
32,16,47744,1,0
60,100,47984,1,8
104,176,48223,2,0,B|180:292|328:248,1,250,4|0
404,216,48943,1,8
360,140,49183,5,2
300,76,49422,1,8
212,76,49662,1,0
152,140,49902,1,0
72,180,50142,2,0,B|88:308|256:372|424:308|440:180,2,500,4|0|8
168,180,52300,5,0
212,180,52419,1,0
256,180,52539,1,0
300,180,52659,1,0
344,180,52779,1,8
440,180,53019,1,4
72,180,53498,1,4
204,344,53978,5,4
308,344,54218,1,0
404,308,54457,1,8
484,240,54697,1,0
512,144,54937,2,0,B|416:116|364:148|304:184|212:148,1,300.000007152558,8|0
208,40,55656,5,0
108,76,55896,1,8
28,144,56136,1,0
0,244,56376,2,0,B|96:272|148:240|208:204|300:240,1,300.000007152558,8|2
360,320,57095,5,0
256,340,57335,1,8
152,320,57574,1,0
136,216,57814,2,2,B|160:144|256:116|352:144|376:216,1,300.000007152558,2|8
444,136,58534,1,0
360,72,58773,1,0
256,52,59013,1,0
152,72,59253,1,8
68,136,59493,1,4
68,136,59972,2,0,B|80:192|168:228|256:152|256:152|344:228|432:192|444:136,1,450.000010728836,4|8
360,72,60931,5,0
256,60,61171,1,2
152,72,61411,1,0
68,136,61651,2,0,B|104:224|12:264,2,150.000003576279,8|0|8
8,48,62370,1,0
112,48,62610,2,2,B|200:28|256:72|256:72|312:28|400:48,1,300.000007152558,2|8
504,48,63329,1,0
444,136,63569,2,0,B|408:224|500:264,2,150.000003576279,8|0|8
116,216,64528,5,0
204,276,64768,1,8
308,276,65007,1,0
396,216,65247,1,4
396,216,65727,2,0,B|224:236|128:160|192:64|256:42|320:64|384:160|288:236|114:216,1,600.000014305115,4|8
44,140,66926,1,0
144,112,67165,6,2,B|160:44|256:-20|352:44|368:112,1,300.000007152558,2|8
344,216,67885,1,4
168,216,68124,1,0
356,216,68364,1,4
156,216,68604,1,0
368,216,68844,1,4
176,344,69323,5,4
72,344,69563,1,0
16,256,69803,1,8
68,164,70042,1,0
120,256,70282,2,0,B|188:316|300:308|332:196|292:136,1,300.000007152558,8|0
256,44,71001,5,0
344,104,71241,1,8
432,160,71481,1,0
392,256,71721,2,0,B|324:316|212:308|180:196|220:136,1,300.000007152558,8|2
256,44,72440,5,0
168,104,72680,1,8
80,160,72919,1,0
116,256,73159,2,2,B|256:352|396:256,1,300.000007152558,2|8
452,168,73879,1,0
356,124,74118,1,0
256,160,74358,1,0
156,196,74598,1,8
60,152,74838,1,4
60,152,75317,2,0,B|120:64|256:24|392:64|452:152,1,450.000010728836,4|0
452,256,76276,5,0
348,268,76516,1,2
256,320,76756,1,0
164,268,76996,2,0,B|192:180|112:136,2,150.000003576279,8|0|8
256,216,77715,1,0
200,128,77955,2,2,B|160:64|256:8|256:8|352:64|312:128,1,300.000007152558,2|8
256,216,78674,1,0
348,268,78914,2,0,B|320:180|400:136,3,150.000003576279,8|0|8|0
368,36,79873,6,2,B|352:104|256:168|160:104|144:36,1,300.000007152558,2|8
40,32,80592,2,0,B|52:160|144:228|256:248|368:228|460:160|472:32,1,625,4|8
256,56,82271,1,0
204,148,82511,1,8
308,148,82750,1,0
168,340,83469,5,0
344,340,83709,1,4
168,272,83949,5,0
344,272,84189,1,4
168,204,84429,5,0
344,204,84668,1,4
256,192,84908,12,4,88505
