osu file format v5

[General]
AudioFilename: Clock Town - Day 3.mp3
AudioLeadIn: 0
PreviewTime: -1
Countdown: 0
SampleSet: Soft
StackLeniency: 0.7
Mode: 0
LetterboxInBreaks: 1
EditorBookmarks: 3332,16113,35199
EditorDistanceSpacing: 1

[Metadata]
Title:Clock Town
Artist:Koji Kondo, Toru Minegishi
Creator:0_o
Version:Day 3
Source:The Legend of Zelda: Majora's Mask
Tags:link n64 nintendo 64

[Difficulty]
HPDrainRate:5
CircleSize:6
OverallDifficulty:7
SliderMultiplier:1.6
SliderTickRate:1

[Events]
//Background and Video events
0,0,"day3.jpg"
//Break Periods
//Storyboard Layer 0 (Background)
//Storyboard Layer 1 (Failing)
//Storyboard Layer 2 (Passing)
//Storyboard Layer 3 (Foreground)
//Storyboard Sound Samples
//Background Colour Transformations
3,100,163,162,255

[TimingPoints]
3317,400,4,2,0,74,1,0

[Colours]
Combo1 : 240,5,5
Combo2 : 255,150,0
Combo3 : 5,240,5
Combo4 : 5,5,240

[HitObjects]
80,64,3317,1,0
104,168,3583,1,0
152,191,3717,1,0
200,96,3983,1,0
241,62,4117,2,2,B|329:102|273:206,1,160
168,320,4917,5,0
272,344,5183,1,0
272,290,5316,1,0
319,314,5450,1,0
319,260,5583,1,0
318,206,5716,1,0
319,315,5983,1,0
319,261,6116,1,0
473,270,6516,5,0
391,201,6783,1,0
409,151,6916,1,0
494,87,7183,1,0
474,37,7316,2,2,B|390:14|306:66,1,160
240,200,8116,5,0
203,239,8250,1,0
166,200,8383,1,0
133,157,8516,1,0
133,263,8783,1,0
132,316,8916,1,4
24,96,9717,6,0,B|76:56|169:35,1,106.666666666667,0|0
170,33,10117,1,2
272,64,10383,1,0
312,99,10517,2,0,B|344:171|208:227,1,160,0|2
96,120,11317,5,0
144,224,11583,1,0
144,224,11717,1,2
40,224,11983,1,0
40,224,12117,1,2
96,312,12383,1,0
96,312,12517,1,2
312,312,12917,5,2
405,262,13183,1,0
376,216,13317,2,0,B|312:144|376:96,1,106.666666666667
310,87,13717,2,2,B|362:36|426:90|399:152,1,160
248,112,14517,6,0,B|184:168,1,53.3333333333333
248,181,14783,1,0
207,215,14917,2,0,B|248:250,1,53.3333333333333
288,283,15183,2,0,B|240:323,1,53.3333333333333,0|4
432,32,16117,5,0
368,117,16383,1,0
413,92,16517,1,0
368,64,16650,1,0
322,91,16783,1,0
279,124,16917,2,0,C|295:204|407:228,2,160
241,86,17850,1,0
199,52,17983,1,0
155,83,18117,1,0
197,180,18383,1,0
197,125,18517,2,0,C|197:285,1,160,0|0
360,304,19317,5,0
471,180,19583,1,0
430,144,19717,1,0
380,124,19850,1,0
326,126,19983,1,0
278,150,20116,1,0
156,46,20516,5,0
235,180,20916,5,0
189,207,21050,1,0
135,217,21183,1,0
83,201,21316,1,0
26,110,21583,1,0
12,58,21716,1,2
409,73,22516,5,0
386,177,22783,1,0
332,177,22916,1,2
416,241,23183,1,0
469,239,23316,1,0
386,306,23583,1,0
332,306,23716,1,2
181,252,24116,6,0,B|106:267|84:172,1,106.666666666667,2|0
149,198,24516,2,0,B|228:179|174:99,1,106.666666666667,2|0
143,146,24916,2,0,B|119:84|174:41,1,106.666666666667,2|2
209,18,25316,1,2
232,312,25716,5,0
337,294,25983,1,0
325,241,26116,1,0
274,223,26250,1,0
232,256,26383,1,0
232,256,26516,2,0,C|184:192|144:264,1,160,2|2
232,128,27316,5,2
190,93,27450,1,0
151,129,27583,1,0
190,93,27716,1,2
191,202,27983,1,0
191,148,28116,1,4
88,288,28917,6,0,C|208:288|144:200|88:272,1,320
424,288,30516,2,0,C|304:288|368:200|424:272,1,320
248,152,32116,2,0,C|200:152|256:48|312:152|272:152,3,320
256,256,34783,1,0
256,256,34916,1,8
152,136,35316,5,0
224,56,35583,1,0
224,56,35716,1,0
224,56,35850,1,0
224,56,35983,1,0
280,56,36116,2,2,B|384:80|384:168|288:168,1,160
184,216,36916,5,2
272,280,37183,1,0
216,280,37316,1,0
216,336,37450,1,0
272,336,37583,1,0
272,280,37716,2,2,B|320:200|384:248|408:288,2,160
184,336,38783,5,0
144,296,38916,1,0
168,248,39050,1,0
197,203,39183,1,0
151,175,39317,2,2,B|185:114|271:156|248:222,1,160
360,88,40117,5,2
326,129,40250,1,0
293,171,40383,1,0
273,121,40517,1,2
176,80,40783,1,0
141,121,40917,1,10
368,344,41717,5,0
432,256,41983,1,0
393,293,42117,2,0,C|345:261|385:205,1,106.666666666667,8|0
376,168,42517,1,0
274,201,42783,1,0
325,184,42917,2,0,C|302:133|244:145,1,106.666666666667,8|0
239,88,43317,5,0
139,116,43583,1,0
111,162,43717,1,8
164,162,43850,1,0
138,208,43983,1,0
164,254,44117,1,8
110,256,44250,1,0
138,300,44383,1,0
139,353,44517,2,0,C|187:379|260:335,1,106.666666666667,8|0
272,320,44917,5,8
272,216,45183,1,0
306,175,45317,2,0,B|370:215|426:167,1,106.666666666667
452,152,45717,2,0,B|424:101|308:160,1,106.666666666667,8|0
305,118,46117,2,0,B|228:144|256:251,1,106.666666666667
246,252,46517,5,0
274,298,46650,1,0
245,342,46783,1,0
213,299,46917,1,8
183,342,47050,1,0
153,297,47183,1,0
126,250,47317,1,12
470,31,48117,5,0
370,68,48383,2,0,C|399:127,1,53.3333333333333
341,130,48650,2,0,C|269:100,1,53.3333333333333
240,124,48917,1,6
157,332,49317,5,6
77,122,49717,6,0,C|53:183,1,53.3333333333333
100,205,49983,2,0,C|205:190,1,53.3333333333333
232,272,50383,1,0
246,220,50517,1,0
374,47,50917,6,0,B|417:80|425:154|360:221,1,160,6|4
263,129,51583,6,0,B|217:169|282:212,1,53.3333333333333
276,220,51850,1,0
320,249,51983,1,0
296,296,52117,1,6
92,231,52517,5,6
200,35,52917,6,0,B|201:125,1,53.3333333333333,4|0
200,144,53183,2,0,B|199:208,1,53.3333333333333,0|4
200,344,53583,2,0,B|200:285,1,53.3333333333333,0|4
47,30,54517,5,2
149,59,54783,1,0
179,102,54917,1,2
210,145,55050,1,0
242,102,55183,1,0
275,60,55317,1,2
426,108,55717,2,0,C|341:231,1,106.666666666667,6|0
330,241,56117,5,2
298,197,56250,1,0
268,242,56383,1,0
214,242,56517,5,2
182,198,56650,1,0
152,243,56783,1,0
124,288,56917,5,2
152,332,57050,1,0
181,287,57183,1,0
210,332,57317,2,0,L|340:332,1,106.666666666667,4|0
358,299,57717,5,10
364,192,57983,1,0
316,167,58117,2,0,C|284:123|247:179,1,106.666666666667
225,208,58517,1,10
125,245,58783,1,0
178,246,58917,2,0,C|176:301|103:302,1,106.666666666667,8|0
75,318,59317,5,10
73,264,59450,1,0
44,219,59583,1,0
72,173,59717,1,10
112,59,59983,1,0
70,24,60117,1,6
