osu file format v5

[General]
AudioFilename: Clock Town - Day 2.mp3
AudioLeadIn: 0
PreviewTime: -1
Countdown: 0
SampleSet: Soft
StackLeniency: 0.7
Mode: 0
LetterboxInBreaks: 0
EditorBookmarks: 11435,19115,26795,34475,49995
EditorDistanceSpacing: 1.20000004768372

[Metadata]
Title:Clock Town
Artist:Koji Kondo, Toru Minegishi
Creator:0_o
Version:Day 2
Source:The Legend of Zelda: Majora's Mask
Tags:link n64 nintendo 64

[Difficulty]
HPDrainRate:6
CircleSize:5
OverallDifficulty:6
SliderMultiplier:1.6
SliderTickRate:1

[Events]
//Background and Video events
0,0,"day2.jpg"
//Break Periods
//Storyboard Layer 0 (Background)
//Storyboard Layer 1 (Failing)
//Storyboard Layer 2 (Passing)
//Storyboard Layer 3 (Foreground)
//Storyboard Sound Samples
//Background Colour Transformations
3,100,163,162,255

[TimingPoints]
4236,480,4,2,0,75,1,0
56956,-100,4,2,0,53,0,0

[HitObjects]
112,72,4236,1,0
195,154,4556,1,0
236,112,4716,1,0
287,217,5036,1,0
328,176,5196,2,2,B|408:192|416:232|344:296,1,160
184,336,6156,5,2
80,280,6476,1,0
128,248,6636,1,2
120,128,6956,1,0
168,160,7116,1,0
240,64,7436,1,0
240,8,7596,1,2
368,200,8076,5,2
400,312,8396,1,0
344,328,8556,2,0,B|280:368|216:296,1,106.666666666667
192,344,9036,2,2,B|112:264|168:184,1,160,2|2
296,88,9996,5,2
344,120,10156,1,0
376,168,10316,1,0
408,120,10476,1,2
408,240,10796,1,0
408,296,10956,1,4
72,64,11916,6,0,B|128:80|152:152,1,106.666666666667,2|0
104,176,12396,2,0,B|176:224,1,53.3333333333333
109,249,12716,1,0
72,294,12876,2,2,B|128:326|240:294,1,160
392,264,13836,5,2
320,171,14156,1,0
366,134,14316,1,0
359,75,14476,1,0
300,70,14636,1,0
280,125,14796,2,2,B|160:125,1,106.666666666667
125,91,15276,2,0,B|61:163|109:211|165:203|197:219,1,160,2|2
256,200,16076,5,0
296,240,16236,2,0,B|360:296,1,53.3333333333333
376,312,16556,1,0
336,344,16716,2,2,B|265:372|204:309|204:280|208:232,1,160
184,88,17676,6,2,B|264:88,1,53.3333333333333
296,88,17996,1,0
296,144,18156,2,2,B|232:144,1,53.3333333333333
240,200,18476,1,0
240,256,18636,1,4
72,56,19596,5,0
176,72,19916,1,0
136,115,20076,1,0
174,159,20236,1,0
229,178,20396,1,0
284,158,20556,2,0,B|325:99|441:111,2,160,0|0|0
257,210,21676,1,0
230,262,21836,2,0,B|190:303|153:301,1,53.3333333333333
96,218,22316,1,0
58,263,22476,2,0,B|38:323|109:354|174:363,1,160
333,338,23436,5,2
404,244,23756,1,0
436,194,23916,1,0
439,135,24076,1,0
417,80,24236,1,0
366,50,24396,2,2,B|300:96|202:61,1,160
63,157,25356,5,0
110,190,25516,1,0
165,209,25676,1,0
223,214,25836,1,0
328,168,26156,1,0
328,168,26316,1,8
425,303,27276,5,2
372,198,27596,1,0
335,243,27756,2,0,B|264:240,1,53.3333333333333,0|0
254,292,28076,1,0
227,344,28236,2,2,B|187:304|163:240|227:168,1,160,10|10
368,88,29196,6,0,B|328:48,1,53.3333333333333,10|0
297,98,29516,2,0,B|313:170,1,53.3333333333333,0|2
339,263,29996,1,0
369,212,30156,2,0,B|396:133|256:156,1,106.666666666667,8|0
251,155,30636,2,2,B|187:163|123:179|75:243,1,160,2|10
155,317,31436,5,2
109,280,31596,1,0
67,238,31756,2,0,B|27:198|67:166,1,53.3333333333333
65,134,32076,2,8,B|105:70|209:62,1,160
266,294,33036,5,2
323,280,33196,1,0
358,233,33356,1,0
361,174,33516,1,2
258,117,33836,1,0
257,58,33996,1,6
48,200,34956,6,0,B|64:280|120:320|192:336|352:280,1,320,2|0
400,35,36876,2,0,B|415:86|511:190|299:299,1,320,0|8
93,57,38796,6,0,B|236:211,1,160,0|0
311,293,39756,1,0
203,174,40236,1,2
311,293,40716,2,0,B|92:50,1,320,0|0
366,228,42636,6,0,B|277:202|239:216|205:323|157:321|65:318,1,320
366,228,44076,1,8
163,68,44556,2,0,B|294:-15|342:131|475:51,1,320,0|0
366,229,45996,1,10
136,152,46476,6,2,B|156:269|250:295,1,160,2|0
376,144,47436,2,2,B|374:230|289:290,1,160,2|0
256,80,48396,2,0,B|256:240,1,106.666666666667
256,248,48876,1,0
256,368,49196,1,0
256,312,49356,2,0,B|255:136,1,160
66,78,50316,5,0
179,50,50636,1,0
235,36,50796,1,2
293,42,50956,1,0
348,60,51116,1,0
392,98,51276,1,2
460,260,51756,6,0,B|517:345|410:383|346:355,1,160,0|2
288,328,52556,1,2
241,292,52716,1,2
194,327,52876,1,0
138,345,53036,1,0
81,327,53196,2,2,B|33:279|121:199,1,106.666666666667
38,201,53676,2,2,B|103:137|206:145,1,160
299,89,54476,5,0
351,116,54636,1,0
384,163,54796,1,0
370,220,54956,1,0
325,258,55116,1,2
163,188,55596,1,2
256,359,56076,5,2
256,300,56236,1,0
256,241,56396,1,0
256,182,56556,1,2
256,64,56876,1,0
256,64,57036,1,4
