osu file format v5

[General]
AudioFilename: Clock Town - Day 1.mp3
AudioLeadIn: 0
PreviewTime: -1
Countdown: 0
SampleSet: Soft
StackLeniency: 0.7
Mode: 0
LetterboxInBreaks: 1
EditorBookmarks: 22077
EditorDistanceSpacing: 1.20000004768372

[Metadata]
Title:Clock Town
Artist:Koji Kondo, Toru Minegishi
Creator:0_o
Version:Day 1
Source:The Legend of Zelda: Majora's Mask
Tags:link n64 nintendo 64

[Difficulty]
HPDrainRate:3
CircleSize:4
OverallDifficulty:3
SliderMultiplier:1.3
SliderTickRate:1

[Events]
//Background and Video events
0,0,"day1.jpg"
//Break Periods
//Storyboard Layer 0 (Background)
//Storyboard Layer 1 (Failing)
//Storyboard Layer 2 (Passing)
//Storyboard Layer 3 (Foreground)
//Storyboard Sound Samples
//Background Colour Transformations
3,100,163,162,255

[TimingPoints]
22085,545.454545454545,4,2,0,75,1,0

[HitObjects]
120,136,22084,1,0
216,200,22630,1,0
136,288,23175,2,2,B|216:344|272:288,1,130
368,256,24266,5,0
448,176,24812,1,0
392,72,25357,2,2,B|328:40|264:72,1,130
176,128,26448,5,2
80,192,26994,1,0
32,296,27539,2,2,B|88:368|160:312,1,130
256,280,28630,5,2
256,208,28994,2,2,B|256:144,1,43.3333333333333
256,96,29539,1,0
256,96,29721,1,4
88,256,30812,5,2
48,144,31357,2,0,B|88:80|152:88,1,86.6666666666667
152,80,31903,2,2,B|216:80|264:168,1,130
200,256,32994,5,2
240,320,33357,2,0,C|320:320,1,43.3333333333333
352,360,33903,1,2
352,360,34084,2,2,B|432:304|416:240,1,130
304,256,35175,5,2
344,192,35539,1,0
344,192,35721,2,0,B|384:144|328:88,1,86.6666666666667
320,88,36266,2,2,B|272:72|240:96|224:112|176:64,1,130
88,128,37357,5,0
88,208,37721,1,0
88,208,37903,1,0
88,288,38266,1,0
88,288,38448,1,2
312,344,39539,5,8
376,248,40084,2,0,C|328:224|272:248,1,86.6666666666667
272,264,40630,2,2,B|208:320|120:240,1,130
64,184,41721,5,2
128,136,42084,1,0
128,136,42266,1,2
192,176,42630,1,0
224,152,42812,2,0,B|272:104|344:184|304:232,2,130,0|2|8
248,264,44448,5,0
328,344,44994,2,2,B|384:312|392:264,1,86.6666666666667
400,248,45539,1,0
448,136,46085,2,8,B|400:56|304:64,2,130
104,88,48266,5,0
152,144,48630,1,2
176,112,48812,2,0,B|224:64|272:128,1,86.6666666666667
272,144,49357,2,2,B|336:216|408:112,1,130
424,248,50448,5,2
360,296,50812,1,0
328,264,50994,1,0
264,304,51357,1,2
224,296,51539,2,2,B|152:296|152:224,1,86.6666666666667
128,224,52085,2,2,B|200:168|272:176,1,130
320,144,52994,5,0
352,168,53175,2,0,B|400:208,1,43.3333333333333
408,232,53539,1,0
392,272,53721,2,2,B|352:328|264:320,1,130
168,280,54812,5,0
184,248,54994,1,0
208,208,55175,1,0
240,176,55357,1,0
320,176,55721,2,0,B|320:96,1,43.3333333333333,0|4
72,224,56994,6,0,B|56:144|112:72|240:56,1,260
432,208,59175,2,0,B|456:280|424:328|280:320|248:312,1,260,0|0
101,97,61357,6,0,B|256:216|88:296,1,260
256,288,62994,1,2
376,152,63539,2,0,B|352:248|304:256|288:168|248:136|192:160|168:240,1,260,0|0
392,312,65721,6,0,B|472:176|400:80,1,260
160,192,67903,2,0,B|216:88|280:328|408:152,1,260
63,63,70085,6,2,B|126:49|200:120,1,130,0|2
104,192,71175,2,2,B|107:272|187:280,1,130,0|2
296,280,72266,1,0
368,256,72630,2,2,B|368:176,1,43.3333333333333
368,136,73175,1,2
368,136,73357,1,4
