osu file format v14

[General]
AudioFilename: Super Mario Bros. -BGM Medley-.mp3
AudioLeadIn: 0
PreviewTime: 3025
Countdown: 0
SampleSet: Soft
StackLeniency: 0.7
Mode: 3
LetterboxInBreaks: 0
SpecialStyle: 1
WidescreenStoryboard: 1

[Editor]
DistanceSpacing: 1.4
BeatDivisor: 4
GridSize: 4
TimelineZoom: 1

[Metadata]
Title:Super Mario Bros. -BGM Medley-
TitleUnicode:Super Mario Bros. -BGM Medley-
Artist:Koji Kondo
ArtistUnicode:Koji Kondo
Creator:rhalp10
Version:7K Hard
Source:Super Mario Bros.
Tags:
BeatmapID:659197
BeatmapSetID:292971

[Difficulty]
HPDrainRate:7
CircleSize:7
OverallDifficulty:8
ApproachRate:5
SliderMultiplier:1.4
SliderTickRate:1

[Events]
//Background and Video events
0,0,"BG.jpg",0,0
//Break Periods
//Storyboard Layer 0 (Background)
//Storyboard Layer 1 (Fail)
//Storyboard Layer 2 (Pass)
//Storyboard Layer 3 (Foreground)
//Storyboard Sound Samples

[TimingPoints]
3025,300,4,2,2,100,1,0
7900,-100,4,2,2,100,0,0
46000,-100,4,2,2,100,0,0
58600,200,4,2,2,100,1,0
58600,-125,4,2,2,100,0,0
66600,266.666666666667,4,2,2,100,1,0
66600,-125,4,2,2,100,0,0
93800,200,4,2,2,100,1,0
93800,-125,4,2,2,100,0,0
103100,-125,4,2,2,100,0,0
111800,480,4,2,2,100,1,0
123100,333.48154735438,4,2,2,100,1,0
142516,-100,4,2,2,100,0,0

[HitObjects]
329,192,3025,5,0,0:0:0:25:2.ogg
329,192,3175,1,0,0:0:0:25:2.ogg
329,192,3475,1,0,0:0:0:25:2.ogg
182,192,3775,5,0,0:0:0:25:1.ogg
329,192,3925,1,0,0:0:0:25:2.ogg
475,192,4225,1,0,0:0:0:25:4.ogg
36,192,4825,1,0,0:0:0:25:Jump.ogg
109,192,4825,1,0,0:0:0:25:Jump.ogg
182,192,5425,1,0,0:0:0:25:5.ogg
109,192,5875,1,0,0:0:0:25:6.ogg
36,192,6325,1,0,0:0:0:100:soft-hitnormal.wav
182,192,6775,1,0,0:0:0:100:soft-hitnormal.wav
329,192,7075,1,0,0:0:0:100:soft-hitnormal.wav
256,192,7375,1,0,0:0:0:100:soft-hitnormal.wav
182,192,7525,1,0,0:0:0:100:soft-hitnormal.wav
402,192,7525,1,0,0:0:0:100:soft-hitnormal.wav
256,192,7825,1,0,0:0:0:100:soft-hitnormal.wav
329,192,8031,1,0,0:0:0:100:soft-hitnormal.wav
402,192,8218,1,0,0:0:0:100:soft-hitnormal.wav
475,192,8425,1,0,0:0:0:100:soft-hitnormal.wav
329,192,8725,1,0,0:0:0:100:soft-hitnormal.wav
402,192,8875,1,0,0:0:0:100:soft-hitnormal.wav
256,192,9175,1,0,0:0:0:100:soft-hitnormal.wav
182,192,9475,1,0,0:0:0:100:soft-hitnormal.wav
256,192,9625,1,0,0:0:0:100:soft-hitnormal.wav
402,192,9625,1,0,0:0:0:100:soft-hitnormal.wav
109,192,9775,1,0,0:0:0:100:soft-hitnormal.wav
182,192,10225,1,0,0:0:0:100:soft-hitnormal.wav
109,192,10675,1,0,0:0:0:100:soft-hitnormal.wav
36,192,11125,1,0,0:0:0:100:soft-hitnormal.wav
182,192,11575,1,0,0:0:0:100:soft-hitnormal.wav
329,192,11875,1,0,0:0:0:100:soft-hitnormal.wav
256,192,12175,1,0,0:0:0:100:soft-hitnormal.wav
182,192,12325,1,0,0:0:0:100:soft-hitnormal.wav
402,192,12325,1,0,0:0:0:100:soft-hitnormal.wav
256,192,12625,1,0,0:0:0:100:soft-hitnormal.wav
329,192,12831,1,0,0:0:0:100:soft-hitnormal.wav
402,192,13018,1,0,0:0:0:100:soft-hitnormal.wav
475,192,13225,1,0,0:0:0:100:soft-hitnormal.wav
329,192,13525,1,0,0:0:0:100:soft-hitnormal.wav
402,192,13675,1,0,0:0:0:100:soft-hitnormal.wav
256,192,13975,1,0,0:0:0:100:soft-hitnormal.wav
182,192,14275,1,0,0:0:0:100:soft-hitnormal.wav
256,192,14425,1,0,0:0:0:100:soft-hitnormal.wav
109,192,14575,1,0,0:0:0:100:soft-hitnormal.wav
36,192,15025,1,0,0:0:0:25:Gold.ogg
475,192,15325,1,0,0:0:0:100:soft-hitnormal.wav
402,192,15475,1,0,0:0:0:100:soft-hitnormal.wav
329,192,15625,1,0,0:0:0:100:soft-hitnormal.wav
182,192,15775,1,0,0:0:0:100:soft-hitnormal.wav
256,192,16075,1,0,0:0:0:100:soft-hitnormal.wav
36,192,16375,1,0,0:0:0:100:soft-hitnormal.wav
109,192,16525,1,0,0:0:0:100:soft-hitnormal.wav
182,192,16675,1,0,0:0:0:100:soft-hitnormal.wav
109,192,16975,1,0,0:0:0:100:soft-hitnormal.wav
182,192,17125,1,0,0:0:0:100:soft-hitnormal.wav
256,192,17275,1,0,0:0:0:100:soft-hitnormal.wav
36,192,17425,1,0,0:0:0:25:Gold.ogg
475,192,17725,1,0,0:0:0:100:soft-hitnormal.wav
402,192,17875,1,0,0:0:0:100:soft-hitnormal.wav
329,192,18025,1,0,0:0:0:100:soft-hitnormal.wav
182,192,18175,1,0,0:0:0:100:soft-hitnormal.wav
256,192,18475,1,0,0:0:0:100:soft-hitnormal.wav
475,192,18775,1,0,0:0:0:100:soft-hitnormal.wav
475,192,19075,1,0,0:0:0:100:soft-hitnormal.wav
475,192,19225,1,0,0:0:0:100:soft-hitnormal.wav
475,192,20125,1,0,0:0:0:100:soft-hitnormal.wav
402,192,20275,1,0,0:0:0:100:soft-hitnormal.wav
329,192,20425,1,0,0:0:0:100:soft-hitnormal.wav
182,192,20575,1,0,0:0:0:100:soft-hitnormal.wav
256,192,20875,1,0,0:0:0:100:soft-hitnormal.wav
36,192,21175,1,0,0:0:0:100:soft-hitnormal.wav
109,192,21325,1,0,0:0:0:100:soft-hitnormal.wav
182,192,21475,1,0,0:0:0:100:soft-hitnormal.wav
109,192,21775,1,0,0:0:0:100:soft-hitnormal.wav
182,192,21925,1,0,0:0:0:100:soft-hitnormal.wav
256,192,22075,1,0,0:0:0:100:soft-hitnormal.wav
36,192,22225,1,0,0:0:0:25:Gold.ogg
475,192,22525,1,0,0:0:0:100:soft-hitnormal.wav
329,192,22975,1,0,0:0:0:100:soft-hitnormal.wav
182,192,23425,1,0,0:0:0:100:soft-hitnormal.wav
402,192,23912,1,0,0:0:0:100:soft-hitnormal.wav
402,192,24025,1,0,0:0:0:100:soft-hitnormal.wav
36,192,24625,1,0,0:0:0:25:Gold.ogg
475,192,24925,1,0,0:0:0:100:soft-hitnormal.wav
402,192,25075,1,0,0:0:0:100:soft-hitnormal.wav
329,192,25225,1,0,0:0:0:100:soft-hitnormal.wav
182,192,25375,1,0,0:0:0:100:soft-hitnormal.wav
256,192,25675,1,0,0:0:0:100:soft-hitnormal.wav
36,192,25975,1,0,0:0:0:100:soft-hitnormal.wav
109,192,26125,1,0,0:0:0:100:soft-hitnormal.wav
182,192,26275,1,0,0:0:0:100:soft-hitnormal.wav
109,192,26575,1,0,0:0:0:100:soft-hitnormal.wav
182,192,26725,1,0,0:0:0:100:soft-hitnormal.wav
256,192,26875,1,0,0:0:0:100:soft-hitnormal.wav
36,192,27025,1,0,0:0:0:25:Gold.ogg
475,192,27325,1,0,0:0:0:100:soft-hitnormal.wav
402,192,27475,1,0,0:0:0:100:soft-hitnormal.wav
329,192,27625,1,0,0:0:0:100:soft-hitnormal.wav
182,192,27775,1,0,0:0:0:100:soft-hitnormal.wav
256,192,28075,1,0,0:0:0:100:soft-hitnormal.wav
475,192,28375,1,0,0:0:0:100:soft-hitnormal.wav
475,192,28675,1,0,0:0:0:100:soft-hitnormal.wav
475,192,28825,1,0,0:0:0:100:soft-hitnormal.wav
36,192,29425,1,0,0:0:0:25:Mushroom.ogg
475,192,29725,1,0,0:0:0:100:soft-hitnormal.wav
402,192,29875,1,0,0:0:0:100:soft-hitnormal.wav
329,192,30025,1,0,0:0:0:100:soft-hitnormal.wav
182,192,30175,1,0,0:0:0:100:soft-hitnormal.wav
256,192,30475,1,0,0:0:0:100:soft-hitnormal.wav
36,192,30775,1,0,0:0:0:100:soft-hitnormal.wav
109,192,30925,1,0,0:0:0:100:soft-hitnormal.wav
182,192,31075,1,0,0:0:0:100:soft-hitnormal.wav
109,192,31375,1,0,0:0:0:100:soft-hitnormal.wav
182,192,31525,1,0,0:0:0:100:soft-hitnormal.wav
256,192,31675,1,0,0:0:0:100:soft-hitnormal.wav
402,192,31825,1,0,0:0:0:25:1Up.ogg
475,192,32125,1,0,0:0:0:100:soft-hitnormal.wav
329,192,32575,1,0,0:0:0:100:soft-hitnormal.wav
182,192,33025,1,0,0:0:0:100:soft-hitnormal.wav
402,192,33512,1,0,0:0:0:100:soft-hitnormal.wav
402,192,33625,1,0,0:0:0:100:soft-hitnormal.wav
329,192,34225,1,0,0:0:0:100:soft-hitnormal.wav
329,192,34375,1,0,0:0:0:100:soft-hitnormal.wav
329,192,34675,1,0,0:0:0:100:soft-hitnormal.wav
36,192,34825,1,0,0:0:0:25:Fire.ogg
329,192,34975,1,0,0:0:0:100:soft-hitnormal.wav
402,192,35125,1,0,0:0:0:100:soft-hitnormal.wav
475,192,35425,1,0,0:0:0:100:soft-hitnormal.wav
402,192,35575,1,0,0:0:0:100:soft-hitnormal.wav
182,192,35875,1,0,0:0:0:100:soft-hitnormal.wav
109,192,36025,1,0,0:0:0:100:soft-hitnormal.wav
36,192,36325,1,0,0:0:0:25:Fire.ogg
329,192,36625,1,0,0:0:0:100:soft-hitnormal.wav
329,192,36775,1,0,0:0:0:100:soft-hitnormal.wav
329,192,37075,1,0,0:0:0:100:soft-hitnormal.wav
329,192,37375,1,0,0:0:0:100:soft-hitnormal.wav
402,192,37525,1,0,0:0:0:100:soft-hitnormal.wav
475,192,37675,1,0,0:0:0:100:soft-hitnormal.wav
36,192,38125,1,0,0:0:0:25:Fire.ogg
36,192,38425,1,0,0:0:0:25:Fire.ogg
329,192,39025,1,0,0:0:0:100:soft-hitnormal.wav
329,192,39175,1,0,0:0:0:100:soft-hitnormal.wav
36,192,39325,1,0,0:0:0:25:Fire.ogg
329,192,39475,1,0,0:0:0:100:soft-hitnormal.wav
36,192,39625,1,0,0:0:0:25:Fire.ogg
329,192,39775,1,0,0:0:0:100:soft-hitnormal.wav
402,192,39925,1,0,0:0:0:100:soft-hitnormal.wav
475,192,40225,1,0,0:0:0:100:soft-hitnormal.wav
402,192,40375,1,0,0:0:0:100:soft-hitnormal.wav
182,192,40675,1,0,0:0:0:100:soft-hitnormal.wav
36,192,40825,1,0,0:0:0:25:Fire.ogg
109,192,40825,1,0,0:0:0:100:soft-hitnormal.wav
36,192,41125,1,0,0:0:0:25:Fire.ogg
329,192,41425,1,0,0:0:0:100:soft-hitnormal.wav
329,192,41575,1,0,0:0:0:100:soft-hitnormal.wav
329,192,41875,1,0,0:0:0:100:soft-hitnormal.wav
182,192,42175,1,0,0:0:0:100:soft-hitnormal.wav
329,192,42325,1,0,0:0:0:100:soft-hitnormal.wav
475,192,42625,1,0,0:0:0:100:soft-hitnormal.wav
109,192,43225,1,0,0:0:0:100:soft-hitnormal.wav
36,192,44293,1,0,0:0:0:25:Entering Tube.ogg
36,192,44575,1,0,0:0:0:25:Entering Tube.ogg
36,192,44856,1,0,0:0:0:25:Entering Tube.ogg
256,192,45925,1,0,0:0:0:100:soft-hitnormal.wav
475,192,46075,1,0,0:0:0:100:soft-hitnormal.wav
109,192,46225,1,0,0:0:0:100:soft-hitnormal.wav
329,192,46375,1,0,0:0:0:100:soft-hitnormal.wav
182,192,46525,1,0,0:0:0:100:soft-hitnormal.wav
402,192,46675,1,0,0:0:0:100:soft-hitnormal.wav
256,192,47725,1,0,0:0:0:100:soft-hitnormal.wav
475,192,47875,1,0,0:0:0:100:soft-hitnormal.wav
109,192,48025,1,0,0:0:0:100:soft-hitnormal.wav
329,192,48175,1,0,0:0:0:100:soft-hitnormal.wav
182,192,48325,1,0,0:0:0:100:soft-hitnormal.wav
402,192,48475,1,0,0:0:0:100:soft-hitnormal.wav
256,192,49075,1,0,0:0:0:25:Jump.ogg
36,192,49375,1,0,0:0:0:100:soft-hitnormal.wav
182,192,49525,1,0,0:0:0:100:soft-hitnormal.wav
402,192,49675,1,0,0:0:0:100:soft-hitnormal.wav
36,192,49825,1,0,0:0:0:100:soft-hitnormal.wav
256,192,49975,1,0,0:0:0:100:soft-hitnormal.wav
109,192,50125,1,0,0:0:0:100:soft-hitnormal.wav
329,192,50275,1,0,0:0:0:100:soft-hitnormal.wav
256,192,50725,1,0,0:0:0:25:Jump.ogg
475,192,51025,1,0,0:0:0:25:Gold.ogg
182,192,51325,1,0,0:0:0:100:soft-hitnormal.wav
402,192,51475,1,0,0:0:0:100:soft-hitnormal.wav
36,192,51625,1,0,0:0:0:100:soft-hitnormal.wav
475,192,51625,1,0,0:0:0:25:Gold.ogg
256,192,51775,1,0,0:0:0:100:soft-hitnormal.wav
109,192,51925,1,0,0:0:0:100:soft-hitnormal.wav
475,192,51925,1,0,0:0:0:25:Gold.ogg
329,192,52075,1,0,0:0:0:100:soft-hitnormal.wav
402,192,52450,1,0,0:0:0:25:Fire.ogg
109,192,52525,1,0,0:0:0:100:soft-hitnormal.wav
402,192,52825,1,0,0:0:0:100:soft-hitnormal.wav
329,192,52918,1,0,0:0:0:100:soft-hitnormal.wav
256,192,53031,1,0,0:0:0:100:soft-hitnormal.wav
182,192,53125,1,0,0:0:0:100:soft-hitnormal.wav
475,192,53125,1,0,0:0:0:25:Gold.ogg
329,192,53425,1,0,0:0:0:100:soft-hitnormal.wav
402,192,53575,1,0,0:0:0:25:Fire.ogg
256,192,53725,1,0,0:0:0:100:soft-hitnormal.wav
402,192,53800,1,0,0:0:0:25:Fire.ogg
475,192,53875,1,0,0:0:0:25:Gold.ogg
109,192,54025,1,0,0:0:0:100:soft-hitnormal.wav
402,192,54025,1,0,0:0:0:25:Fire.ogg
475,192,54175,1,0,0:0:0:25:Gold.ogg
36,192,54325,1,0,0:0:0:100:soft-hitnormal.wav
109,192,54625,1,0,0:0:0:100:soft-hitnormal.wav
475,192,54775,1,0,0:0:0:25:Gold.ogg
36,192,54925,1,0,0:0:0:100:soft-hitnormal.wav
256,192,55018,1,0,0:0:0:100:soft-hitnormal.wav
475,192,55075,1,0,0:0:0:25:Gold.ogg
182,192,55131,1,0,0:0:0:100:soft-hitnormal.wav
109,192,55225,1,0,0:0:0:100:soft-hitnormal.wav
402,192,55318,1,0,0:0:0:100:soft-hitnormal.wav
329,192,55431,1,0,0:0:0:100:soft-hitnormal.wav
475,192,55525,1,0,0:0:0:100:soft-hitnormal.wav
329,192,55731,1,0,0:0:0:100:soft-hitnormal.wav
256,192,55918,1,0,0:0:0:100:soft-hitnormal.wav
182,192,56125,1,0,0:0:0:100:soft-hitnormal.wav
109,192,56331,1,0,0:0:0:100:soft-hitnormal.wav
36,192,56518,1,0,0:0:0:100:soft-hitnormal.wav
329,192,56575,1,0,0:0:0:100:soft-hitnormal.wav
402,192,57025,1,0,0:0:0:25:Mushroom.ogg
475,192,58525,1,0,0:0:0:100:soft-hitnormal.wav
475,192,58725,1,0,0:0:0:100:soft-hitnormal.wav
475,192,58925,1,0,0:0:0:100:soft-hitnormal.wav
475,192,59225,1,0,0:0:0:100:soft-hitnormal.wav
475,192,59425,1,0,0:0:0:100:soft-hitnormal.wav
36,192,59525,1,0,0:0:0:25:Gold.ogg
475,192,59725,1,0,0:0:0:100:soft-hitnormal.wav
329,192,59825,1,0,0:0:0:100:soft-hitnormal.wav
475,192,59925,1,0,0:0:0:100:soft-hitnormal.wav
402,192,60125,1,0,0:0:0:100:soft-hitnormal.wav
402,192,60325,1,0,0:0:0:100:soft-hitnormal.wav
402,192,60525,1,0,0:0:0:100:soft-hitnormal.wav
402,192,60825,1,0,0:0:0:100:soft-hitnormal.wav
402,192,61025,1,0,0:0:0:100:soft-hitnormal.wav
36,192,61125,1,0,0:0:0:25:Gold.ogg
402,192,61325,1,0,0:0:0:100:soft-hitnormal.wav
182,192,61425,1,0,0:0:0:100:soft-hitnormal.wav
402,192,61525,1,0,0:0:0:100:soft-hitnormal.wav
475,192,61725,1,0,0:0:0:100:soft-hitnormal.wav
475,192,61925,1,0,0:0:0:100:soft-hitnormal.wav
36,192,62025,1,0,0:0:0:25:Gold.ogg
475,192,62125,1,0,0:0:0:100:soft-hitnormal.wav
36,192,62225,1,0,0:0:0:25:Gold.ogg
475,192,62425,1,0,0:0:0:100:soft-hitnormal.wav
36,192,62525,1,0,0:0:0:25:Gold.ogg
475,192,62625,1,0,0:0:0:100:soft-hitnormal.wav
475,192,62925,1,0,0:0:0:100:soft-hitnormal.wav
329,192,63025,1,0,0:0:0:100:soft-hitnormal.wav
475,192,63125,1,0,0:0:0:100:soft-hitnormal.wav
36,192,63225,1,0,0:0:0:25:Gold.ogg
402,192,63325,1,0,0:0:0:100:soft-hitnormal.wav
36,192,63425,1,0,0:0:0:25:Gold.ogg
402,192,63525,1,0,0:0:0:100:soft-hitnormal.wav
36,192,63625,1,0,0:0:0:25:Gold.ogg
402,192,63725,1,0,0:0:0:100:soft-hitnormal.wav
402,192,64025,1,0,0:0:0:100:soft-hitnormal.wav
402,192,64225,1,0,0:0:0:100:soft-hitnormal.wav
36,192,64425,1,0,0:0:0:25:Gold.ogg
402,192,64525,1,0,0:0:0:100:soft-hitnormal.wav
256,192,64625,1,0,0:0:0:100:soft-hitnormal.wav
402,192,64725,1,0,0:0:0:100:soft-hitnormal.wav
36,192,65125,1,0,0:0:0:25:Entering Tube.ogg
36,192,65387,1,0,0:0:0:25:Entering Tube.ogg
36,192,65662,1,0,0:0:0:25:Entering Tube.ogg
36,192,66525,1,0,0:0:0:100:soft-hitnormal.wav
109,192,66800,1,0,0:0:0:100:soft-hitnormal.wav
182,192,67050,1,0,0:0:0:100:soft-hitnormal.wav
256,192,67316,1,0,0:0:0:100:soft-hitnormal.wav
329,192,67600,1,0,0:0:0:100:soft-hitnormal.wav
402,192,67850,1,0,0:0:0:100:soft-hitnormal.wav
475,192,68116,1,0,0:0:0:100:soft-hitnormal.wav
475,192,68250,1,0,0:0:0:100:soft-hitnormal.wav
475,192,68400,1,0,0:0:0:100:soft-hitnormal.wav
475,192,68650,1,0,0:0:0:100:soft-hitnormal.wav
475,192,68916,1,0,0:0:0:100:soft-hitnormal.wav
36,192,69450,1,0,0:0:0:100:soft-hitnormal.wav
256,192,69716,1,0,0:0:0:100:soft-hitnormal.wav
182,192,70516,1,0,0:0:0:100:soft-hitnormal.wav
256,192,71316,1,0,0:0:0:100:soft-hitnormal.wav
36,192,72250,1,0,0:0:0:100:soft-hitnormal.wav
109,192,72400,1,0,0:0:0:100:soft-hitnormal.wav
182,192,72516,1,0,0:0:0:100:soft-hitnormal.wav
109,192,72650,1,0,0:0:0:100:soft-hitnormal.wav
182,192,72800,1,0,0:0:0:100:soft-hitnormal.wav
256,192,72916,1,0,0:0:0:100:soft-hitnormal.wav
182,192,73716,1,0,0:0:0:100:soft-hitnormal.wav
329,192,74250,1,0,0:0:0:100:soft-hitnormal.wav
256,192,74516,1,0,0:0:0:100:soft-hitnormal.wav
109,192,76000,1,0,0:0:0:100:soft-hitnormal.wav
182,192,76116,1,0,0:0:0:100:soft-hitnormal.wav
109,192,76916,1,0,0:0:0:100:soft-hitnormal.wav
182,192,77716,1,0,0:0:0:100:soft-hitnormal.wav
109,192,78650,1,0,0:0:0:100:soft-hitnormal.wav
36,192,78800,1,0,0:0:0:100:soft-hitnormal.wav
109,192,78916,1,0,0:0:0:100:soft-hitnormal.wav
182,192,79050,1,0,0:0:0:100:soft-hitnormal.wav
109,192,79200,1,0,0:0:0:100:soft-hitnormal.wav
182,192,79316,1,0,0:0:0:100:soft-hitnormal.wav
36,192,80116,1,0,0:0:0:100:soft-hitnormal.wav
329,192,80650,1,0,0:0:0:100:soft-hitnormal.wav
256,192,80916,1,0,0:0:0:100:soft-hitnormal.wav
36,192,82400,1,0,0:0:0:100:soft-hitnormal.wav
402,192,82516,1,0,0:0:0:100:soft-hitnormal.wav
402,192,83316,1,0,0:0:0:100:soft-hitnormal.wav
402,192,84116,1,0,0:0:0:100:soft-hitnormal.wav
402,192,84916,1,0,0:0:0:100:soft-hitnormal.wav
475,192,85200,1,0,0:0:0:100:soft-hitnormal.wav
402,192,85600,1,0,0:0:0:100:soft-hitnormal.wav
182,192,85716,1,0,0:0:0:100:soft-hitnormal.wav
182,192,86516,1,0,0:0:0:100:soft-hitnormal.wav
182,192,87316,1,0,0:0:0:100:soft-hitnormal.wav
109,192,88116,1,0,0:0:0:100:soft-hitnormal.wav
256,192,88400,1,0,0:0:0:100:soft-hitnormal.wav
109,192,88800,1,0,0:0:0:100:soft-hitnormal.wav
182,192,88916,1,0,0:0:0:100:soft-hitnormal.wav
36,192,89716,1,0,0:0:0:100:soft-hitnormal.wav
256,192,90000,1,0,0:0:0:100:soft-hitnormal.wav
475,192,90250,1,0,0:0:0:100:soft-hitnormal.wav
182,192,90516,1,0,0:0:0:100:soft-hitnormal.wav
402,192,90516,1,0,0:0:0:100:soft-hitnormal.wav
182,192,90650,1,0,0:0:0:100:soft-hitnormal.wav
402,192,90650,1,0,0:0:0:100:soft-hitnormal.wav
182,192,90800,1,0,0:0:0:100:soft-hitnormal.wav
402,192,90800,1,0,0:0:0:100:soft-hitnormal.wav
36,192,91200,1,0,0:0:0:100:soft-hitnormal.wav
182,192,91200,1,0,0:0:0:100:soft-hitnormal.wav
109,192,91316,1,0,0:0:0:100:soft-hitnormal.wav
329,192,91316,1,0,0:0:0:100:soft-hitnormal.wav
36,192,92316,1,0,0:0:0:25:Entering Tube.ogg
36,192,92600,1,0,0:0:0:25:Entering Tube.ogg
36,192,92850,1,0,0:0:0:25:Entering Tube.ogg
182,192,93716,1,0,0:0:0:100:soft-hitnormal.wav
256,192,93825,1,0,0:0:0:100:soft-hitnormal.wav
256,192,94025,1,0,0:0:0:100:soft-hitnormal.wav
256,192,94125,1,0,0:0:0:100:soft-hitnormal.wav
329,192,94325,1,0,0:0:0:100:soft-hitnormal.wav
329,192,94425,1,0,0:0:0:100:soft-hitnormal.wav
329,192,94625,1,0,0:0:0:100:soft-hitnormal.wav
329,192,94725,1,0,0:0:0:100:soft-hitnormal.wav
402,192,94925,1,0,0:0:0:100:soft-hitnormal.wav
402,192,95025,1,0,0:0:0:100:soft-hitnormal.wav
402,192,95225,1,0,0:0:0:100:soft-hitnormal.wav
402,192,95325,1,0,0:0:0:100:soft-hitnormal.wav
475,192,95525,1,0,0:0:0:100:soft-hitnormal.wav
475,192,95725,1,0,0:0:0:100:soft-hitnormal.wav
182,192,96725,1,0,0:0:0:100:soft-hitnormal.wav
329,192,97225,1,0,0:0:0:100:soft-hitnormal.wav
475,192,97525,1,0,0:0:0:25:Jump.ogg
182,192,97925,1,0,0:0:0:100:soft-hitnormal.wav
329,192,98425,1,0,0:0:0:100:soft-hitnormal.wav
475,192,98425,1,0,0:0:0:25:Jump.ogg
475,192,98725,1,0,0:0:0:25:Jump.ogg
36,192,99125,1,0,0:0:0:100:soft-hitnormal.wav
182,192,99625,1,0,0:0:0:100:soft-hitnormal.wav
475,192,99825,1,0,0:0:0:25:Jump.ogg
475,192,100125,1,0,0:0:0:25:Jump.ogg
256,192,100225,1,0,0:0:0:100:soft-hitnormal.wav
36,192,100325,1,0,0:0:0:100:soft-hitnormal.wav
475,192,100625,1,0,0:0:0:25:Jump.ogg
109,192,100725,1,0,0:0:0:100:soft-hitnormal.wav
182,192,100825,1,0,0:0:0:100:soft-hitnormal.wav
109,192,101025,1,0,0:0:0:100:soft-hitnormal.wav
109,192,101225,1,0,0:0:0:100:soft-hitnormal.wav
475,192,101725,1,0,0:0:0:100:soft-hitnormal.wav
109,192,101825,1,0,0:0:0:100:soft-hitnormal.wav
402,192,101925,1,0,0:0:0:100:soft-hitnormal.wav
109,192,102025,1,0,0:0:0:100:soft-hitnormal.wav
182,192,102125,1,0,0:0:0:100:soft-hitnormal.wav
109,192,102225,1,0,0:0:0:100:soft-hitnormal.wav
36,192,102325,1,0,0:0:0:100:soft-hitnormal.wav
329,192,102525,1,0,0:0:0:100:soft-hitnormal.wav
256,192,102725,1,0,0:0:0:100:soft-hitnormal.wav
475,192,103025,1,0,0:0:0:100:soft-hitnormal.wav
402,192,103125,1,0,0:0:0:100:soft-hitnormal.wav
329,192,103262,1,0,0:0:0:100:soft-hitnormal.wav
475,192,103325,1,0,0:0:0:100:soft-hitnormal.wav
256,192,103387,1,0,0:0:0:100:soft-hitnormal.wav
182,192,103525,1,0,0:0:0:100:soft-hitnormal.wav
109,192,103662,1,0,0:0:0:100:soft-hitnormal.wav
36,192,103787,1,0,0:0:0:100:soft-hitnormal.wav
36,192,104125,1,0,0:0:0:25:Entering Tube.ogg
36,192,104400,1,0,0:0:0:25:Entering Tube.ogg
36,192,104662,1,0,0:0:0:25:Entering Tube.ogg
329,192,105325,1,0,0:0:0:25:2.ogg
329,192,105425,1,0,0:0:0:25:2.ogg
329,192,105625,1,0,0:0:0:25:2.ogg
182,192,105825,1,0,0:0:0:25:1.ogg
329,192,105950,1,0,0:0:0:25:2.ogg
475,192,106125,1,0,0:0:0:25:4.ogg
36,192,106525,1,0,0:0:0:100:soft-hitnormal.wav
182,192,106925,1,0,0:0:0:25:5.ogg
109,192,107225,1,0,0:0:0:25:6.ogg
36,192,107525,1,0,0:0:0:100:soft-hitnormal.wav
182,192,107825,1,0,0:0:0:100:soft-hitnormal.wav
329,192,108025,1,0,0:0:0:100:soft-hitnormal.wav
256,192,108225,1,0,0:0:0:100:soft-hitnormal.wav
182,192,108325,1,0,0:0:0:100:soft-hitnormal.wav
36,192,108525,1,0,0:0:0:100:soft-hitnormal.wav
182,192,108625,1,0,0:0:0:100:soft-hitnormal.wav
329,192,108725,1,0,0:0:0:100:soft-hitnormal.wav
475,192,108825,1,0,0:0:0:100:soft-hitnormal.wav
256,192,108925,1,0,0:0:0:100:soft-hitnormal.wav
329,192,109025,1,0,0:0:0:100:soft-hitnormal.wav
402,192,109125,1,0,0:0:0:100:soft-hitnormal.wav
256,192,109425,1,0,0:0:0:100:soft-hitnormal.wav
182,192,109625,1,0,0:0:0:100:soft-hitnormal.wav
329,192,109725,1,0,0:0:0:100:soft-hitnormal.wav
109,192,109825,1,0,0:0:0:100:soft-hitnormal.wav
36,0,110125,128,0,111225:0:0:0:100:soft-hitnormal.wav
36,192,111725,1,0,0:0:0:100:soft-hitnormal.wav
109,192,111860,1,0,0:0:0:100:soft-hitnormal.wav
182,192,111980,1,0,0:0:0:100:soft-hitnormal.wav
256,192,112130,1,0,0:0:0:100:soft-hitnormal.wav
329,192,112250,1,0,0:0:0:100:soft-hitnormal.wav
402,192,112400,1,0,0:0:0:100:soft-hitnormal.wav
475,192,112520,1,0,0:0:0:100:soft-hitnormal.wav
256,192,112940,1,0,0:0:0:100:soft-hitnormal.wav
402,192,112940,1,0,0:0:0:100:soft-hitnormal.wav
36,192,113330,1,0,0:0:0:100:soft-hitnormal.wav
109,192,113450,1,0,0:0:0:100:soft-hitnormal.wav
182,192,113600,1,0,0:0:0:100:soft-hitnormal.wav
256,192,113720,1,0,0:0:0:100:soft-hitnormal.wav
329,192,113870,1,0,0:0:0:100:soft-hitnormal.wav
402,192,113990,1,0,0:0:0:100:soft-hitnormal.wav
475,192,114140,1,0,0:0:0:100:soft-hitnormal.wav
256,192,114530,1,0,0:0:0:100:soft-hitnormal.wav
36,192,114920,1,0,0:0:0:100:soft-hitnormal.wav
109,192,115070,1,0,0:0:0:100:soft-hitnormal.wav
182,192,115190,1,0,0:0:0:100:soft-hitnormal.wav
256,192,115340,1,0,0:0:0:100:soft-hitnormal.wav
329,192,115460,1,0,0:0:0:100:soft-hitnormal.wav
402,192,115580,1,0,0:0:0:100:soft-hitnormal.wav
475,192,115730,1,0,0:0:0:100:soft-hitnormal.wav
475,192,116120,1,0,0:0:0:100:soft-hitnormal.wav
475,192,116270,1,0,0:0:0:100:soft-hitnormal.wav
475,192,116390,1,0,0:0:0:100:soft-hitnormal.wav
182,192,116540,1,0,0:0:0:100:soft-hitnormal.wav
256,192,117770,1,0,0:0:0:25:Bom.ogg
256,192,118400,1,0,0:0:0:25:Bom.ogg
256,192,119030,1,0,0:0:0:25:Bom.ogg
256,192,119690,1,0,0:0:0:25:Bom.ogg
256,192,120350,1,0,0:0:0:25:Bom.ogg
256,192,121040,1,0,0:0:0:25:Bom.ogg
256,192,123020,1,0,0:0:0:100:soft-hitnormal.wav
182,192,123183,1,0,0:0:0:100:soft-hitnormal.wav
109,192,123350,1,0,0:0:0:100:soft-hitnormal.wav
182,192,123516,1,0,0:0:0:100:soft-hitnormal.wav
256,192,123683,1,0,0:0:0:100:soft-hitnormal.wav
329,192,123850,1,0,0:0:0:100:soft-hitnormal.wav
256,192,124017,1,0,0:0:0:100:soft-hitnormal.wav
182,192,124183,1,0,0:0:0:100:soft-hitnormal.wav
256,192,124350,1,0,0:0:0:100:soft-hitnormal.wav
182,192,124517,1,0,0:0:0:100:soft-hitnormal.wav
109,192,124684,1,0,0:0:0:100:soft-hitnormal.wav
182,192,124850,1,0,0:0:0:100:soft-hitnormal.wav
256,192,125017,1,0,0:0:0:100:soft-hitnormal.wav
329,192,125184,1,0,0:0:0:100:soft-hitnormal.wav
256,192,125351,1,0,0:0:0:100:soft-hitnormal.wav
182,192,125517,1,0,0:0:0:100:soft-hitnormal.wav
475,192,125601,1,0,0:0:0:100:soft-hitnormal.wav
182,192,125684,1,0,0:0:0:100:soft-hitnormal.wav
109,192,125851,1,0,0:0:0:100:soft-hitnormal.wav
182,192,126017,1,0,0:0:0:100:soft-hitnormal.wav
256,192,126184,1,0,0:0:0:100:soft-hitnormal.wav
182,192,126351,1,0,0:0:0:100:soft-hitnormal.wav
256,192,126518,1,0,0:0:0:100:soft-hitnormal.wav
182,192,126684,1,0,0:0:0:100:soft-hitnormal.wav
109,192,126851,1,0,0:0:0:100:soft-hitnormal.wav
182,192,127018,1,0,0:0:0:100:soft-hitnormal.wav
109,192,127185,1,0,0:0:0:100:soft-hitnormal.wav
182,192,127351,1,0,0:0:0:100:soft-hitnormal.wav
256,192,127497,1,0,0:0:0:100:soft-hitnormal.wav
182,192,127685,1,0,0:0:0:100:soft-hitnormal.wav
256,192,127852,1,0,0:0:0:100:soft-hitnormal.wav
182,192,127998,1,0,0:0:0:100:soft-hitnormal.wav
109,192,128164,1,0,0:0:0:100:soft-hitnormal.wav
475,192,128248,1,0,0:0:0:100:soft-hitnormal.wav
402,192,128352,1,0,0:0:0:100:soft-hitnormal.wav
475,192,128498,1,0,0:0:0:100:soft-hitnormal.wav
402,192,128664,1,0,0:0:0:100:soft-hitnormal.wav
329,192,128831,1,0,0:0:0:100:soft-hitnormal.wav
402,192,128998,1,0,0:0:0:100:soft-hitnormal.wav
329,192,129165,1,0,0:0:0:100:soft-hitnormal.wav
256,192,129331,1,0,0:0:0:100:soft-hitnormal.wav
329,192,129498,1,0,0:0:0:100:soft-hitnormal.wav
402,192,129665,1,0,0:0:0:100:soft-hitnormal.wav
475,192,129832,1,0,0:0:0:100:soft-hitnormal.wav
402,192,129998,1,0,0:0:0:100:soft-hitnormal.wav
329,192,130165,1,0,0:0:0:100:soft-hitnormal.wav
402,192,130332,1,0,0:0:0:100:soft-hitnormal.wav
329,192,130499,1,0,0:0:0:100:soft-hitnormal.wav
475,192,130582,1,0,0:0:0:100:soft-hitnormal.wav
256,192,130665,1,0,0:0:0:100:soft-hitnormal.wav
329,192,130832,1,0,0:0:0:100:soft-hitnormal.wav
256,192,130999,1,0,0:0:0:100:soft-hitnormal.wav
182,192,131166,1,0,0:0:0:100:soft-hitnormal.wav
109,192,131332,1,0,0:0:0:100:soft-hitnormal.wav
182,192,131499,1,0,0:0:0:100:soft-hitnormal.wav
256,192,131666,1,0,0:0:0:100:soft-hitnormal.wav
329,192,131833,1,0,0:0:0:100:soft-hitnormal.wav
256,192,131999,1,0,0:0:0:100:soft-hitnormal.wav
182,192,132166,1,0,0:0:0:100:soft-hitnormal.wav
256,192,132333,1,0,0:0:0:100:soft-hitnormal.wav
182,192,132500,1,0,0:0:0:100:soft-hitnormal.wav
109,192,132666,1,0,0:0:0:100:soft-hitnormal.wav
182,192,132833,1,0,0:0:0:100:soft-hitnormal.wav
256,192,133000,1,0,0:0:0:100:soft-hitnormal.wav
329,192,133166,1,0,0:0:0:100:soft-hitnormal.wav
256,192,133333,1,0,0:0:0:100:soft-hitnormal.wav
182,192,133500,1,0,0:0:0:100:soft-hitnormal.wav
475,192,133583,1,0,0:0:0:100:soft-hitnormal.wav
182,192,133667,1,0,0:0:0:100:soft-hitnormal.wav
109,192,133833,1,0,0:0:0:100:soft-hitnormal.wav
182,192,134000,1,0,0:0:0:100:soft-hitnormal.wav
256,192,134167,1,0,0:0:0:100:soft-hitnormal.wav
182,192,134334,1,0,0:0:0:100:soft-hitnormal.wav
256,192,134500,1,0,0:0:0:100:soft-hitnormal.wav
182,192,134667,1,0,0:0:0:100:soft-hitnormal.wav
109,192,134834,1,0,0:0:0:100:soft-hitnormal.wav
182,192,135001,1,0,0:0:0:100:soft-hitnormal.wav
109,192,135167,1,0,0:0:0:100:soft-hitnormal.wav
182,192,135334,1,0,0:0:0:100:soft-hitnormal.wav
256,192,135501,1,0,0:0:0:100:soft-hitnormal.wav
182,192,135668,1,0,0:0:0:100:soft-hitnormal.wav
256,192,135834,1,0,0:0:0:100:soft-hitnormal.wav
182,192,136001,1,0,0:0:0:100:soft-hitnormal.wav
475,192,136084,1,0,0:0:0:100:soft-hitnormal.wav
109,192,137002,1,0,0:0:0:100:soft-hitnormal.wav
256,192,137002,1,0,0:0:0:100:soft-hitnormal.wav
256,192,137127,1,0,0:0:0:100:soft-hitnormal.wav
402,192,137127,1,0,0:0:0:100:soft-hitnormal.wav
256,192,137418,1,0,0:0:0:100:soft-hitnormal.wav
402,192,137418,1,0,0:0:0:100:soft-hitnormal.wav
256,192,137585,1,0,0:0:0:100:soft-hitnormal.wav
402,192,137585,1,0,0:0:0:100:soft-hitnormal.wav
182,192,137752,1,0,0:0:0:100:soft-hitnormal.wav
402,192,137752,1,0,0:0:0:100:soft-hitnormal.wav
109,192,137981,1,0,0:0:0:100:soft-hitnormal.wav
329,192,138002,1,0,0:0:0:100:soft-hitnormal.wav
256,192,138210,1,0,0:0:0:100:soft-hitnormal.wav
402,192,138210,1,0,0:0:0:100:soft-hitnormal.wav
329,192,138377,1,0,0:0:0:100:soft-hitnormal.wav
182,192,138627,1,0,0:0:0:100:soft-hitnormal.wav
109,192,138773,1,0,0:0:0:100:soft-hitnormal.wav
256,192,139669,1,0,0:0:0:100:soft-hitnormal.wav
402,192,139669,1,0,0:0:0:100:soft-hitnormal.wav
182,192,140170,1,0,0:0:0:100:soft-hitnormal.wav
329,192,140170,1,0,0:0:0:100:soft-hitnormal.wav
109,192,140670,1,0,0:0:0:100:soft-hitnormal.wav
256,192,140670,1,0,0:0:0:100:soft-hitnormal.wav
182,192,140920,1,0,0:0:0:100:soft-hitnormal.wav
329,192,140920,1,0,0:0:0:100:soft-hitnormal.wav
402,192,141170,1,0,0:0:0:100:soft-hitnormal.wav
329,192,141337,1,0,0:0:0:100:soft-hitnormal.wav
256,192,141504,1,0,0:0:0:100:soft-hitnormal.wav
402,192,141504,1,0,0:0:0:100:soft-hitnormal.wav
475,192,141837,1,0,0:0:0:100:soft-hitnormal.wav
402,192,142087,1,0,0:0:0:100:soft-hitnormal.wav
182,192,142421,1,0,0:0:0:100:soft-hitnormal.wav
329,192,142421,1,0,0:0:0:100:soft-hitnormal.wav
109,192,142566,1,0,0:0:0:100:soft-hitnormal.wav
182,192,142712,1,0,0:0:0:100:soft-hitnormal.wav
