osu file format v9

[General]
AudioFilename: 33. Starship Mario 2.mp3
AudioLeadIn: 0
PreviewTime: 16157
Countdown: 0
SampleSet: Soft
StackLeniency: 0.7
Mode: 0
LetterboxInBreaks: 0

[Editor]
DistanceSpacing: 1
BeatDivisor: 4
GridSize: 8

[Metadata]
Title:Starship Mario 2
Artist:Koji Kondo
Creator:MoodyRPG
Version:Hard
Source:Super Mario Galaxy 2
Tags:smg nintendo wii verdisphena

[Difficulty]
HPDrainRate:7
CircleSize:4
OverallDifficulty:7
ApproachRate:7
SliderMultiplier:1.5
SliderTickRate:2

[Events]
//Background and Video events
0,0,"formoody.png"
//Break Periods
//Storyboard Layer 0 (Background)
//Storyboard Layer 1 (Fail)
//Storyboard Layer 2 (Pass)
//Storyboard Layer 3 (Foreground)
//Storyboard Sound Samples
//Background Colour Transformations
3,100,163,162,255

[TimingPoints]
7430,545.454545454546,4,2,0,40,1,0

[Colours]
Combo1 : 128,255,255
Combo2 : 0,128,192
Combo3 : 0,128,64
Combo4 : 128,128,64

[HitObjects]
49,49,7429,1,0
104,99,7702,1,2
134,120,7839,1,2
164,141,7975,1,2
232,51,8248,1,0
232,51,8520,1,0
295,91,8793,1,2
325,112,8929,1,2
355,133,9066,1,2
435,53,9339,1,0
435,53,9611,5,0
434,128,9884,2,0,B|478:128,2,37.5,2|2|2
397,193,10429,1,0
331,230,10702,1,0
257,245,10975,2,0,B|256:292,2,37.5,2|2|2
183,230,11520,1,0
128,178,11793,6,0,B|160:99|257:99,1,150,0|2
315,142,12611,1,0
377,101,12884,2,0,B|422:171|383:247,1,150,0|2
424,307,13702,1,0
350,324,13975,6,0,B|268:324,1,75,0|0
199,323,14520,2,0,B|121:323,1,75,2|0
55,290,15066,2,0,B|30:253|52:209,1,75,0|0
91,157,15611,1,0
47,96,15884,1,2
189,47,16429,5,0
259,73,16702,1,2
292,89,16839,1,2
321,111,16975,1,2
345,139,17111,1,0
359,173,17248,1,2
322,238,17520,1,0
257,276,17793,1,0
193,236,18066,1,2
313,323,18611,6,0,B|383:287,1,75,2|0
382,213,19157,1,2
404,141,19429,2,0,B|323:114|253:137,1,150,2|2
105,302,20793,6,0,B|64:273|64:228,1,75,0|2
66,203,21202,1,2
87,172,21339,1,2
115,147,21475,1,0
147,128,21611,1,2
221,122,21884,2,0,B|257:101|296:122,1,75,0|0
345,67,22429,1,2
486,115,22975,6,0,B|487:162|463:199,1,75,0|2
428,250,23520,1,0
411,323,23793,2,0,B|336:359|259:327,1,150,2|2
107,290,24884,5,0
112,177,25157,1,2
47,138,25429,1,2
66,106,25566,1,2
94,81,25702,1,0
128,66,25839,1,0
163,53,25975,1,2
208,110,26248,1,0
255,167,26520,1,0
305,111,26793,1,2
450,147,27339,5,0
476,217,27611,1,2
449,287,27884,1,0
376,305,28157,2,0,B|307:340|226:320,1,150,0|2
114,103,29520,5,0
188,91,29793,1,2
221,75,29929,1,2
257,65,30066,1,0
291,78,30202,1,0
325,91,30339,1,2
381,139,30611,2,0,B|381:217,1,75,0|0
330,269,31157,1,2
105,273,31702,5,0
254,275,31975,1,2
403,275,32248,1,0
329,121,32520,2,0,B|252:83|177:123,1,150,0|2
258,170,33611,5,0
198,124,33884,1,2
198,124,34020,1,2
198,124,34157,1,2
133,84,34429,1,0
71,127,34702,1,0
84,200,34975,1,2
84,200,35111,1,2
84,200,35248,1,2
144,243,35520,6,0,B|185:307,1,75,0|0
255,331,36066,2,0,B|255:242,1,75,0|2
327,306,36611,2,0,B|369:244,3,75,0|0|0|2
254,170,37975,5,0
314,124,38248,1,2
314,124,38384,1,2
314,124,38520,1,2
379,84,38793,1,0
441,127,39066,1,0
428,200,39339,1,2
428,200,39475,1,2
428,200,39611,1,2
368,243,39884,6,0,B|327:307,1,75,0|0
257,331,40430,2,0,B|256:241,1,75,0|2
184,306,40975,2,0,B|144:243,3,75,0|4|0|2
48,127,42339,6,0,B|114:74|189:131,1,150,0|2
186,203,43157,1,0
186,278,43430,2,0,B|256:336|331:278,1,150,0|2
326,203,44248,1,0
326,128,44520,6,0,B|398:74|464:127,1,150,0|2
465,201,45339,2,0,B|433:285,1,75,0|0
395,332,45884,2,0,B|322:332,2,75,0|2|0
383,257,46702,5,0
341,194,46975,1,0
341,194,47111,1,0
341,194,47248,1,2
299,131,47520,1,0
255,69,47793,1,0
213,131,48066,1,0
213,131,48202,1,0
213,131,48339,1,2
174,195,48611,1,0
134,259,48884,6,0,B|70:309,1,75,0|0
35,241,49430,2,0,B|35:167,1,75,2|0
76,103,49975,1,0
137,60,50248,1,0
209,41,50520,1,2
254,183,51066,5,4
314,227,51339,1,0
314,227,51475,1,2
419,187,51884,1,0
382,121,52157,1,0
134,121,52702,1,2
254,183,53248,5,0
198,227,53520,1,0
198,227,53657,1,2
93,187,54066,1,0
134,121,54339,1,0
382,121,54884,1,2
365,269,55430,6,0,B|257:313|138:269,1,225,4|0
110,258,56384,1,0
81,233,56520,2,0,B|29:172|66:69|179:76,1,225
222,114,57611,5,0
293,135,57884,1,0
295,210,58157,1,2
222,190,58430,1,0
220,265,58702,1,0
292,284,58975,1,0
287,358,59248,2,0,B|214:333,2,75,2|0|4
408,269,60339,5,2
430,197,60611,1,0
398,176,60748,1,0
366,156,60884,1,0
292,141,61157,2,0,B|205:141,1,75,0|2
217,141,61702,1,0
146,156,61975,5,0
82,197,62248,1,0
104,269,62520,1,2
160,318,62793,2,0,B|211:336|222:267,1,75
352,318,63339,2,0,B|301:336|290:267,1,75,0|2
408,269,63884,1,0
394,194,64157,6,0,B|319:140|256:189|256:189|191:141|108:197,2,300,0|2|0
422,124,66611,1,0
369,70,66884,1,2
295,84,67157,1,0
219,84,67430,1,0
146,65,67702,1,0
89,114,67975,1,2
89,114,68111,1,0
89,114,68248,1,0
58,182,68520,5,4
47,258,68793,2,0,B|47:340,1,75,0|2
83,345,69202,1,0
123,347,69339,1,0
160,341,69475,1,0
194,325,69611,1,2
218,253,69884,2,0,B|301:253,2,75,0|2|0
462,126,70975,6,0,B|462:44,1,75,0|2
391,24,71520,1,0
318,59,71793,1,0
294,131,72066,2,0,B|211:131,2,75,0|2|0
347,183,72884,5,0
344,258,73157,2,0,B|367:302,2,37.5,0|0|2
255,277,73702,2,0,B|255:315,2,37.5,0|0|0
166,258,74248,2,0,B|143:302,2,37.5,0|0|2
165,183,74793,1,0
116,41,75339,5,0
256,94,75611,1,2
396,41,75884,1,0
444,97,76157,1,0
462,130,76293,1,0
466,167,76430,1,0
457,203,76566,1,0
441,237,76702,1,2
397,298,76975,1,0
326,323,77248,6,0,B|256:360|182:323,1,150,0|2
146,256,78066,1,0
216,231,78339,2,0,B|254:217|303:235,1,75,0|0
292,155,78884,2,0,B|253:142|207:155,1,75,2|0
326,61,79430,6,0,B|256:24|182:61,1,150,0|2
146,128,80248,1,0
216,153,80520,2,0,B|254:167|303:149,1,75,0|0
292,229,81066,2,0,B|253:242|207:229,1,75,2|0
145,253,81611,5,0
118,322,81884,1,0
192,313,82157,1,2
256,274,82430,1,0
367,253,82702,1,0
394,322,82975,1,0
320,313,83248,1,2
256,274,83520,1,0
293,167,83793,6,0,B|293:92,1,75,0|0
218,92,84339,2,0,B|218:175,1,75,2|0
164,225,84884,1,0
255,290,85157,1,0
351,228,85430,1,2
464,118,85975,6,0,B|507:45,2,75,0|0|2
459,192,86793,1,0
464,266,87066,2,0,B|507:339,2,75,0|0|2
459,192,87884,1,0
393,155,88157,6,0,B|324:109,1,75,0|0
393,229,88702,2,0,B|324:275,1,75,2|0
289,207,89248,1,0
238,151,89520,1,0
188,94,89793,1,2
48,266,90339,6,0,B|5:339,2,75,0|0|2
53,192,91157,1,0
48,118,91429,2,0,B|5:45,2,75,0|0|2
53,192,92248,1,0
119,229,92520,6,0,B|188:275,1,75,0|0
119,155,93066,2,0,B|188:109,1,75,2|0
223,177,93611,1,4
274,233,93884,1,0
324,290,94157,1,2
433,186,94702,5,0
433,110,94975,1,2
404,86,95111,1,2
373,63,95248,1,2
303,36,95520,1,0
253,120,95793,2,0,B|207:120,2,37.5,0|0|0
253,195,96339,1,2
253,270,96611,6,0,B|337:270,2,75,0|0|0
199,322,97429,1,2
142,272,97702,2,0,B|88:247|88:199,1,75,0|0
91,145,98248,2,0,B|49:134|49:84,1,75,0|2
105,40,98793,1,0
176,62,99066,5,0
176,62,99339,1,0
221,121,99611,2,0,B|304:121,1,75,2|0
329,188,100157,1,0
329,188,100429,1,0
295,254,100702,2,0,B|211:254,1,75,2|0
148,277,101248,5,0
87,320,101520,1,0
147,364,101793,1,2
257,343,102066,1,0
364,277,102339,1,0
425,320,102611,1,0
365,364,102884,1,2
257,259,103157,1,0
257,259,103429,6,0,B|234:206|285:206|258:144,2,112.5,4|2|2
208,312,104520,1,0
137,349,104793,1,0
84,295,105066,1,2
69,221,105339,1,0
122,168,105611,6,0,B|95:118|146:118|115:41,2,112.5,0|2|2
186,205,106702,1,0
255,177,106975,1,0
324,204,107248,1,2
390,168,107520,1,0
390,168,107793,6,0,B|418:117|365:117|397:41,2,112.5,4|2|2
443,221,108884,1,0
428,295,109157,1,0
375,349,109429,1,2
304,312,109702,1,0
256,257,109975,6,0,B|197:195,1,75
303,195,110520,2,0,B|248:136,1,75,2|0
305,90,111066,1,0
256,32,111339,1,0
207,88,111611,1,2
207,88,111884,1,0
152,139,112157,5,4
144,213,112429,1,2
130,248,112566,1,2
114,281,112702,1,2
185,302,112975,1,0
185,302,113248,2,0,B|256:344|256:267|343:322,1,150,0|2
360,139,114339,5,0
368,213,114611,1,2
382,248,114748,1,2
398,281,114884,1,2
327,302,115157,1,0
327,302,115429,2,0,B|256:348|256:279|166:320,1,150,0|2
256,192,116520,12,2,118702
