osu file format v9

[General]
AudioFilename: 33. Starship Mario 2.mp3
AudioLeadIn: 0
PreviewTime: 16157
Countdown: 0
SampleSet: Soft
StackLeniency: 0.7
Mode: 0
LetterboxInBreaks: 0

[Editor]
DistanceSpacing: 1
BeatDivisor: 4
GridSize: 8

[Metadata]
Title:Starship Mario 2
Artist:Koji Kondo
Creator:MoodyRPG
Version:Easy
Source:Super Mario Galaxy 2
Tags:smg nintendo wii verdisphena

[Difficulty]
HPDrainRate:2
CircleSize:3
OverallDifficulty:2
ApproachRate:2
SliderMultiplier:0.9
SliderTickRate:2

[Events]
//Background and Video events
0,0,"formoody.png"
//Break Periods
//Storyboard Layer 0 (Background)
//Storyboard Layer 1 (Fail)
//Storyboard Layer 2 (Pass)
//Storyboard Layer 3 (Foreground)
//Storyboard Sound Samples
//Background Colour Transformations
3,100,163,162,255

[TimingPoints]
7430,545.454545454546,4,2,0,40,1,0

[Colours]
Combo1 : 128,255,255
Combo2 : 0,128,192
Combo3 : 0,128,64
Combo4 : 128,128,64

[HitObjects]
90,341,7429,2,0,B|38:320|38:257,1,90,0|2
79,192,8520,2,0,B|175:192,1,90,0|2
256,212,9611,1,0
343,192,10157,2,0,B|433:192,1,90,2|0
473,272,11248,2,0,B|474:320|422:341,1,90,2|0
345,294,12339,6,0,B|256:329|165:294,1,180,2|2
117,221,13975,1,0
169,147,14520,2,0,B|255:113|344:148,1,180,2|2
402,78,16157,5,4
429,163,16702,2,0,B|451:207|429:252,2,90,2|0|2
343,195,18339,1,0
256,218,18884,2,0,B|256:313,2,90,2|0|2
169,192,20520,5,0
83,163,21066,2,0,B|61:207|83:252,2,90,2|0|2
149,95,22702,2,0,B|166:38|257:10|349:37|374:94,1,270,0|2
388,182,24884,6,0,B|414:227|390:270,1,90,0|2
302,285,25975,2,0,B|259:304|212:285,1,90,0|2
120,267,27066,2,0,B|98:227|124:182,1,90,0|2
208,146,28157,2,0,B|194:84|257:70|324:88|307:152,1,180,0|2
331,237,29793,6,0,B|419:237|419:294|503:294,2,180,0|2|0
256,283,32520,1,2
256,193,33066,1,0
179,237,33611,6,0,B|91:237|91:294|7:294,2,180,2|2|0
177,147,36339,2,0,B|111:72,2,90,0|2|0
256,105,37975,5,2
335,147,38520,2,0,B|401:72,2,90,0|2|0
333,237,40157,2,0,B|421:237|421:294|505:294,2,180,0|4|0
255,283,42884,5,2
184,229,43430,2,0,B|140:202|95:231,1,90,0|2
88,137,44520,1,0
169,99,45066,2,0,B|257:134|355:93,1,180,2|2
424,137,46702,5,0
413,227,47248,2,0,B|372:203|326:227,1,90,2|0
241,253,48339,1,2
151,244,48884,2,0,B|85:212|21:245,2,135,0|2|0
139,154,51066,6,0,B|89:104|134:28|223:56,1,180,4|0
256,132,52702,1,2
301,54,53248,2,0,B|382:29|427:105|377:155,1,180
451,206,54884,1,2
377,258,55430,6,0,B|426:307|381:383|300:357,1,180,4|0
258,278,57066,1,2
215,357,57611,2,0,B|136:383|91:307|139:258,1,180
61,206,59248,1,2
49,116,59793,6,0,B|114:69|184:123,1,135,4|0
188,158,60884,2,0,B|252:203|332:152,1,135
322,117,61975,2,0,B|427:117,1,90,0|2
481,173,63066,1,0
399,212,63611,1,2
329,272,64157,6,0,B|397:338,2,90,0|2|0
256,217,65793,1,2
183,272,66339,2,0,B|115:338,2,90,0|2|0
256,217,67975,1,2
180,104,68793,6,0,B|127:104,1,45,0|2
115,210,69611,1,0
179,272,70157,1,2
257,162,70975,6,0,B|310:162,1,45,0|2
385,196,71793,1,0
341,274,72339,1,2
256,242,72884,6,0,B|208:153|287:153|249:56,2,180,0|2|0
183,279,75611,1,0
256,330,76157,1,2
330,279,76702,1,0
389,215,77248,6,0,B|443:124|388:36,2,180,0|2|0
301,238,79975,2,0,B|201:238,1,90,0|2
150,304,81066,1,0
120,218,81611,6,0,B|66:127|121:39,2,180,0|2|0
58,278,84339,2,0,B|90:320|137:336,1,90,0|2
200,279,85430,1,0
254,207,85975,1,2
205,80,86793,6,0,B|161:80,1,45,0|2
103,149,87611,1,0
157,220,88157,2,0,B|180:265|218:299,1,90,0|2
300,293,89248,2,0,B|330:266|353:221,1,90,0|2
412,153,90339,6,0,B|513:131|513:20,2,180,0|2|0
323,169,93066,2,0,B|307:218|252:245,1,90,2|4
176,233,94157,1,2
93,198,94702,6,0,B|66:165|66:104,1,90,0|2
152,89,95793,2,0,B|212:89|212:18,1,90,0|2
301,34,96884,2,0,B|302:89|361:89,1,90,0|2
445,113,97975,2,0,B|446:165|419:198,1,90,0|2
426,282,99066,6,0,B|365:323|311:287|311:287|256:250|204:287|204:287|148:327|83:277,1,360,0|2
117,196,101793,1,0
87,102,102339,1,2
257,43,103429,5,4
429,102,104520,1,2
348,263,105611,2,0,B|348:314|299:333,1,90,0|2
210,331,106702,2,0,B|163:313|163:262,1,90,0|2
121,182,107793,6,0,B|70:130|106:55|184:63,1,180,4|0
256,111,109429,1,2
334,66,109975,2,0,B|409:59|445:134|394:186,1,180
426,264,111611,1,2
379,340,112157,6,0,B|285:340,1,90,0|2
236,266,113248,2,0,B|139:266,1,90,0|2
142,175,114339,2,0,B|183:111|256:97|335:115|376:181,1,270,0|2
256,192,116520,12,0,118702
