osu file format v14

[General]
AudioFilename: SuperMario3DWorld.mp3
AudioLeadIn: 0
PreviewTime: 48341
Countdown: 0
SampleSet: Soft
StackLeniency: 0.7
Mode: 0
LetterboxInBreaks: 1
WidescreenStoryboard: 1

[Editor]
DistanceSpacing: 1
BeatDivisor: 4
GridSize: 4
TimelineZoom: 1

[Metadata]
Title:Riding Plessie
TitleUnicode:Riding Plessie
Artist:Koji Kondo
ArtistUnicode:Koji Kondo
Creator:BlueStarYoshi
Version:Easy
Source:Super Mario 3D World
Tags:Alepat Nintendo
BeatmapID:431854
BeatmapSetID:179646

[Difficulty]
HPDrainRate:3
CircleSize:3
OverallDifficulty:4
ApproachRate:4
SliderMultiplier:1
SliderTickRate:1

[Events]
//Background and Video events
0,0,"plessie___super_mario_3d_world_by_link_leob-d6rtq76.jpg",0,0
//Break Periods
//Storyboard Layer 0 (Background)
//Storyboard Layer 1 (Fail)
//Storyboard Layer 2 (Pass)
//Storyboard Layer 3 (Foreground)
//Storyboard Sound Samples

[TimingPoints]
1753,352.941176470588,4,2,0,100,1,0
4576,-133.333333333333,4,2,0,100,0,0
24341,-100,4,2,0,100,0,0
27164,-133.333333333333,4,2,0,100,0,0
49752,-100,4,2,0,100,0,1
53988,-133.333333333333,4,2,0,100,0,1
59635,-200,4,2,0,100,0,1
61047,-100,4,2,0,100,0,1
77988,-133.333333333333,4,2,0,100,0,0
86282,-133.333333333333,4,2,0,50,0,0

[Colours]
Combo1 : 255,255,0
Combo2 : 255,0,0
Combo3 : 0,0,160
Combo4 : 0,128,0

[HitObjects]
448,256,1753,5,8,0:0:0:0:
248,252,2458,1,8,0:0:0:0:
72,156,3164,2,8,L|72:276,3,100
148,256,4576,5,0,0:0:0:0:
224,256,4929,1,0,0:0:0:0:
300,256,5282,1,0,0:0:0:0:
376,256,5635,1,0,0:0:0:0:
452,256,5988,2,0,B|492:196|492:196|436:148|436:148|436:148|436:148|488:80,1,225.000008583069,2|8,0:0|0:0,0:0:0:0:
408,76,7400,5,0,0:0:0:0:
332,76,7753,1,0,0:0:0:0:
256,76,8105,1,0,0:0:0:0:
180,76,8458,1,0,0:0:0:0:
104,76,8811,2,0,P|104:188|192:252,1,225.000008583069,2|8,0:0|0:0,0:0:0:0:
264,252,10223,6,0,B|320:160|428:352|460:256,1,225.000008583069,2|8,0:0|0:0,0:0:0:0:
448,188,11635,2,0,B|419:275|311:83|255:175,1,225.000008583069,2|8,0:0|0:0,0:0:0:0:
248,96,13047,2,0,B|304:4|412:196|444:100,1,225.000008583069,2|8,0:0|0:0,0:0:0:0:
440,184,14458,2,0,B|387:271|279:79|250:166,1,225.000008583069,2|8,0:0|0:0,0:0:0:0:
176,160,15870,5,0,0:0:0:0:
100,160,16223,1,0,0:0:0:0:
100,236,16576,1,0,0:0:0:0:
176,240,16929,1,0,0:0:0:0:
252,240,17282,2,0,B|252:312|308:360|372:304|372:232,1,225.000008583069,2|8,0:0|0:0,0:0:0:0:
376,156,18694,5,0,0:0:0:0:
376,80,19047,1,0,0:0:0:0:
300,80,19400,1,0,0:0:0:0:
292,156,19752,1,0,0:0:0:0:
216,156,20105,2,0,B|216:84|160:36|96:92|96:164,1,225.000008583069,2|8,0:0|0:0,0:0:0:0:
92,240,21517,2,0,B|152:288|152:288|208:232|208:232|208:232|208:232|260:276,1,225.000008583069,2|8,0:0|0:0,0:0:0:0:
336,284,22929,2,0,L|392:228,1,75.000002861023,2|8,0:0|0:0,0:0:0:0:
392,156,23635,1,0,0:0:0:0:
388,80,23988,1,0,0:0:0:0:
312,144,24341,2,0,B|321:125|281:201|281:201|233:201|233:201|277:229|277:229|249:289|249:289|309:253|309:253|373:289|373:289|349:229|349:229|388:204|388:204|333:201|333:201|313:141,1,600,2|8,0:0|0:0,0:0:0:0:
216,44,27164,5,0,0:0:0:0:
264,104,27517,1,0,0:0:0:0:
216,160,27870,1,0,0:0:0:0:
268,216,28223,1,0,0:0:0:0:
344,216,28576,2,0,B|416:216|472:280|424:336|352:336,1,225.000008583069,2|8,0:0|0:0,0:0:0:0:
276,336,29988,5,0,0:0:0:0:
232,276,30341,1,0,0:0:0:0:
296,236,30694,1,0,0:0:0:0:
248,180,31047,1,0,0:0:0:0:
172,172,31400,2,0,B|100:172|44:108|92:52|164:52,1,225.000008583069,2|8,0:0|0:0,0:0:0:0:
236,32,32811,6,0,B|308:56|328:112|308:168|236:196,1,225.000008583069,2|8,0:0|0:0,0:0:0:0:
236,120,34223,2,0,B|164:144|144:200|164:256|236:284,1,225.000008583069,2|8,0:0|0:0,0:0:0:0:
240,208,35635,2,0,B|312:184|332:128|312:72|240:44,1,225.000008583069,2|8,0:0|0:0,0:0:0:0:
236,120,37047,2,0,B|164:144|144:200|164:256|236:284,1,225.000008583069,2|8,0:0|0:0,0:0:0:0:
304,288,38458,5,0,0:0:0:0:
380,288,38811,1,0,0:0:0:0:
380,212,39164,1,0,0:0:0:0:
384,136,39517,1,0,0:0:0:0:
308,132,39870,2,0,B|308:60|252:12|188:68|188:140,1,225.000008583069,2|8,0:0|0:0,0:0:0:0:
112,140,41282,5,0,0:0:0:0:
112,216,41635,1,0,0:0:0:0:
188,220,41988,1,0,0:0:0:0:
264,220,42341,1,0,0:0:0:0:
340,220,42694,2,0,B|340:292|404:348|460:300|460:228,1,225.000008583069,2|8,0:0|0:0,0:0:0:0:
460,152,44105,6,0,B|384:40|384:220|272:108,1,225.000008583069,2|8,0:0|0:0,0:0:0:0:
196,108,45517,2,0,L|132:172,1,75.000002861023,2|8,0:0|0:0,0:0:0:0:
136,236,46223,1,0,0:0:0:0:
212,236,46576,1,0,0:0:0:0:
284,248,46929,2,0,B|356:180|356:180|276:96|276:96|276:96|276:96|340:36,1,300.000011444092,2|8,0:0|0:0,0:0:0:0:
268,24,48694,5,0,0:0:0:0:
220,80,49047,1,0,0:0:0:0:
276,128,49400,1,0,0:0:0:0:
288,228,49752,2,0,L|176:228,1,100,2|8,0:0|0:0,0:0:0:0:
192,328,50458,2,0,L|296:328,1,100,2|8,0:0|0:0,0:0:0:0:
292,228,51164,2,0,L|188:228,1,100,2|8,0:0|0:0,0:0:0:0:
92,228,51870,5,0,0:0:0:0:
96,128,52223,1,0,0:0:0:0:
196,128,52576,2,0,L|196:16,1,100,2|8,0:0|0:0,0:0:0:0:
296,32,53282,2,0,L|296:152,1,100,2|8,0:0|0:0,0:0:0:0:
292,208,53988,2,0,L|452:208,1,150.000005722046,2|8,0:0|0:0,0:0:0:0:
444,132,55047,5,0,0:0:0:0:
368,132,55400,2,0,L|296:76,1,75.000002861023,2|8,0:0|0:0,0:0:0:0:
160,88,56458,1,0,0:0:0:0:
160,164,56811,2,0,L|232:220,1,75.000002861023,2|8,0:0|0:0,0:0:0:0:
296,212,57517,1,0,0:0:0:0:
372,216,57870,1,0,0:0:0:0:
448,216,58223,6,0,L|512:160,1,75.000002861023,2|8,0:0|0:0,0:0:0:0:
492,92,58929,1,0,0:0:0:0:
416,92,59282,1,0,0:0:0:0:
416,92,59635,2,0,P|344:108|336:180,1,150,2|8,0:0|0:0,0:0:0:0:
256,192,61047,12,8,63517,0:0:0:0:
256,192,63870,12,8,66341,0:0:0:0:
24,176,66694,6,0,L|104:88,1,100,2|8,0:0|0:0,0:0:0:0:
188,132,67400,2,0,L|124:212,1,100,2|8,0:0|0:0,0:0:0:0:
124,312,68105,1,0,0:0:0:0:
224,312,68458,1,0,0:0:0:0:
324,312,68811,1,0,0:0:0:0:
424,312,69164,1,0,0:0:0:0:
428,212,69517,2,0,L|364:108,1,100,2|8,0:0|0:0,0:0:0:0:
276,128,70223,2,0,L|212:216,1,100,2|8,0:0|0:0,0:0:0:0:
116,212,70929,2,0,L|44:132,1,100,2|8,0:0|0:0,0:0:0:0:
56,36,71635,5,0,0:0:0:0:
156,36,71988,1,0,0:0:0:0:
256,32,72341,2,0,L|256:144,1,100,2|8,0:0|0:0,0:0:0:0:
356,140,73047,1,0,0:0:0:0:
456,140,73400,1,0,0:0:0:0:
460,240,73752,1,0,0:0:0:0:
360,236,74105,1,0,0:0:0:0:
260,240,74458,6,0,L|156:240,1,100,10|8,0:0|0:0,0:0:0:0:
156,140,75164,2,0,L|276:140,2,100,10|10|10,0:0|0:0|0:0,0:0:0:0:
164,40,76223,2,0,L|276:40,2,100,10|10|10,0:0|0:0|0:0,0:0:0:0:
164,140,77282,1,8,0:0:0:0:
168,240,77635,1,8,0:0:0:0:
244,240,77988,5,0,0:0:0:0:
320,244,78341,1,0,0:0:0:0:
320,168,78694,1,0,0:0:0:0:
320,92,79047,1,0,0:0:0:0:
396,92,79400,2,0,B|471:91|487:91|487:131|487:187|471:187|399:187,1,225.000008583069,2|8,0:0|0:0,0:0:0:0:
324,192,80811,5,0,0:0:0:0:
248,196,81164,1,0,0:0:0:0:
248,272,81517,1,0,0:0:0:0:
172,272,81870,1,0,0:0:0:0:
168,196,82223,2,0,B|96:196|80:196|80:140|80:100|96:100|176:100,1,225.000008583069,2|8,0:0|0:0,0:0:0:0:
248,104,83635,6,0,B|320:100|356:160|328:244|252:252,1,225.000008583069,2|8,0:0|0:0,0:0:0:0:
268,324,85047,2,0,B|196:328|160:268|188:184|264:176,1,225.000008583069,2|8,0:0|0:0,0:0:0:0:
248,104,86458,2,0,B|320:100|356:160|328:244|252:252,1,225.000008583069,2|8,0:0|0:0,0:0:0:0:
264,324,87870,2,0,B|192:328|156:268|184:184|260:176,1,225.000008583069,2|8,0:0|0:0,0:0:0:0:
