osu file format v9

[General]
AudioFilename: TloZ WW - Phantom Ganon.mp3
AudioLeadIn: 0
PreviewTime: 3998
Countdown: 0
SampleSet: Soft
StackLeniency: 0.7
Mode: 0
LetterboxInBreaks: 1
SkinPreference:TheWindWaker

[Editor]
DistanceSpacing: 1.4
BeatDivisor: 4
GridSize: 8

[Metadata]
Title:Phantom Ganon
Artist:Koji Kondo
Creator:Vortex
Version:Hard
Source:The Legend of Zelda The Wind Waker
Tags:

[Difficulty]
HPDrainRate:5
CircleSize:4
OverallDifficulty:7
ApproachRate:7
SliderMultiplier:2.20000000596046
SliderTickRate:1

[Events]
//Background and Video events
0,0,"Phantom Ganon.jpg"
//Break Periods
2,68425,79335
2,108959,114864
//Storyboard Layer 0 (Background)
//Storyboard Layer 1 (Fail)
//Storyboard Layer 2 (Pass)
//Storyboard Layer 3 (Foreground)
//Storyboard Sound Samples
//Background Colour Transformations
3,100,163,162,255

[TimingPoints]
4172,500.417014178482,4,2,0,70,1,0
135281,-100,4,2,0,70,0,1
141786,-100,4,2,0,70,0,0

[Colours]
Combo1 : 128,128,192
Combo2 : 255,128,128
Combo3 : 0,0,64
Combo4 : 128,0,64

[HitObjects]
256,192,2170,12,4,4171
128,88,4547,5,8
296,88,4922,1,0
296,88,5047,1,0
296,88,5172,2,8,B|464:160,1,165.000000447034,2|2
216,296,5923,1,0
216,296,6048,1,0
216,296,6173,2,0,B|48:224,1,165.000000447034,2|2
152,88,6924,5,0
200,56,7049,1,0
256,64,7174,2,2,B|384:152|152:152|280:248,2,220.000000596046,2|2|6
267,237,8550,5,0
392,224,8925,1,0
360,264,9051,1,0
328,304,9176,2,2,B|272:360|272:360|208:304,1,165.000000447034,2|2
152,152,9926,1,0
184,112,10051,1,0
216,72,10177,2,0,B|272:16|272:16|336:72,1,165.000000447034,10|8
392,224,10927,5,0
392,224,11177,1,2
120,224,11678,1,0
392,224,12178,1,8
256,192,12303,12,0,15181
160,288,15681,6,6,B|192:328|256:360|320:328|352:288,1,220.000000596046,0|0
440,224,16432,1,2
352,160,16682,1,0
440,96,16932,1,2
352,32,17182,1,0
128,32,17683,6,6,B|48:48|0:128|40:216,1,220.000000596046,0|2
152,320,18558,1,0
256,104,18934,1,0
256,104,19184,1,2
360,320,19684,2,0,B|440:320|496:248|480:144,1,220.000000596046,0|4
256,104,20685,6,0,B|256:168,1,55.0000001490115,0|2
128,248,21061,1,0
128,248,21186,1,2
256,336,21436,1,0
256,336,21561,1,2
384,248,21811,2,0,B|456:176|384:96,1,165.000000447034,2|0
80,80,22687,6,2,B|80:136,1,55.0000001490115
80,288,23062,1,0
80,288,23187,1,0
232,288,23438,1,0
232,288,23563,1,0
384,288,23813,2,2,B|328:240|368:152|336:128,1,165.000000447034
256,192,24313,12,0,27191
128,64,27691,5,0
440,64,28192,1,0
384,208,28442,5,2
232,248,28692,1,2
376,304,28942,1,2
224,344,29192,1,2
96,72,29693,6,2,B|48:208|120:328,1,220.000000596046
232,272,30568,1,0
272,120,30944,1,0
272,120,31194,1,2
392,72,31694,2,2,B|408:32|472:16|472:112|456:136,2,110.000000298023
344,216,32445,5,0
208,280,32695,2,2,B|208:224,1,55.0000001490115
80,136,33071,1,0
80,136,33196,1,2
216,64,33446,1,0
216,64,33571,1,2
368,64,33821,2,6,B|464:200,1,165.000000447034
160,136,34697,6,2,B|160:192,1,55.0000001490115
272,272,35072,1,0
272,272,35197,1,2
400,184,35448,1,0
400,184,35573,1,2
344,40,35823,2,2,B|272:32|240:176,1,165.000000447034
152,280,36448,5,0
48,280,36699,1,0
48,280,36824,1,0
144,88,37199,1,0
144,88,37449,1,0
264,184,37699,1,0
264,184,37825,1,0
456,320,38200,1,0
456,320,38450,1,0
456,168,38700,1,0
456,168,38825,1,0
392,96,39201,6,2,B|296:32|176:88,2,220.000000596046
336,240,40452,5,0
184,240,40702,1,0
184,240,40827,1,0
56,48,41202,1,0
56,48,41453,1,0
56,200,41703,1,0
56,200,41828,1,0
264,104,42203,1,0
264,104,42453,1,0
264,256,42704,2,0,B|264:312,1,55.0000001490115
448,120,43204,6,8,B|448:232,1,110.000000298023
296,232,43704,2,8,B|416:232,1,110.000000298023
312,112,44205,5,0
312,112,44455,1,0
160,104,44705,1,0
160,104,44830,1,0
160,336,45206,1,0
160,336,45456,1,0
160,184,45706,1,0
160,184,45831,1,0
256,192,46081,12,4,47708
264,136,48208,5,0
416,136,48458,1,0
336,264,48709,1,0
88,88,49209,1,0
88,240,49459,1,0
224,160,49709,1,0
472,344,50210,1,0
376,224,50460,1,0
280,344,50710,1,0
280,264,50835,1,0
256,96,51461,5,0
272,96,51586,1,0
288,96,51711,1,0
304,96,51836,1,0
320,96,51961,1,0
336,96,52086,1,0
352,96,52212,1,0
368,248,52462,5,0
216,272,52712,1,0
216,272,52837,1,0
216,272,52962,1,0
64,248,53212,1,0
176,144,53463,1,0
296,96,53713,1,0
296,96,53838,1,0
448,96,54213,5,0
296,96,54463,1,0
296,96,54589,1,0
296,96,54714,1,0
296,176,54964,1,0
144,176,55214,1,0
296,176,55464,2,2,B|416:176,1,110.000000298023
406,176,55840,1,0
408,288,56215,5,0
256,280,56465,2,2,B|144:280,1,110.000000298023
146,280,56840,1,0
64,64,57216,1,0
64,64,57466,1,0
216,64,57716,1,0
216,64,57841,1,0
448,72,58217,1,0
448,72,58467,1,0
296,64,58717,1,0
296,64,58842,1,0
88,192,59217,6,2,B|200:192,1,110.000000298023
424,192,59718,2,2,B|304:192,1,110.000000298023
256,192,60218,5,0
256,96,60468,1,0
256,96,60594,1,0
104,96,60844,1,0
256,96,61219,1,0
400,96,61469,1,0
400,96,61594,1,0
376,248,61845,1,0
152,312,62220,5,0
152,160,62470,2,2,B|216:160|224:88,1,110.000000298023
224,93,62845,1,0
256,192,63221,12,4,64222
256,192,64472,5,0
408,192,64722,1,0
408,192,64847,1,0
200,288,65222,1,0
200,288,65473,2,2,B|240:248|304:288,1,110.000000298023
300,286,65848,1,0
88,192,66223,5,0
240,192,66473,1,0
240,192,66599,1,0
240,192,66724,2,0,B|296:192,1,55.0000001490115
256,192,67224,12,4,68225
256,192,80235,12,4,83738
192,192,84238,6,2,B|304:192,1,110.000000298023
312,344,84739,2,2,B|312:216,1,110.000000298023
184,320,85239,2,2,B|184:200,1,110.000000298023
256,192,85739,12,4,87741
168,192,88242,5,0
264,72,88492,1,0
344,200,88742,1,0
344,200,88867,1,0
256,328,89117,1,0
256,328,89242,1,0
408,328,89493,1,0
408,328,89618,1,0
464,184,89868,1,0
232,192,90243,5,0
80,192,90493,1,0
88,40,90744,2,2,B|144:40,1,55.0000001490115
296,40,91119,2,2,B|240:40,1,55.0000001490115
144,336,91744,5,2
256,192,91870,12,4,93246
264,192,93746,5,0
264,192,93871,1,0
416,192,94121,1,0
416,192,94247,1,0
424,40,94497,1,0
424,40,94622,1,0
272,40,94872,2,0,B|216:40,1,55.0000001490115
64,40,95247,1,0
64,40,95373,1,0
64,192,95623,5,0
64,192,95748,1,0
256,192,95873,12,0,97249
256,328,97749,5,0
256,328,97875,1,0
256,168,98125,2,0,B|256:104,1,55.0000001490115
408,112,98500,1,0
408,112,98625,1,0
320,240,98875,1,0
320,240,99001,1,0
472,200,99251,5,0
296,48,99501,6,0,B|240:16|176:144,1,165.000000447034
112,240,100001,1,0
176,280,100126,1,0
240,320,100252,1,0
328,336,100377,2,0,B|384:376|480:232,1,165.000000447034
368,48,101252,6,0,B|368:112,1,55.0000001490115
216,104,101628,2,0,B|216:40,1,55.0000001490115
216,200,102003,1,0
216,200,102128,1,0
296,200,102253,6,0,B|344:160|464:200,1,165.000000447034
454,196,102754,2,0,B|416:296|272:280,1,165.000000447034
324,281,103254,2,0,B|216:272|152:336,1,165.000000447034
168,321,103754,5,0
168,168,104005,1,0
320,168,104255,1,0
320,168,104380,1,0
88,168,104755,1,0
184,48,105006,1,0
336,48,105256,1,0
336,48,105381,1,0
336,48,105506,1,0
416,48,105756,1,0
416,200,106006,1,0
264,192,106257,1,0
264,192,106382,1,0
32,192,106757,6,0,B|248:112,2,220.000000596046
32,192,108008,1,0
168,272,108258,1,0
320,280,108508,1,0
448,192,108759,1,0
256,192,115764,12,0,118767
40,192,119017,5,0
56,192,119142,1,0
72,192,119267,1,0
88,192,119393,1,0
104,192,119518,1,0
120,192,119643,1,0
136,192,119768,1,0
152,192,119893,1,0
168,192,120018,1,0
184,192,120143,1,0
200,192,120268,1,0
480,328,120769,6,0,B|480:272,1,55.0000001490115
480,120,121144,2,0,B|480:200,1,55.0000001490115
336,240,121519,2,0,B|392:240,1,55.0000001490115
336,96,121895,2,0,B|400:152,1,55.0000001490115
248,216,122270,2,0,B|288:160,1,55.0000001490115
152,80,122645,1,0
152,80,122770,1,0
256,192,122770,12,0,124772
408,192,125147,1,0
408,192,125272,1,0
328,56,125523,1,0
328,56,125648,1,0
176,64,125898,1,0
176,64,126023,1,0
256,192,126273,1,0
256,192,126523,12,0,128275
408,192,128650,2,0,B|352:192,1,55.0000001490115
200,192,129026,2,0,B|264:192,1,55.0000001490115
256,192,129276,1,0
256,192,129401,12,0,131277
408,200,131653,1,0
408,200,131778,6,0,B|408:120|384:16|120:-32|88:168|96:312|224:344|352:352|384:264,1,660.000001788138
104,120,133780,5,0
184,248,134030,1,0
192,96,134280,1,0
272,232,134530,1,0
280,80,134780,1,0
256,192,135281,12,0,136782
136,72,137032,5,0
288,72,137282,1,0
288,72,137408,1,0
296,304,137783,1,0
144,304,138033,1,0
136,152,138283,2,0,B|192:152,1,55.0000001490115
416,192,138784,6,0,B|416:80|416:80|80:80|80:80|80:296,1,660.000001788138
80,292,140535,1,0
256,88,140785,5,0
256,240,141036,1,0
256,88,141286,1,0
256,240,141536,1,0
256,88,141786,1,0
