osu file format v9

[General]
AudioFilename: TloZ WW - Phantom Ganon.mp3
AudioLeadIn: 0
PreviewTime: 3998
Countdown: 1
SampleSet: Normal
StackLeniency: 0.7
Mode: 0
LetterboxInBreaks: 1
SkinPreference:TheWindWaker

[Editor]
DistanceSpacing: 0.8
BeatDivisor: 4
GridSize: 8

[Metadata]
Title:Phantom Ganon
Artist:Koji Kondo
Creator:Vortex
Version:Easy
Source:The Legend of Zelda The Wind Waker
Tags:

[Difficulty]
HPDrainRate:2
CircleSize:3
OverallDifficulty:3
ApproachRate:2
SliderMultiplier:1.20000000596046
SliderTickRate:1

[Events]
//Background and Video events
0,0,"Phantom Ganon.jpg"
//Break Periods
2,68426,78677
//Storyboard Layer 0 (Background)
//Storyboard Layer 1 (Fail)
//Storyboard Layer 2 (Pass)
//Storyboard Layer 3 (Foreground)
//Storyboard Sound Samples
//Background Colour Transformations
3,100,163,162,255

[TimingPoints]
2172,500.417014178482,4,1,0,36,1,0
135282,-100,4,1,0,36,0,1
142789,-100,4,1,0,36,0,0

[Colours]
Combo1 : 128,128,192
Combo2 : 255,128,128
Combo3 : 0,0,64
Combo4 : 128,0,64

[HitObjects]
256,192,4173,1,0
448,192,5174,1,0
280,272,6175,1,0
88,272,7176,2,8,B|88:176|128:112|232:96,1,240.000001192092
408,104,9177,5,0
240,200,10178,1,0
48,200,11179,2,2,B|48:80|48:80|168:80|168:80,1,240.000001192092
352,40,13181,5,0
304,224,14182,1,0
112,224,15182,2,2,B|112:88,1,120.000000596046
192,160,16183,2,8,B|192:40|192:40,2,120.000000596046
96,296,18185,1,0
96,104,19186,2,10,B|176:104|224:136|240:192|240:272,1,240.000001192092
256,64,21187,5,0
256,160,21688,1,0
256,256,22188,1,2
424,160,23189,1,0
424,256,23689,1,0
328,256,24190,6,0,B|232:176,2,120.000000596046,2|0|2
320,64,26192,1,0
128,64,27192,1,0
280,176,28193,2,10,B|464:336,1,240.000001192092
408,152,30195,1,0
216,152,31196,2,8,B|88:152,2,120.000000596046,10|8|10
256,192,32697,12,0,34198
256,192,35199,5,0
256,96,35699,1,0
352,96,36200,6,10,B|432:208,2,120.000000596046
168,48,38202,1,0
256,216,39202,1,0
88,312,40203,5,0
88,216,40704,1,0
88,120,41204,2,10,B|88:56|88:56|392:56|392:56|392:288|392:288|264:288|264:288,1,720.000003576276
120,168,45207,5,0
264,40,46208,1,0
392,184,47209,1,0
296,184,47709,1,0
200,184,48210,5,2
328,40,49211,1,0
328,232,50212,1,0
144,288,51212,5,0
144,240,51463,2,8,B|144:152|256:96|256:96,1,180.000000894069
256,200,52714,1,2
352,224,53214,1,0
432,48,54215,1,0
240,48,55216,1,0
104,184,56217,6,2,B|192:272,1,120.000000596046
256,200,57217,1,0
384,64,58218,1,0
256,208,59219,2,10,B|224:208|200:184|184:160|184:112|200:88|200:48|232:40|272:40,1,240.000001192092,10|10
376,192,61221,5,8
224,312,62222,1,0
320,144,63222,2,8,B|200:144,2,120.000000596046
128,144,65224,1,0
240,296,66225,1,0
208,104,67226,2,10,B|328:104|328:104|208:168|208:168,1,240.000001192092,2|2
64,312,80237,6,10,B|64:72|64:72|320:72|320:72,2,480.000002384184
152,272,84740,1,0
232,328,85241,1,8
256,160,86242,1,2
96,272,87242,2,8,B|336:272|344:272,1,240.000001192092
256,96,89244,5,0
352,96,89744,1,0
352,192,90245,1,0
160,184,91246,1,8
160,280,91746,1,2
248,168,92747,1,0
328,120,93247,1,0
392,192,93748,6,10,B|328:240,8,60.000000298023,10|10|10|10|10|10|10|10|10
272,56,96750,1,0
208,128,97251,1,0
112,136,97751,6,10,B|56:184,6,60.000000298023
296,176,100253,1,0
472,96,101254,2,2,B|472:144|440:144,3,60.000000298023
432,72,102255,5,0
336,72,102755,1,0
304,160,103256,1,0
232,96,103756,1,2
112,248,104757,5,0
56,64,105758,1,0
224,152,106759,2,8,B|344:152,2,120.000000596046
256,344,108760,5,0
256,152,109761,1,0
80,232,110762,2,2,B|200:304|312:224,1,240.000001192092
160,128,112764,5,0
336,56,113764,1,0
448,216,114765,1,0
456,312,115266,1,0
360,288,115766,6,10,B|240:288|240:288|160:192|160:192|240:96|240:96|368:96|360:96,1,480.000002384184
176,56,118769,5,0
176,104,119019,2,0,B|216:152|176:224,1,120.000000596046
264,104,119769,2,0,B|304:152|264:224,1,120.000000596046
360,104,120520,2,0,B|360:176|360:176,1,60.000000298023
256,192,121021,12,0,122772
88,288,123773,5,0
96,96,124774,2,0,B|216:96,2,120.000000596046
96,192,126275,1,0
248,72,127276,6,10,B|248:192|248:192|120:192,1,240.000001192092
128,288,128777,2,0,B|208:288,2,60.000000298023,0|0|2
96,96,130278,1,0
288,96,131279,5,0
384,96,131780,1,2
384,288,132780,5,0
192,296,133781,1,2
400,96,135282,2,2,B|256:96,2,120.000000596046
360,184,136784,5,0
168,184,137785,1,0
360,184,138785,1,0
184,104,139786,6,10,B|296:152,1,120.000000596046
256,240,140787,1,0
160,240,141287,2,4,B|80:240,2,60.000000298023
304,112,142789,1,4
