osu file format v12

[General]
AudioFilename: 04.-overworld.mp3
AudioLeadIn: 0
PreviewTime: 6144
Countdown: 1
SampleSet: Soft
StackLeniency: 0.7
Mode: 0
LetterboxInBreaks: 1
WidescreenStoryboard: 1

[Editor]
DistanceSpacing: 1
BeatDivisor: 4
GridSize: 4

[Metadata]
Title:Overworld
TitleUnicode:Overworld
Artist:Koji Kondo
ArtistUnicode:Koji Kondo
Creator:MoodyRPG
Version:Normal
Source:The Legend of Zelda: A Link to the Past
Tags:alttp super nintendo snes world map theme
BeatmapID:301033
BeatmapSetID:97252

[Difficulty]
HPDrainRate:4
CircleSize:4
OverallDifficulty:4
ApproachRate:4
SliderMultiplier:1.1
SliderTickRate:2

[Events]
//Background and Video events
0,0,"castle.jpg",0,0
//Break Periods
//Storyboard Layer 0 (Background)
//Storyboard Layer 1 (Fail)
//Storyboard Layer 2 (Pass)
//Storyboard Layer 3 (Foreground)
//Storyboard Sound Samples
//Background Colour Transformations
3,100,163,162,255

[TimingPoints]
0,438.961194029849,4,2,0,60,1,0
80768,-100,4,2,0,10,0,0

[Colours]
Combo1 : 0,128,0
Combo2 : 0,202,0
Combo3 : 18,124,255
Combo4 : 242,24,57

[HitObjects]
154,283,7023,2,0,P|93:335|12:318,2,165,4|2|0,0:0|0:0|0:0,0:0:0:0:
260,312,8779,2,0,L|379:322,2,110,4|2|0,0:0|0:0|0:0,0:0:0:0:
225,207,10096,1,2,0:0:0:0:
194,101,10535,6,0,P|256:60|327:103,1,165,4|2,0:0|0:0,0:0:0:0:
412,169,11632,2,0,L|402:235,1,55,0|2,0:0|0:0,0:0:0:0:
296,245,12290,2,0,P|250:285|188:280,1,110,4|0,0:0|0:0,0:0:0:0:
160,321,12949,1,2,0:0:0:0:
80,245,13388,2,0,L|86:182,1,55,0|2,0:0|0:0,0:0:0:0:
163,112,14046,6,0,P|117:64|34:95,2,165,4|2|2,0:0|0:0|0:0,0:0:0:0:
212,210,15802,1,4,0:0:0:0:
255,311,16241,2,0,P|297:282|359:291,1,110,0|2,0:0|0:0,0:0:0:0:
443,224,17119,1,2,0:0:0:0:
392,136,17558,6,0,P|472:120|532:177,2,165,4|2|2,0:0|0:0|0:0,0:0:0:0:
302,72,19314,1,4,0:0:0:0:
302,72,19533,2,0,L|239:80,1,55,0|2,0:0|0:0,0:0:0:0:
199,178,20192,1,0,0:0:0:0:
199,178,20411,2,0,L|268:170,1,55,0|2,0:0|0:0,0:0:0:0:
188,260,21070,6,0,P|256:299|325:260,2,165,4|2|0,0:0|0:0|0:0,0:0:0:0:
256,169,22825,2,0,L|256:48,2,110,4|2|0,0:0|0:0|0:0,0:0:0:0:
364,151,24142,2,0,L|425:135,1,55,2|0,0:0|0:0,0:0:0:0:
446,90,24581,6,0,P|515:136|505:210,1,165,4|2,0:0|0:0,0:0:0:0:
422,281,25679,1,0,0:0:0:0:
422,281,25898,1,2,0:0:0:0:
334,214,26337,2,0,P|278:227|237:272,1,110,4|2,0:0|0:0,0:0:0:0:
138,300,27215,2,0,L|126:238,2,55,0|0|2,0:0|0:0|0:0,0:0:0:0:
47,362,28093,6,0,P|-20:281|3:166,1,220,4|4,0:0|0:0,0:0:0:0:
41,73,29410,1,2,0:0:0:0:
140,25,29849,2,0,P|182:55|243:56,1,110,0|2,0:0|0:0,0:0:0:0:
346,33,30727,2,0,L|419:37,2,55,0|0|2,0:0|0:0|0:0,0:0:0:0:
407,124,31605,6,0,P|482:197|457:299,1,220,4|4,0:0|0:0,0:0:0:0:
357,348,32922,1,2,0:0:0:0:
286,263,33361,2,0,P|243:230|179:246,1,110,0|2,0:0|0:0,0:0:0:0:
111,314,34238,2,0,L|42:318,2,55,0|0|2,0:0|0:0|0:0,0:0:0:0:
62,214,35116,6,0,P|73:134|154:106,1,165,4|2,0:0|0:0,0:0:0:0:
238,46,36214,2,0,P|248:73|250:107,1,55,0|2,0:0|0:0,0:0:0:0:
339,163,36872,2,0,P|386:141|449:153,2,110,4|0|2,0:0|0:0|0:0,0:0:0:0:
390,260,38189,1,2,0:0:0:0:
285,295,38628,6,0,P|174:308|156:221,1,220,4|2,0:0|0:0,0:0:0:0:
72,149,39945,1,2,0:0:0:0:
256,192,40384,12,4,42140,0:0:0:0:
256,224,42579,6,0,L|256:107,2,110,2|0|2,0:0|0:0|0:0,0:0:0:0:
324,310,43896,2,0,P|393:335|463:275,1,165,4|2,0:0|0:0,0:0:0:0:
429,177,44993,2,0,L|416:119,1,55,0|2,0:0|0:0,0:0:0:0:
387,17,45651,6,0,P|332:69|238:71,1,165,4|2,0:0|0:0,0:0:0:0:
201,175,46749,1,0,0:0:0:0:
201,175,46968,1,2,0:0:0:0:
97,137,47407,2,0,P|76:242|163:325,1,220,4|2,0:0|0:0,0:0:0:0:
246,272,48724,1,2,0:0:0:0:
353,293,49163,6,0,P|401:276|472:290,2,110,4|0|2,0:0|0:0|0:0,0:0:0:0:
322,185,50480,2,0,L|257:189,1,55,2|0,0:0|0:0,0:0:0:0:
216,209,50919,2,0,P|168:244|55:229,2,165,4|2|2,0:0|0:0|0:0,0:0:0:0:
125,146,52675,5,4,0:0:0:0:
46,68,53114,2,0,P|96:40|161:42,1,110,0|2,0:0|0:0,0:0:0:0:
254,64,53992,2,0,L|261:125,1,55,2|0,0:0|0:0,0:0:0:0:
303,152,54431,2,0,P|368:174|461:139,2,165,4|2|2,0:0|0:0|0:0,0:0:0:0:
261,254,56187,6,0,P|222:287|162:269,1,110,4|0,0:0|0:0,0:0:0:0:
128,237,56845,1,2,0:0:0:0:
86,135,57284,2,0,L|26:147,2,55,0|2|0,0:0|0:0|0:0,0:0:0:0:
118,90,57942,6,0,P|163:64|231:74,1,110,4|0,0:0|0:0,0:0:0:0:
324,100,58820,1,2,0:0:0:0:
428,64,59259,1,2,0:0:0:0:
407,172,59698,2,0,P|406:250|472:302,2,165,4|2|2,0:0|0:0|0:0,0:0:0:0:
304,211,61454,2,0,P|257:234|208:207,1,110,4|0,0:0|0:0,0:0:0:0:
167,107,62332,2,0,P|74:66|26:166,1,220,2|4,0:0|0:0,0:0:0:0:
65,252,63649,5,0,0:0:0:0:
128,342,64088,2,0,P|211:298|342:319,1,220,4|2,0:0|0:0,0:0:0:0:
438,342,65405,1,0,0:0:0:0:
418,233,65844,2,0,L|483:229,2,55,2|0|2,0:0|0:0|0:0,0:0:0:0:
411,122,66722,6,0,P|391:37|285:74,1,220,4|4,0:0|0:0,0:0:0:0:
200,134,68038,1,0,0:0:0:0:
106,76,68477,2,0,P|45:127|53:214,1,165,2|2,0:0|0:0,0:0:0:0:
124,287,69575,1,0,0:0:0:0:
124,287,69794,1,2,0:0:0:0:
222,336,70233,6,0,L|342:329,1,110,4|2,0:0|0:0,0:0:0:0:
412,254,71111,2,0,P|433:281|437:303,2,55,0|0|2,0:0|0:0|0:0,0:0:0:0:
334,175,71989,2,0,P|401:130|496:147,2,165,4|2|2,0:0|0:0|0:0,0:0:0:0:
254,98,73745,2,0,P|214:135|155:133,1,110,4|2,0:0|0:0,0:0:0:0:
87,217,74623,2,0,L|23:224,2,55,0|0|2,0:0|0:0|0:0,0:0:0:0:
116,323,75501,6,0,P|165:300|237:309,1,110,4|2,0:0|0:0,0:0:0:0:
248,196,76379,2,0,L|316:208,1,55
356,214,76818,1,2,0:0:0:0:
351,303,77257,5,4,0:0:0:0:
351,303,77696,2,0,P|406:301|449:262,1,110,2|0,0:0|0:0,0:0:0:0:
505,174,78574,1,2,0:0:0:0:
416,108,79013,2,0,P|345:126|293:58,1,165,4|2,0:0|0:0,0:0:0:0:
184,45,80110,2,0,L|120:52,1,55,0|2,0:0|0:0,0:0:0:0:
256,192,80768,12,4,84280,0:0:0:0:
