osu file format v12

[General]
AudioFilename: 04.-overworld.mp3
AudioLeadIn: 0
PreviewTime: 6144
Countdown: 1
SampleSet: Soft
StackLeniency: 0.7
Mode: 0
LetterboxInBreaks: 1
WidescreenStoryboard: 0

[Editor]
DistanceSpacing: 1
BeatDivisor: 4
GridSize: 4

[Metadata]
Title:Overworld
TitleUnicode:Overworld
Artist:Koji Kondo
ArtistUnicode:Koji Kondo
Creator:MoodyRPG
Version:Hard
Source:The Legend of Zelda: A Link to the Past
Tags:alttp super nintendo snes world map theme
BeatmapID:260128
BeatmapSetID:97252

[Difficulty]
HPDrainRate:6
CircleSize:4
OverallDifficulty:6
ApproachRate:7
SliderMultiplier:1.6
SliderTickRate:2

[Events]
//Background and Video events
0,0,"castle.jpg",0,0
//Break Periods
//Storyboard Layer 0 (Background)
//Storyboard Layer 1 (Fail)
//Storyboard Layer 2 (Pass)
//Storyboard Layer 3 (Foreground)
//Storyboard Sound Samples
//Background Colour Transformations
3,100,163,162,255

[TimingPoints]
0,438.961194029849,4,2,0,60,1,0
80768,-100,4,2,0,10,0,0

[Colours]
Combo1 : 0,128,0
Combo2 : 0,202,0
Combo3 : 18,124,255
Combo4 : 242,24,57

[HitObjects]
193,76,7023,2,0,P|255:32|319:86,2,160,4|2|0,0:0|0:0|0:0,0:0:0:0:
48,144,8340,1,2,0:0:0:0:
64,222,8559,1,0,0:0:0:0:
123,168,8779,2,0,P|200:208|206:281,1,160,4|2,0:0|0:0,0:0:0:0:
271,323,9437,1,0,0:0:0:0:
319,258,9657,2,0,P|344:292|347:329,2,80,0|0|2,0:0|0:0|0:0,0:0:0:0:
509,287,10535,6,0,P|461:261|428:151,1,160,4|0,0:0|0:0,0:0:0:0:
485,119,11193,2,0,P|416:167|337:154,1,160,2|0,0:0|0:0,0:0:0:0:
296,93,11851,2,0,L|215:93,1,80,2|0,0:0|0:0,0:0:0:0:
179,164,12290,2,0,P|107:154|38:202,2,160,4|0|2,0:0|0:0|0:0,0:0:0:0:
338,179,13607,2,0,P|367:202|425:197,1,80,2|0,0:0|0:0,0:0:0:0:
426,125,14046,6,0,L|397:295,1,160,4|0,0:0|0:0,0:0:0:0:
333,329,14705,1,0,0:0:0:0:
272,276,14924,2,0,P|233:268|210:234,1,80,2|0,0:0|0:0,0:0:0:0:
151,183,15363,2,0,L|158:94,1,80,2|0,0:0|0:0,0:0:0:0:
191,30,15802,6,0,P|257:71|320:33,3,160,4|0|2|2,0:0|0:0|0:0|0:0,0:0:0:0:
392,67,17338,1,0,0:0:0:0:
419,141,17558,2,0,P|430:221|395:299,1,160,4|0,0:0|0:0,0:0:0:0:
468,335,18216,2,0,P|395:288|317:288,1,160,2|0,0:0|0:0,0:0:0:0:
268,228,18875,2,0,P|243:261|239:302,1,80,2|0,0:0|0:0,0:0:0:0:
162,323,19314,5,4,0:0:0:0:
99,273,19533,2,0,L|45:266,2,40,0|0|2,0:0|0:0|0:0,0:0:0:0:
110,193,19972,2,0,L|71:157,2,40,0|0|2,0:0|0:0|0:0,0:0:0:0:
175,146,20411,1,0,0:0:0:0:
190,141,20521,1,0,0:0:0:0:
209,136,20631,1,2,0:0:0:0:
273,177,20850,1,2,0:0:0:0:
322,115,21070,6,0,P|390:102|435:176,2,160,4|2|0,0:0|0:0|0:0,0:0:0:0:
267,56,22167,1,0,0:0:0:0:
196,93,22387,2,0,L|116:89,1,80,2|0,0:0|0:0,0:0:0:0:
51,42,22825,2,0,P|120:97|114:162,1,160,4|0,0:0|0:0,0:0:0:0:
52,212,23484,1,0,0:0:0:0:
104,272,23703,2,0,L|191:260,1,80,2|0,0:0|0:0,0:0:0:0:
174,340,24142,2,0,L|261:328,1,80,2|0,0:0|0:0,0:0:0:0:
333,322,24581,6,0,P|395:313|411:221,1,160,4|0,0:0|0:0,0:0:0:0:
362,167,25240,2,0,P|358:121|362:83,2,80,0|2|0,0:0|0:0|0:0,0:0:0:0:
287,195,25898,1,2,0:0:0:0:
190,67,26337,2,0,B|154:100|154:100|96:66|39:99,1,160,4|0,0:0|0:0,0:0:0:0:
321,66,27215,2,0,B|357:99|357:99|415:65|472:98,1,160,2|2,0:0|0:0,0:0:0:0:
428,249,28093,6,0,L|493:281,2,53.3333333333333,4|0|0,0:0|0:0|0:0,0:0:0:0:
378,269,28532,2,0,L|401:342,2,53.3333333333333
345,227,28971,2,0,P|262:207|239:139,1,160,4|0,0:0|0:0,0:0:0:0:
203,71,29629,1,0,0:0:0:0:
127,96,29849,2,0,L|40:86,2,80,2|0|0,0:0|0:0|0:0,0:0:0:0:
50,236,30727,2,0,P|113:293|210:282,1,160,2|2,0:0|0:0,0:0:0:0:
247,243,31385,2,0,L|282:170,1,80,0|4,0:0|0:0,0:0:0:0:
330,148,31751,6,0,L|359:83,2,53.3333333333333
370,182,32190,2,0,L|341:247,2,53.3333333333333,0|0|4,0:0|0:0|0:0,0:0:0:0:
467,309,32922,2,0,B|418:337|360:303|360:303|324:336,1,160,2|2,0:0|0:0,0:0:0:0:
254,298,33580,1,0,0:0:0:0:
182,262,33800,2,0,P|103:264|43:318,2,160,0|2|2,0:0|0:0|0:0,0:0:0:0:
318,178,35116,6,0,P|252:139|188:179,1,160,4|0,0:0|0:0,0:0:0:0:
256,229,35775,2,0,L|256:68,1,160,2|0,0:0|0:0,0:0:0:0:
333,49,36433,1,2,0:0:0:0:
374,117,36653,1,0,0:0:0:0:
389,195,36872,2,0,P|470:165|464:93,2,160,4|0|2,0:0|0:0|0:0,0:0:0:0:
385,275,37970,2,0,L|300:286,1,80,0|2,0:0|0:0,0:0:0:0:
239,254,38409,1,0,0:0:0:0:
159,259,38628,6,0,P|127:331|46:333,1,160,4|0,0:0|0:0,0:0:0:0:
10,268,39287,2,0,P|42:196|123:194,1,160,2|0,0:0|0:0,0:0:0:0:
145,119,39945,2,0,P|182:119|221:93,1,80,2|0,0:0|0:0,0:0:0:0:
277,43,40384,5,4,0:0:0:0:
332,101,40603,2,0,L|386:115,2,40,0|0|2,0:0|0:0|0:0,0:0:0:0:
290,169,41042,2,0,L|326:208,2,40,0|0|2,0:0|0:0|0:0,0:0:0:0:
213,194,41481,1,0,0:0:0:0:
201,197,41591,1,0,0:0:0:0:
189,200,41701,1,2,0:0:0:0:
186,279,41920,1,2,0:0:0:0:
185,278,42140,6,0,P|257:319|325:266,1,160,4|0,0:0|0:0,0:0:0:0:
391,319,42798,1,0,0:0:0:0:
440,256,43018,2,0,P|444:215|440:171,1,80,2|0,0:0|0:0,0:0:0:0:
374,51,43457,2,0,P|370:92|374:131,1,80,2|0,0:0|0:0,0:0:0:0:
302,167,43896,2,0,P|331:239|298:319,1,160,4|0,0:0|0:0,0:0:0:0:
208,312,44554,2,0,P|181:239|210:163,1,160,2|0,0:0|0:0,0:0:0:0:
194,85,45213,1,2,0:0:0:0:
142,24,45432,1,0,0:0:0:0:
84,79,45651,6,0,P|21:103|15:214,1,160,4|0,0:0|0:0,0:0:0:0:
56,244,46310,2,0,P|126:212|139:136,1,160,2|0,0:0|0:0,0:0:0:0:
194,85,46968,2,0,P|228:61|282:57,1,80,2|0,0:0|0:0,0:0:0:0:
256,134,47407,5,4,0:0:0:0:
376,28,47846,2,0,P|448:40|445:115,1,160,2|0,0:0|0:0,0:0:0:0:
405,183,48505,2,0,P|443:193|494:175,2,80,0|2|0,0:0|0:0|0:0,0:0:0:0:
362,251,49163,5,4,0:0:0:0:
286,236,49383,2,0,L|236:220,2,40
258,310,49822,1,0,0:0:0:0:
180,290,50041,2,0,P|129:340|38:306,1,160,2|2,0:0|0:0,0:0:0:0:
102,259,50700,2,0,L|76:170,1,80,0|4,0:0|0:0,0:0:0:0:
54,106,51138,5,0,0:0:0:0:
54,106,51248,1,0,0:0:0:0:
54,106,51358,2,0,P|139:106|216:136,1,160,0|2,0:0|0:0,0:0:0:0:
282,163,52016,2,0,P|283:204|276:246,2,80,0|2|0,0:0|0:0|0:0,0:0:0:0:
343,108,52675,5,4,0:0:0:0:
401,161,52894,1,0,0:0:0:0:
401,161,53004,1,0,0:0:0:0:
401,161,53114,2,0,P|460:224|439:296,1,160,0|2,0:0|0:0,0:0:0:0:
381,240,53772,1,0,0:0:0:0:
335,306,53992,2,0,P|261:320|168:320,1,160,2|4,0:0|0:0,0:0:0:0:
83,245,54650,6,0,L|89:193,2,40,0|0|2,0:0|0:0|0:0,0:0:0:0:
22,162,55089,2,0,L|14:119,2,40,0|0|2,0:0|0:0|0:0,0:0:0:0:
92,123,55528,1,0,0:0:0:0:
103,120,55638,1,0,0:0:0:0:
114,117,55748,1,2,0:0:0:0:
185,82,55967,1,2,0:0:0:0:
230,147,56187,6,0,P|267:220|352:217,1,160,4|0,0:0|0:0,0:0:0:0:
371,297,56845,1,0,0:0:0:0:
447,274,57064,2,0,P|449:229|448:187,1,80,2|0,0:0|0:0,0:0:0:0:
379,74,57503,2,0,P|377:119|378:154,1,80,2|0,0:0|0:0,0:0:0:0:
313,201,57942,2,0,P|254:242|187:197,1,160,4|0,0:0|0:0,0:0:0:0:
118,163,58601,1,0,0:0:0:0:
123,242,58820,2,0,P|255:319|387:240,1,320,2|4,0:0|0:0,0:0:0:0:
443,91,60137,5,0,0:0:0:0:
283,84,60576,2,0,P|252:114|215:117,1,80,2|0,0:0|0:0,0:0:0:0:
75,181,61015,2,0,P|106:151|142:148,1,80,2|0,0:0|0:0,0:0:0:0:
117,71,61454,2,0,L|168:243,1,160,4|2,0:0|0:0,0:0:0:0:
213,286,62113,2,0,L|204:337,2,40,0|0|0,0:0|0:0|0:0,0:0:0:0:
299,286,62551,2,0,L|308:337,2,40,0|0|2,0:0|0:0|0:0,0:0:0:0:
256,217,62990,1,0,0:0:0:0:
330,186,63210,6,0,L|398:193,2,53.3333333333333,4|0|0,0:0|0:0|0:0,0:0:0:0:
315,134,63649,2,0,L|239:127,2,53.3333333333333
330,82,64088,2,0,P|396:62|470:130,1,160,4|0,0:0|0:0,0:0:0:0:
431,185,64746,1,0,0:0:0:0:
393,255,64966,2,0,L|310:266,1,80,2|0,0:0|0:0,0:0:0:0:
250,314,65405,2,0,P|156:344|83:320,1,160,0|2,0:0|0:0,0:0:0:0:
151,177,66283,2,0,P|102:180|72:153,1,80,2|0,0:0|0:0,0:0:0:0:
42,117,66722,6,0,L|-27:106,2,53.3333333333333,4|0|0,0:0|0:0|0:0,0:0:0:0:
67,70,67161,2,0,L|12:30,2,53.3333333333333
114,95,67600,2,0,P|163:155|242:133,1,160,4|0,0:0|0:0,0:0:0:0:
273,68,68258,1,0,0:0:0:0:
350,47,68477,2,0,P|374:81|410:88,1,80,2|0,0:0|0:0,0:0:0:0:
489,80,68916,2,0,L|476:254,1,160,0|2,0:0|0:0,0:0:0:0:
329,264,69794,2,0,P|367:271|410:298,1,80,2|0,0:0|0:0,0:0:0:0:
338,347,70233,6,0,L|176:347,1,160,4|0,0:0|0:0,0:0:0:0:
181,266,70892,2,0,P|256:241|338:269,1,160,2|0,0:0|0:0,0:0:0:0:
371,194,71550,2,0,P|328:166|290:162,1,80,2|0,0:0|0:0,0:0:0:0:
141,194,71989,2,0,P|184:166|222:162,1,80,4|0,0:0|0:0,0:0:0:0:
257,96,72428,1,0,0:0:0:0:
104,48,72867,2,0,P|38:80|42:168,2,160,2|2|4,0:0|0:0|0:0,0:0:0:0:
107,128,73964,5,0,0:0:0:0:
171,175,74184,1,2,0:0:0:0:
330,171,74623,2,0,L|421:156,2,80,0|0|2,0:0|0:0|0:0,0:0:0:0:
323,250,75281,2,0,B|303:287|303:287|266:314,1,80,0|4,0:0|0:0,0:0:0:0:
234,235,75720,6,0,L|187:240,2,40,0|0|2,0:0|0:0|0:0,0:0:0:0:
287,178,76159,2,0,L|337:184,2,40,0|0|2,0:0|0:0|0:0,0:0:0:0:
219,134,76598,1,0,0:0:0:0:
211,131,76708,1,0,0:0:0:0:
203,128,76818,1,2,0:0:0:0:
153,65,77037,1,2,0:0:0:0:
112,134,77257,6,0,P|54:137|29:234,1,160,4|0,0:0|0:0,0:0:0:0:
92,262,77915,1,0,0:0:0:0:
171,274,78135,2,0,P|178:321|193:351,2,80,2|0|2,0:0|0:0|0:0,0:0:0:0:
202,200,78793,1,0,0:0:0:0:
132,159,79013,2,0,B|117:88|164:67|164:67|219:81,1,160,4|0,0:0|0:0,0:0:0:0:
296,80,79671,2,0,B|348:67|348:67|395:88|380:159,1,160,2|0,0:0|0:0,0:0:0:0:
318,211,80329,1,2,0:0:0:0:
258,264,80549,1,0,0:0:0:0:
256,192,80768,12,4,84280,0:0:0:0:
