osu file format v12

[General]
AudioFilename: 04.-overworld.mp3
AudioLeadIn: 0
PreviewTime: 6144
Countdown: 1
SampleSet: Soft
StackLeniency: 0.7
Mode: 0
LetterboxInBreaks: 1
WidescreenStoryboard: 1

[Editor]
DistanceSpacing: 1
BeatDivisor: 4
GridSize: 4

[Metadata]
Title:Overworld
TitleUnicode:Overworld
Artist:Koji Kondo
ArtistUnicode:Koji Kondo
Creator:MoodyRPG
Version:Easy
Source:The Legend of Zelda: A Link to the Past
Tags:alttp super nintendo snes world map theme
BeatmapID:301035
BeatmapSetID:97252

[Difficulty]
HPDrainRate:2
CircleSize:3
OverallDifficulty:2
ApproachRate:2
SliderMultiplier:0.9
SliderTickRate:2

[Events]
//Background and Video events
0,0,"castle.jpg",0,0
//Break Periods
//Storyboard Layer 0 (Background)
//Storyboard Layer 1 (Fail)
//Storyboard Layer 2 (Pass)
//Storyboard Layer 3 (Foreground)
//Storyboard Sound Samples
//Background Colour Transformations
3,100,163,162,255

[TimingPoints]
0,438.961194029849,4,2,0,60,1,0
80768,-100,4,2,0,10,0,0

[Colours]
Combo1 : 0,128,0
Combo2 : 0,202,0
Combo3 : 18,124,255
Combo4 : 242,24,57

[HitObjects]
197,337,7023,2,0,P|256:280|315:344,1,180,4|2,0:0|0:0,0:0:0:0:
392,289,8340,1,0,0:0:0:0:
424,205,8779,2,0,L|415:52,2,135,4|2|0,0:0|0:0|0:0,0:0:0:0:
490,280,10535,6,0,P|444:346|355:321,1,180,4|2,0:0|0:0,0:0:0:0:
300,256,11851,1,0,0:0:0:0:
255,177,12290,2,0,P|220:210|215:261,2,90,4|2|0,0:0|0:0|0:0,0:0:0:0:
190,113,13607,1,2,0:0:0:0:
126,48,14046,6,0,P|64:80|71:194,1,180,4|2,0:0|0:0,0:0:0:0:
178,319,15802,2,0,P|256:280|336:318,1,180,4|2,0:0|0:0,0:0:0:0:
450,182,17558,2,0,P|456:97|373:51,2,180,4|2|4,0:0|0:0|0:0,0:0:0:0:
371,141,19753,2,0,L|187:141,1,180,0|2,0:0|0:0,0:0:0:0:
138,67,21070,6,0,P|94:77|66:120,1,90,4|2,0:0|0:0,0:0:0:0:
98,289,22387,1,2,0:0:0:0:
165,229,22825,2,0,P|253:220|314:280,1,180,4|2,0:0|0:0,0:0:0:0:
473,196,24581,2,0,L|481:13,2,180,4|2|4,0:0|0:0|0:0,0:0:0:0:
389,161,26776,2,0,L|379:353,1,180,4|2,0:0|0:0,0:0:0:0:
291,323,28093,6,0,P|247:327|200:301,2,90,4|2|4,0:0|0:0|0:0,0:0:0:0:
153,199,29849,2,0,P|87:218|66:323,2,180,0|2|4,0:0|0:0|0:0,0:0:0:0:
200,122,32044,6,0,L|294:153,1,90,0|4,0:0|0:0,0:0:0:0:
310,236,32922,1,2,0:0:0:0:
382,292,33361,2,0,P|424:275|481:279,2,90,0|2|0,0:0|0:0|0:0,0:0:0:0:
310,236,34677,1,2,0:0:0:0:
255,307,35116,6,0,P|185:348|85:338,1,180,4|2,0:0|0:0,0:0:0:0:
42,262,36433,1,0,0:0:0:0:
82,181,36872,2,0,L|62:38,2,135,4|2|2,0:0|0:0|0:0,0:0:0:0:
172,174,38628,6,0,P|243:186|319:109,1,180,4|2,0:0|0:0,0:0:0:0:
389,62,39945,1,2,0:0:0:0:
432,140,40384,2,0,L|442:247,1,90,4|2,0:0|0:0,0:0:0:0:
359,269,41262,2,0,L|348:171,1,90,0|2,0:0|0:0,0:0:0:0:
276,125,42140,6,0,P|216:142|136:68,1,180,4|2,0:0|0:0,0:0:0:0:
36,219,43896,2,0,L|13:358,2,135,4|2|0,0:0|0:0|0:0,0:0:0:0:
120,189,45651,5,4,0:0:0:0:
166,266,46090,2,0,P|225:315|328:309,1,180,2|2,0:0|0:0,0:0:0:0:
392,252,47407,2,0,P|414:292|411:338,2,90,4|2|0,0:0|0:0|0:0,0:0:0:0:
328,187,48724,1,2,0:0:0:0:
386,117,49163,6,0,P|396:38|313:39,1,180,4|2,0:0|0:0,0:0:0:0:
258,109,50480,1,2,0:0:0:0:
203,37,50919,2,0,P|123:35|130:115,1,180,4|2,0:0|0:0,0:0:0:0:
169,195,52236,1,2,0:0:0:0:
171,285,52675,6,0,B|210:285|256:310|256:310|303:286|343:286,2,180,4|2|4,0:0|0:0|0:0,0:0:0:0:
158,198,54870,2,0,P|115:212|64:206,1,90,2|0,0:0|0:0,0:0:0:0:
60,118,55748,2,0,P|103:104|154:110,1,90,2|4,0:0|0:0,0:0:0:0:
234,85,56625,6,0,P|318:118|411:110,1,180,2|2,0:0|0:0,0:0:0:0:
445,192,57942,2,0,P|468:237|471:283,2,90,4|2|0,0:0|0:0|0:0,0:0:0:0:
380,254,59259,1,2,0:0:0:0:
341,335,59698,6,0,P|261:339|180:282,1,180,4|0,0:0|0:0,0:0:0:0:
149,199,61015,1,2,0:0:0:0:
65,168,61454,2,0,P|33:200|16:240,2,90,4|2|0,0:0|0:0|0:0,0:0:0:0:
122,95,62771,1,2,0:0:0:0:
204,130,63210,6,0,P|268:159|272:264,1,180,4|4,0:0|0:0,0:0:0:0:
447,313,64966,2,0,L|460:224,1,90,2|0,0:0|0:0,0:0:0:0:
397,159,65844,2,0,L|412:60,1,90,0|2,0:0|0:0,0:0:0:0:
326,38,66722,6,0,P|241:18|172:85,1,180,4|4,0:0|0:0,0:0:0:0:
119,231,68477,2,0,P|77:211|24:216,2,90,0|2|0,0:0|0:0|0:0,0:0:0:0:
182,294,69794,1,2,0:0:0:0:
255,242,70233,6,0,L|255:60,2,180,4|2|4,0:0|0:0|0:0,0:0:0:0:
328,295,72428,1,2,0:0:0:0:
394,130,73306,1,2,0:0:0:0:
339,58,73745,6,0,P|255:27|170:62,1,180,4|2,0:0|0:0,0:0:0:0:
90,25,75062,1,2,0:0:0:0:
48,104,75501,2,0,P|35:145|47:191,1,90,4|2,0:0|0:0,0:0:0:0:
122,237,76379,2,0,P|133:280|120:322,1,90,0|2,0:0|0:0,0:0:0:0:
207,345,77257,5,4,0:0:0:0:
267,277,77696,2,0,P|343:291|421:218,1,180,2|2,0:0|0:0,0:0:0:0:
484,169,79013,2,0,L|444:28,2,135,4|2|2,0:0|0:0|0:0,0:0:0:0:
256,192,80768,12,4,84280,0:0:0:0:
